#TITLE:midnight;
#SUBTITLE:moonshine;
#ARTIST:Serenade;
#TITLETRANSLIT:;
#SUBTITLETRANSLIT:;
#ARTISTTRANSLIT:;
#CREDIT:;
#BANNER:midnightbn.png;
#BACKGROUND:midnightbg.png;
#LYRICSPATH:;
#CDTITLE:!cdtitle.png;
#MUSIC:06 midnight.mp3;
#OFFSET:-8.257;
#SAMPLESTART:183.320;
#SAMPLELENGTH:20.000;
#SELECTABLE:YES;
#BPMS:0.000=132.130,44.000=139.670,47.500=139.680,50.500=154.825,52.000=155.025,244.000=155.015,372.000=155.025;
#STOPS:;
#BGCHANGES:;
// cache tags:
#FIRSTBEAT:0.000;
#LASTBEAT:572.000;
#SONGFILENAME:Songs/Astronomic Metal Collection 2/(moches) midnight/12am.sm;
#HASMUSIC:1;
#HASBANNER:1;
#MUSICLENGTH:242.599;
// end cache tags

//---------------dance-single - original chart----------------
#NOTES:
     dance-single:
     original chart:
     Edit:
     11:
     1.000,1.000,1.000,0.750,0.493,1275.000,465.000,182.000,20.000,97.000:
1100
0000
0001
0000
0010
0000
0100
0000
0001
0000
0010
0000
0100
0000
1000
0100
,
0020
0000
0100
0000
1000
0000
0100
0000
0032
0000
0010
0000
0100
0000
0013
0100
,
2001
0000
0010
0000
0100
0000
0010
0000
0001
0000
0010
0000
3100
0000
1000
0010
,
1000
0100
0010
1000
0100
0010
0002
0010
,
1103
0010
0100
0010
0001
0010
0100
0010
,
0002
0000
0000
0000
0000
0000
0000
0000
0000
0000
0000
0000
0000
0000
0000
0000
0000
0000
0000
0000
0000
0000
0000
0000
1000
0000
0000
0000
0000
0000
0000
0000
0000
0000
0000
0000
0000
0000
0000
0000
0000
0000
0000
0000
0000
0000
0000
0000
0010
0000
0000
0000
0000
0000
0000
0000
0000
0000
0000
0000
0000
0000
0000
0000
0000
0000
0000
0000
0000
0000
0000
0000
0100
0000
0000
0000
0000
0000
0000
0000
0000
0000
0000
0000
0000
0000
0000
0000
0000
0000
0000
0000
0000
0000
0000
0000
1000
0000
0000
0000
0000
0000
0000
0000
0000
0000
0000
0000
0000
0000
0000
0000
0000
0000
0000
0000
0000
0000
0000
0000
0010
0000
0000
0000
0000
0000
0000
0000
0000
0000
0000
0000
0000
0000
0000
0000
0000
0000
0000
0000
0000
0003
0000
0000
0001
0000
0000
0000
0000
0000
0000
0000
0000
0000
0000
0000
0000
0000
0000
0000
0010
0000
0000
0000
0000
0000
0000
0000
1000
0000
0000
0000
0000
0000
0000
0000
0100
0000
0000
0000
0000
0000
0000
0000
0000
0000
0000
0000
0000
0000
0000
0000
,
1001
0000
0000
0000
0020
0000
0100
0000
0000
0000
0000
0000
0001
0000
0000
0000
0000
0000
0130
0000
0000
1000
0000
0000
0002
0000
0000
0000
0000
0000
1000
0000
0000
0000
0000
0000
0110
0000
0000
0000
0000
0000
1003
0000
0000
0000
0000
0000
,
0100
0000
0010
0000
0101
0000
1000
0100
0001
0000
1200
0000
0010
0000
1300
0000
,
0001
0000
0000
0000
0000
0000
0000
0000
0000
0000
0000
0000
0000
0000
0000
0000
0000
0000
0000
0000
0000
0000
0000
0000
0100
0000
0000
0000
0000
0000
0000
0000
0000
0000
0000
0000
0000
0000
0000
0000
0000
0000
0000
0000
0000
0000
0000
0000
0010
0000
0000
0000
0000
0000
0000
0000
0000
0000
0000
0000
0000
0000
0000
0000
0000
0000
0000
0000
0000
0000
0000
0000
0100
0000
0000
0000
0000
0000
0000
0000
0000
0000
0000
0000
0000
0000
0000
0000
0000
0000
0000
0000
0000
0000
0000
0000
1000
0000
0000
0000
0000
0000
0000
0000
0000
0000
0000
0000
0000
0000
0000
0000
0000
0000
0000
0000
0000
0000
0000
0000
0001
0000
0000
0000
0000
0000
0000
0000
0000
0100
0000
0000
0000
0000
0000
0000
0000
0000
0000
0000
0000
0000
0000
0000
1000
0000
0000
0000
0000
0000
0000
0000
0000
0000
0000
0000
0000
0000
0000
0000
0010
0000
0000
0000
0000
0000
0000
0000
0001
0000
0000
0000
0000
0000
0000
0000
0000
0000
0000
0000
0000
0000
0000
0000
0000
0000
0000
0000
0000
0000
0000
0000
,
0100
0000
0000
0000
0000
0000
0000
0000
0000
0000
0000
0000
0000
0000
0000
0000
0000
0000
0000
0000
0000
0000
0000
0000
1000
0000
0000
0000
0000
0000
0000
0000
0000
0010
0000
0000
0000
0000
0000
0000
0000
0000
0000
0000
0000
0000
0000
0000
0100
0000
0000
0000
0000
0000
0000
0000
0000
0000
0000
0000
0000
0000
0000
0000
0000
0000
0000
0000
0000
0000
0000
0000
1000
0000
0000
0000
0000
0000
0000
0000
0000
0000
0000
0000
0001
0000
0000
0000
0000
0000
0000
0000
0000
0000
0000
0000
0010
0000
0000
0000
0000
0000
0000
0000
0000
0000
0000
0000
0000
0000
0000
0000
0000
0000
0000
0000
0000
0000
0000
0000
0001
0000
0000
0000
0000
0000
0000
0000
0100
0000
0000
0000
0000
0000
0000
0000
0000
0000
0000
0000
0000
0000
0000
0000
0010
0000
0000
0000
0000
0000
0000
0000
0000
0000
0000
0000
0000
0000
0000
0000
0100
0000
0000
0000
0000
0000
0000
0000
0001
0000
0000
0000
0000
0000
0000
0000
0000
0000
0000
1000
0000
0000
0000
0000
0000
0000
0000
0000
0000
0000
0000
0000
,
0200
0000
0000
0000
0000
0000
0000
0000
0010
0000
0000
0000
0000
0000
0000
0000
0001
0000
0000
0000
0000
0000
0000
0000
1010
0000
0000
0000
0000
0000
0000
0000
0001
0000
0000
0000
0000
0000
0000
0000
0010
0000
0000
0000
0000
0000
0000
0000
1000
0001
0000
0000
0000
0000
0000
0000
0010
0000
0000
0000
0000
0000
0000
0000
,
0001
1000
0000
0000
0000
0000
0000
0000
0000
0000
0000
0000
0000
0000
0000
0000
0000
0000
0000
0000
0000
0000
0000
0000
0000
0000
0000
0000
0000
0000
0000
0000
0000
0000
0000
0000
0000
0000
0000
0000
0000
0000
0000
0000
0000
0000
0000
0000
,
0300
0000
0000
0000
0000
0100
1000
0010
,
1101
0000
0010
0000
1100
0000
0010
0010
1100
0000
1001
0000
0100
0000
1001
0000
,
0010
0000
0000
0000
1100
0000
0000
0000
0020
0030
0000
0000
0100
0000
0000
0000
1001
0000
0000
0000
0110
0000
0000
0000
0001
0000
0000
0000
1010
0000
0000
0000
,
1010
0000
0100
0000
1010
0000
0100
0100
1010
0000
1001
0000
0010
0000
1100
0001
,
1001
0000
0000
0000
0000
0000
0000
0000
0110
0000
0000
0000
0000
0000
0000
0000
0102
0000
0003
0000
0000
0000
0000
0000
1000
0000
0000
0000
0100
0000
0000
0000
1001
0000
0000
0000
0000
0000
0000
0000
1010
0000
0000
0000
0000
0000
0000
0000
0200
0300
0000
0000
0000
0000
0000
0000
1010
0000
0000
0000
0000
0000
0000
0000
,
1101
0000
0000
0000
1010
0000
0100
0100
1010
0000
1100
0000
0010
0000
1001
0000
,
0010
0000
0000
0000
1001
0000
0000
0000
0200
0300
0000
0000
1000
0000
0000
0000
0011
0000
0000
0000
0110
0000
0000
0000
1000
0000
0000
0000
0110
0000
0000
0000
,
0101
0000
0000
0000
0000
0000
1000
0000
0000
0000
0000
0000
0110
0001
0000
0000
0000
0000
0100
0000
0000
0010
0000
0000
1001
0000
0000
0100
0000
0000
1010
0000
0000
0000
0000
0000
0100
0000
0000
0100
0000
0000
1010
0000
0000
0000
0000
0000
,
0000
0000
0000
0000
0000
0000
0000
0000
0110
0000
0000
0000
0010
0000
0000
0000
2000
0000
3000
0000
0000
0000
0000
0000
0010
0000
0000
0000
0000
0000
0000
0000
0101
0000
0000
0000
0000
0000
0000
0000
1010
0000
0000
0000
0000
0000
0000
0000
0200
0300
0000
0000
0000
0000
0000
0000
1001
0000
0000
0000
0000
0000
0000
0000
,
1011
0000
0000
0000
0100
0000
0000
0000
1010
0000
0000
0000
0001
0000
0001
0000
0110
0000
0000
0000
1010
0000
0000
0000
0101
0000
0000
0000
1002
0003
0000
0000
,
0000
0000
0000
0000
1001
0000
0000
0000
0010
0000
0000
0000
1100
0000
0000
0000
0102
0003
0000
0000
1010
0000
1000
0000
0012
0003
0000
0000
1100
0000
0000
0000
,
1010
0100
0001
0000
0000
0000
0000
0000
1000
0000
0000
0000
0000
0000
0000
0000
0110
0000
0000
0000
0000
0000
0000
0000
0101
0000
0000
0000
0100
0000
0000
0000
1010
0000
0000
0000
0000
0000
0000
0000
1010
0000
0000
0000
0000
0000
0000
0000
1001
0000
0000
0000
0000
0000
0000
0000
1011
0000
0000
0000
0000
0000
0000
0000
,
0000
0000
0000
0000
1011
0000
0000
0000
0101
0000
0000
0000
0010
0000
0010
0000
1002
0003
0000
0000
0010
0000
1000
0000
0101
0000
1000
0000
0010
0000
1000
0000
,
0111
0000
1000
0000
0110
0000
0001
0001
1010
0000
0110
0000
0101
0000
0110
0000
,
0000
0000
0000
0000
0110
0000
0000
0000
2100
3000
0000
0000
0000
0000
0000
0000
0101
0000
0000
0000
1100
0000
0000
0000
0101
0000
0000
0000
1001
0000
0000
0000
,
1010
0000
0001
0000
0110
0000
1000
0100
0011
1000
0110
0000
1000
0000
0110
0000
,
0001
0000
0000
0000
0000
0000
0000
0000
1001
0010
0000
0000
0000
0000
0000
0000
0200
0000
0300
0000
0000
0000
0000
0000
0000
1000
0000
0000
0000
0000
0000
0000
0101
0000
0000
0000
0000
0000
0000
0000
0011
0000
0000
0000
0000
0000
0000
0000
0100
0000
0000
0000
0000
0000
0000
0000
0001
0000
0000
0000
0000
0000
0000
0000
,
1110
0000
1010
0100
1010
1100
0011
0110
,
0000
0000
0000
0000
0110
0000
0000
0000
2000
3000
0100
0000
0010
0000
0100
0000
1001
0000
0010
0000
0101
0000
0010
0000
1100
0000
0010
0000
1001
0000
0010
0000
,
1100
0000
0000
0000
0100
0000
0000
0000
1001
0000
0000
0000
1000
0000
0000
0000
0011
0000
0000
0000
0100
0000
0012
0003
0100
0000
0000
0000
1011
0000
0000
0000
,
0000
0000
0000
0000
0000
0000
0000
0000
0001
0000
0000
0000
0000
0000
0000
0000
0010
0000
0000
0000
0000
0000
0000
0000
0000
0000
0000
1000
0000
0000
0100
0000
0011
0000
0000
0000
0000
0000
0000
0000
0001
0000
0000
0000
0000
0000
0000
0000
0100
0000
0000
0000
0000
0000
0000
0000
0100
0000
0000
0000
0000
0000
0000
0000
,
1011
1000
0101
1000
0110
0001
0010
1100
,
0010
0101
1100
0001
1010
1100
0010
1001
,
1010
0100
0010
1100
0011
1000
0100
1010
,
1001
0000
0110
0000
0101
1000
0001
1000
0111
0000
1000
0000
0110
0000
1000
0000
,
0101
0010
0100
1001
0010
0100
1010
0001
,
1010
0110
1000
0011
0101
1000
0100
0010
,
1001
0000
0010
0000
0100
0000
1001
1000
0011
0000
0101
0000
1010
0000
0100
0000
,
1011
0000
1000
0000
0110
0000
1000
0000
0101
0000
2000
3000
0200
0300
2001
3000
,
0020
0030
2100
3000
0201
0300
2000
3000
0012
0000
0110
0000
0100
0000
1013
0100
,
2001
0100
3010
1100
1010
1001
0101
0110
,
0011
0000
0000
0000
0000
0000
0000
0000
0110
0000
0000
0000
0000
0000
0000
0000
1100
0000
0000
0000
0010
0000
0000
0000
0001
0000
0000
0000
0010
0000
0000
0000
1101
0000
0000
0000
0000
0000
0000
0000
1000
0000
0000
0000
0000
0000
0000
0000
0110
0000
0000
0000
0000
0000
0000
0000
0001
0000
0000
0010
0000
0000
0000
0000
,
1100
0000
0000
0000
0000
0001
0000
0000
0010
0000
0000
0000
1000
0000
0000
0000
0100
0000
0000
0000
0010
0000
0000
0000
1001
0000
0000
0000
0000
0000
0000
0000
0020
0000
0000
0000
0030
0000
0000
0000
0101
0000
0000
0000
0000
0000
0000
0000
0110
0000
0000
0000
0000
0000
0000
0000
1000
0000
0000
0000
0100
0000
0000
0000
,
0022
0000
0030
0000
0003
0000
0000
0000
0110
0000
0000
0000
0000
0000
0000
0000
1000
0000
0000
0000
0000
0000
0000
0000
0101
0000
0000
0000
0000
0010
0000
0000
1200
0000
0000
0000
0300
0000
0000
0000
1000
0000
0000
0000
0000
0000
0000
0000
0100
0000
0000
0000
0000
0000
0000
0000
1010
0000
0000
0000
0000
0000
0000
0000
,
1001
0000
0000
0000
0000
0000
0000
0000
0000
0000
0000
0000
0000
0000
0000
0000
0000
0000
0000
0000
0000
0000
0000
0000
0011
0000
0000
0000
0000
0000
0000
0000
0000
0000
0000
0000
0000
0000
0000
0000
0000
0000
0000
0000
0000
0000
0000
0000
0110
0000
0000
0000
0000
0000
0000
0000
0000
0000
0000
0000
0000
0000
0000
0000
0000
0000
0000
0000
0000
0000
0000
0000
0101
0000
0000
0000
0000
0000
0000
0000
0000
0000
0000
0000
0000
0100
0000
0000
0000
0000
0000
0000
0000
0000
0000
0000
1011
0000
0000
0000
0000
0000
0000
0000
0000
0000
0000
0000
0000
0000
0000
0000
0000
0000
0000
0000
0000
0000
0000
0000
0110
0000
0000
0000
0000
0000
0000
0000
0000
0000
0000
0000
0000
0000
0000
0000
0000
0000
0000
0000
0000
0000
0000
0000
1011
0000
0000
0000
0000
0000
0000
0000
0000
0000
0000
0000
0000
0000
0000
0000
0000
0000
0000
0000
0000
0000
0000
0000
0110
0000
0000
0000
0000
0000
0000
0000
0000
0000
0000
0000
0000
0000
0000
0000
0000
0000
0000
0000
0000
0000
0000
0000
,
1021
0030
0100
0000
0011
0000
1000
0000
0201
0300
1000
0000
0020
0030
0101
0000
,
2000
3000
0101
0000
1200
0300
1010
0000
0012
0003
1000
0000
0100
0000
1001
0000
,
1020
0030
0100
0000
0001
0000
1100
0000
0201
0300
1000
0000
0020
0030
0101
0000
,
0110
0000
1010
0000
0011
0100
0001
0100
1021
0030
1000
0000
0011
0000
1000
0000
,
0210
0000
0000
0300
0000
0000
0001
0000
0000
0000
0000
0000
0020
0000
0000
0030
0000
0000
0101
0000
0000
0000
0000
2000
3200
0000
0000
0300
0000
0000
0011
0000
0000
0000
0000
0000
0120
0000
0000
0030
0000
0000
0000
0000
0000
0000
0000
0000
,
0110
0000
0000
0000
0000
0000
0001
0000
0000
0000
0000
0000
0000
0000
0000
0000
0010
0000
0000
0000
0000
0000
0000
0000
1100
0000
0000
0000
0000
0000
0000
0000
0000
0000
0000
0000
0000
0000
0000
0000
0000
0000
0000
0000
0000
0000
0000
0000
0010
0000
0000
0000
0000
0000
0000
0000
0000
0000
0000
0000
0000
0000
0000
0000
0000
0000
0000
0000
0000
0000
0000
0000
1001
0000
0000
0000
0000
0000
0000
0000
0000
0000
0000
0000
0000
0000
0000
0000
0000
0000
0000
0000
0000
0000
0000
0000
0201
0000
0000
0000
0000
0000
0000
0000
0000
0000
0000
0000
0300
0000
0000
0000
0000
0000
0000
0000
0000
0000
0000
0000
1000
0000
0000
0000
0000
0000
0000
0000
0000
0000
0000
0000
0000
0000
0000
0000
0000
0000
0000
0000
0000
0000
0000
0000
0001
0000
0000
0000
0000
0000
0000
0000
0000
0000
0000
0000
0000
0000
0000
0000
0000
0000
0000
0000
0000
0000
0000
0000
2100
0000
0000
0000
0000
0000
0000
0000
0000
0000
0000
0000
3000
0000
0000
0000
0000
0000
0000
0000
0000
0000
0000
0000
,
0201
0300
1001
0000
0200
0300
1010
0010
1101
0000
0110
0000
1101
0000
0110
0000
,
1101
0000
0010
0001
1100
0001
0010
0001
1010
0000
0100
0010
1000
0010
0101
0010
,
1000
0101
1001
0100
0011
1010
0100
1010
,
1100
0000
0000
0000
0010
0000
0000
0000
1000
0000
0000
0000
0001
0000
0000
0000
0000
0000
0110
0000
0000
0000
0000
0000
0011
0000
0000
0000
0000
0000
1000
0000
0000
0100
0000
0000
0010
0000
0000
0000
0000
0000
1100
0000
0000
0010
0000
0000
,
1001
0000
1100
0010
1001
0010
1000
0010
1101
0000
0010
0001
1100
0000
0110
0000
,
0110
0000
0000
0000
0000
0000
0011
0000
0000
0000
0000
0000
1010
0000
0000
0000
0000
0000
1010
0000
0000
0000
0000
0100
1000
0000
0000
0000
0000
0000
0101
0000
0000
0000
0000
0000
1001
0000
0000
0000
0000
0000
0100
0000
0000
0000
0000
0000
,
1010
0000
0000
0000
0000
0000
0001
0000
0000
0000
0000
0000
0000
0000
0000
0000
0010
0000
0000
0000
0000
0000
0000
0000
1100
0000
0000
0000
0000
0000
0000
0000
0000
0000
0000
0000
0000
0000
0000
0000
0000
0000
0000
0000
0000
0000
0000
0000
0010
0000
0000
0000
0000
0000
0000
0000
0000
0000
0000
0000
0000
0000
0000
0000
0000
0000
0000
0000
0000
0000
0000
0000
1001
0000
0000
0000
0000
0000
0000
0000
0000
0000
0000
0000
0000
0000
0000
0000
0000
0000
0000
0000
0000
0000
0000
0000
1100
0000
0000
0000
0000
0000
0000
0000
0000
0000
0000
0000
0000
0000
0000
0000
0000
0000
0000
0000
0000
0000
0000
0000
0011
0000
0000
0000
0000
0000
0000
0000
0000
0000
0000
0000
0000
0000
0000
0000
0000
0000
0000
0000
0000
0000
0000
0000
0011
0000
0000
0000
0000
0000
0000
0000
0000
0000
0000
0000
0000
0000
0000
0000
0000
0000
0000
0000
0000
0000
0000
0000
1100
0000
0000
0000
0000
0000
0000
0000
0000
0000
0000
0000
0000
0000
0000
0000
0000
0000
0000
0000
0000
0000
0000
0000
,
0101
0000
0101
0000
0010
0000
0110
0000
0110
0000
1100
0000
1010
0100
0010
0000
,
1121
0000
0130
1000
0110
0001
0010
0000
,
0110
1000
0010
0001
0110
0001
0010
0100
,
1010
0000
1000
0001
1010
0001
0010
0001
,
1010
0001
1000
0001
0110
0000
0100
1000
,
0110
0001
0010
0000
0110
1000
0010
0001
,
0110
0001
0010
0100
1010
0000
1000
0001
,
1010
0001
0010
0001
1010
0001
1000
0001
,
0110
1000
0100
0010
0100
1000
0100
0010
0101
1000
0100
1000
0100
0010
0100
0001
,
0110
0001
0010
0100
0010
0100
0010
1000
0011
0100
1000
0100
1000
0100
0001
0100
,
1010
0000
1000
0010
0100
0000
0010
0100
0001
0000
1000
0010
0100
0000
0001
0000
,
0010
0000
0100
0000
1000
0000
0100
0000
0011
1000
0100
1000
0001
0100
0010
1000
,
0101
0000
1000
0010
0001
0000
1000
0000
0110
0000
1000
0000
0100
0000
0001
0000
,
1010
0000
0001
0000
0010
0000
0100
0000
1001
0000
0010
1000
0100
0000
0001
0100
,
1010
0000
0100
1000
0001
0000
0010
0100
1000
0000
0100
0000
1010
0000
0001
0000
,
2110
3000
0100
2000
3011
0000
1010
0001
,
0110
2000
3001
0000
0210
1300
1000
0200
,
0311
0000
0000
0000
0000
0000
1000
0000
0000
0000
0000
0000
0210
0001
0000
0000
0000
0000
0301
0000
0000
0000
0000
0000
1020
0000
0000
0000
0000
0000
0130
0000
0000
0000
0000
0000
0200
0000
0000
0000
0000
0000
0300
0000
0000
0000
0000
0000
,
1020
0000
0000
0000
0000
0000
0000
0000
0000
0000
0000
0000
0000
0000
0000
0000
0000
0000
0000
0000
0000
0000
0000
0000
0130
0000
0000
0000
0000
0000
0000
0000
0000
0000
0000
0000
0000
0000
0000
0000
0000
0000
0000
0000
0000
0000
0000
0000
1000
0000
0000
0000
0000
0000
0000
0000
0000
0000
0000
0000
0000
0000
0000
0000
0000
0000
0000
0000
0000
0000
0000
0000
0020
0000
0000
0000
0000
0000
0000
0000
0000
0000
0000
0000
0000
0000
0000
0000
0000
0000
0000
0000
0000
0000
0000
0000
1031
0000
0000
0000
0000
0000
0000
0000
0000
0000
0000
0000
0000
0000
0000
0000
0000
0000
0000
0000
0000
0000
0000
0000
0100
0000
0000
0000
0000
0000
0000
0000
0000
0000
0000
0000
0000
0000
0000
0000
0000
0000
0000
0000
0000
0000
0000
1000
0020
0000
0000
0000
0000
0000
0000
0000
0000
0000
0000
0000
0000
0000
0000
0000
0000
0000
0000
0000
0000
0000
0000
0000
0031
0000
0000
0000
0000
0000
0000
0000
0000
0000
0000
0000
0000
0000
0000
0000
0000
0000
0000
0000
0000
0000
0000
0000
,
0110
0000
0010
0000
0020
0000
1030
1000
0102
0000
1003
0000
0100
0000
0002
0000
,
1103
0000
0111
0000
1002
0000
1113
0000
1010
0000
0101
1000
0010
0100
1000
0001
,
1220
0030
0000
0300
0000
0000
0011
0000
0000
0100
0000
0000
1001
0000
0000
0100
0000
0000
0011
0000
0000
0101
0000
0000
,
1000
0000
0000
0001
0000
0000
0010
0000
0000
0000
0000
0000
2200
0000
0300
0000
0000
0000
3220
0000
0300
0000
0000
0000
2230
0000
3000
0000
0000
0000
0300
0000
0000
0000
0000
0000
1001
0000
0000
0000
0000
0000
0110
0000
0000
0000
0000
0000
,
1010
0000
0000
0001
0000
0000
0100
0000
0000
0000
0000
0000
1010
0001
0000
0000
0000
0000
0000
0000
0000
0000
0000
0000
0022
0000
0030
0100
0000
0000
0013
0000
0000
1000
0000
0000
0220
0000
0300
0000
0000
0000
1031
0000
0000
0000
0000
0000
,
2201
0300
0000
3000
0000
0000
1001
0000
0000
0110
0000
0000
0011
0000
0000
1000
0000
0000
0110
0000
0000
0101
0000
0000
,
1000
0100
1010
0000
0011
1000
0001
0000
0220
0000
1300
0000
0131
0000
1010
0000
,
1001
0000
0010
0000
1001
0000
1101
0000
0010
0010
1100
0000
1010
0001
1000
0001
,
1220
0030
0000
0300
0000
0000
0011
0000
0000
0100
0000
0000
1001
0000
0000
0100
0000
0000
0011
0000
0000
0101
0000
0000
,
1000
0000
0000
0001
0000
0000
0010
0000
0000
0000
0000
0000
2200
0000
0300
0000
0000
0000
3220
0000
0300
0001
0000
0000
2230
0000
3000
0000
0000
0000
0300
0000
0000
0000
0000
0000
1001
0000
0000
0000
0000
0000
0110
0000
0000
0000
0000
0000
,
1010
0000
0000
0001
0000
0000
0100
0000
0000
0000
0000
0000
1010
0001
0000
0000
0000
0000
0000
0000
0000
0000
0000
0000
0022
0000
0030
0100
0000
0000
0013
0000
0000
1000
0000
0000
0220
0000
0300
0000
0000
0000
1031
0000
0000
0000
0000
0000
,
2201
0300
0000
3000
0000
0000
1001
0000
0000
0110
0000
0000
0011
0000
0000
1000
0000
0000
0110
0000
0000
0101
0000
0000
,
1000
0100
1010
0000
0011
1000
0001
0000
0100
0011
0100
0000
1011
0000
0100
0000
,
1011
0000
0000
0000
0100
0000
1000
0000
0110
0000
1000
0000
0111
0000
0000
0000
0001
0000
1000
0010
0001
0000
1000
0000
0010
0000
0100
0000
1000
0000
0100
0000
,
1021
0100
0001
0230
0001
1300
0210
0000
,
0320
0000
0032
0000
1023
0100
1000
0230
,
0301
0000
0000
1M00
0010
0000
0201
0000
0000
1000
0000
0000
0320
0000
0000
1000
0000
0000
0230
0000
0000
0000
0000
0000
,
2310
0100
0001
0100
3001
0010
0101
0000
,
1000
0000
0001
0000
0110
1000
0100
0010
,
0001
0000
1100
0010
0001
0010
0100
0000
,
1200
0010
0001
0320
0001
1030
0201
0000
,
0320
0000
0032
0000
1023
0100
1000
0230
,
0001
1300
0120
0001
0230
0001
2300
0000
,
3120
1000
0001
1000
0031
0100
0011
0000
,
1000
0000
0001
0000
0110
1000
0100
0010
,
0001
0000
1100
0010
0001
0010
0100
0000
,
120M
0010
M001
0320
0M01
1030
0201
0000
,
M320
0000
0M32
0000
1023
0100
100M
0230
,
0001
1300
0210
1000
032M
1000
0M32
0000
,
0123
1000
0M01
1000
0001
0100
1001
0000
,
1M00
0000
M001
0000
0101
1000
013M
0010
,
M001
00M0
0000
00M0
110M
0000
0010
0000
M001
0000
0010
0000
010M
0000
0000
0000
,
1201
0000
0001
1320
0101
1030
0210
0001
,
1320
0000
0100
0000
2032
3000
0000
0000
1023
0000
0000
0000
0001
0000
1230
0000
,
0311
0000
0000
0000
0000
0000
1M00
0000
0010
0000
0000
0000
0201
0000
0000
0000
0000
0000
1000
0000
0000
0000
0000
0000
0321
0000
0000
0000
0000
0000
1000
0000
0000
0000
0000
0000
0232
0000
0000
0003
0000
0000
0000
0000
0000
0000
0000
0000
,
1310
0001
0010
2100
0011
3100
1001
0010
,
0201
0000
1000
0000
0321
0030
1000
0100
1020
0000
0030
0000
0010
0100
2010
0000
,
3101
0000
0000
0000
0000
0000
0000
0000
0000
0000
0000
0000
0000
0000
0000
0000
0000
0000
0000
0000
0000
0000
0000
0000
0010
0000
0000
0000
0000
0000
0000
0000
0000
0000
0000
0000
0001
0000
0000
0000
0000
0000
0000
0000
0000
0000
0000
0000
1020
0000
0000
0000
0000
0000
0000
0000
0000
0000
0000
0000
0000
0000
0000
0000
0000
0000
0000
0000
0000
0000
0000
0000
1001
0000
0000
0000
0000
0000
0000
0000
0000
0000
0000
0000
1000
0000
0000
0000
0000
0000
0000
0000
0000
0000
0000
0000
0231
0000
0000
0000
0000
0000
0000
0000
0000
0000
0000
0000
0000
0000
0000
0000
0000
0000
0000
0000
0000
0000
0000
0000
0010
0000
0000
0000
0000
0000
0000
0000
0000
0000
0000
0000
0000
0000
0000
0000
0000
0000
0000
0000
0000
0000
0000
0000
2301
0000
0000
0000
0000
0000
0000
0000
0000
0000
0000
0000
0010
0000
0000
0000
0000
0000
0000
0000
0000
0000
0000
0000
0001
0000
0000
0000
0000
0000
0000
0000
0000
0000
0000
0000
0010
0000
0000
0000
0000
0000
0000
0000
0000
0000
0000
3000
,
1201
0000
0001
1320
0101
1030
0110
1000
,
0011
0000
1000
0000
0102
0003
1000
0000
0021
0000
0000
0000
0100
0000
2031
0000
,
0101
0000
3010
0001
1010
0000
0100
0000
1001
0000
0100
0000
0012
0003
1000
0000
,
0120
0000
0000
0000
0000
0000
0000
0000
0000
0000
0000
0000
0000
0000
0000
0000
0000
0000
0000
0000
0000
0000
0000
0000
0000
0000
0000
0000
0000
0000
0000
0000
0000
0000
0000
0000
0000
0000
0000
0000
0000
0000
0000
0000
0000
0000
0000
0000
0031
0000
0000
0000
0000
0000
0000
0000
0000
0000
0000
0000
0000
0000
0000
0000
0000
0000
0000
0000
0000
0000
0000
0000
1002
0000
0000
0000
0000
0000
0000
0000
0000
0000
0000
0000
0000
0000
0000
0000
0000
0000
0000
0000
0000
0000
0000
0000
0110
0000
0000
0000
0000
0000
0000
0000
0000
0000
0000
0000
0000
0000
0000
0000
0000
0000
0000
0000
0000
0000
0000
0000
1003
0000
0000
0000
0010
0000
0000
0000
0000
0000
0000
0000
0000
0000
0000
0000
0000
0000
0000
0000
0000
0000
0000
0000
1001
0000
0000
0000
0000
0000
0020
0000
0000
0000
0000
0000
0000
0000
0000
0000
0000
0000
0000
0000
0000
0000
0000
0000
0000
0000
0000
0000
0000
0000
0000
0000
0000
0000
0000
0000
0000
0000
0000
0000
0000
0000
0000
0000
0000
0000
0000
0000
,
0132
0000
0000
0000
0000
0000
0000
0000
0000
0000
0000
0000
0000
0000
0000
0000
0000
0000
0000
0000
0000
0000
0000
0000
0000
0000
0000
0000
0000
0000
0000
0000
0000
0000
0000
0000
0000
0000
0000
0000
0000
0000
0000
0000
0000
0000
0000
0000
2103
0000
0000
0000
0000
0000
0000
0000
0000
0000
0000
0000
3000
0000
0000
0000
0000
0000
0000
0000
0000
0000
0000
0000
0000
0000
0000
0000
0000
0000
0000
0000
0100
0000
0000
0000
0000
0000
0000
0000
0000
0000
0000
0000
0000
0000
0000
0000
1001
0000
0000
0000
0000
0000
0000
0000
0000
0020
0000
0000
0000
0000
0000
0000
0000
0000
0000
0000
0000
0000
0000
0000
0000
0000
0000
0000
0000
0000
0000
0000
0000
0000
0000
0000
0030
0000
0000
0000
0000
0000
0000
0000
0000
0000
0000
0000
0001
0000
0000
0000
0000
0000
0000
0000
0000
0000
0000
0000
0000
0000
0000
0000
0010
0000
0000
0000
0000
0000
0000
0000
0000
0000
0000
0000
0000
0000
0000
0000
0001
0000
0000
0000
0000
0000
0000
0000
0000
0000
0000
0000
0000
0000
0000
0000
,
0110
0001
0100
1011
0100
0010
1000
0010
1000
0100
1000
0100
,
1021
0000
0000
0000
0030
0200
0000
0000
0000
0300
0020
0000
0000
0000
0000
0000
0000
0000
1000
0000
0000
0000
0000
0000
0101
0000
0000
0000
0000
0000
1000
0000
0000
0000
0000
0000
1000
0000
0000
0000
0000
0000
0000
0000
0000
0000
0000
0000
,
1000
0000
0000
0000
0000
0000
0000
0000
0000
0000
0000
0000
0132
0000
0000
0003
1000
0000
0000
0000
1000
0000
0000
0000
0110
0000
0000
0000
1000
0000
0000
0000
1000
0000
0000
0000
0100
0000
0000
0000
1000
0000
0000
0000
1000
0000
0000
0000
,
0101
0000
0000
0000
1000
0000
0000
0000
0100
0000
0000
0000
0011
0000
0000
0000
0100
0000
0000
0000
0100
0000
0000
0000
0011
0000
0000
0000
0100
0000
0000
0000
0100
0000
0000
0000
2010
0000
0000
3000
0100
0000
0000
0000
0010
0000
0000
0000
,
1002
0000
0013
1200
0311
1000
0101
0010
,
1200
0000
0000
0000
0000
0000
0000
0000
0000
0000
0000
0000
0312
0000
0000
0003
0000
0000
1000
0000
0000
0100
0000
0000
0011
0000
0000
0100
0000
0000
1000
0000
0000
0100
0000
0000
0010
0000
0001
0000
0010
0000
1100
0000
0000
0010
0000
0000
,
0101
1000
0010
0100
1011
0100
1010
0001
1010
0100
0020
0000
1001
0000
1101
0000
,
1131
0000
0000
0000
1000
0000
1000
0010
0101
0000
0100
1000
0110
0000
1000
0001
,
1100
0000
0000
0000
0000
0000
0100
0000
0000
1000
0000
0000
0201
0000
0000
0300
0010
0000
0000
0000
1000
0000
0000
0000
0101
0000
0000
0000
0010
0000
0000
0000
0001
0000
0000
0000
1000
0000
0000
0000
0010
0000
0000
0000
0100
0000
0000
0000
,
1001
0000
0000
0000
0010
0000
0000
0000
0001
0000
0000
0000
0110
0000
0000
0000
1000
0000
0000
0000
0100
0000
0000
0000
1020
0000
0000
0000
0000
0000
0000
0000
0000
0000
0000
0000
1032
0000
0000
0003
0000
0000
0100
0000
0000
0010
0000
0000
,
1001
0010
0100
1000
0100
0010
1001
0010
0101
1000
0100
0010
1001
0010
0100
1000
,
0101
0010
0001
0010
0102
1003
0100
0010
1001
0010
0001
0100
0010
1000
0001
0010
,
1000
0000
0100
0000
0001
0000
0010
0000
1100
0000
0010
0000
1000
0000
0100
1000
0011
0000
0001
0000
0010
0000
0100
0000
1011
0000
0100
0000
0001
0000
1000
0000
,
0221
1030
0001
1000
0001
0010
1000
0001
,
0010
1000
0001
1000
0001
0010
1000
0001
,
0010
1000
0001
1000
0001
0010
1000
0001
,
0010
1000
0001
1000
0001
0010
1000
0001
,
0310
1000
0001
1000
0101
0010
1000
0001
,
0010
1000
0001
1000
0101
0010
1000
0001
,
0010
1000
0001
1000
0101
0010
1000
0001
,
0010
1000
0001
1000
0101
0010
1000
0001
,
0010
0000
0000
0000
;

//---------------dance-single - true chart----------------
#NOTES:
     dance-single:
     true chart:
     Hard:
     11:
     1.000,1.000,1.000,0.862,0.513,1169.000,418.000,209.000,40.000,101.000:
1100
0000
0000
0000
0000
0000
0000
0000
0000
0000
0000
0000
0000
0000
1000
0100
,
0020
0000
0000
0000
0000
0000
0000
0000
0032
0000
0000
0000
0000
0000
0013
0100
,
2010
0000
0000
0000
0000
0000
0000
0000
0000
0000
0000
0000
3000
0000
1000
0010
,
1000
0010
0100
1000
0100
0010
0002
0000
,
1103
0000
0000
0000
,
0002
0000
0000
0000
0000
0000
0000
0000
00M0
0000
0000
0000
0000
0000
0000
0000
00M0
0000
0000
0000
0000
0000
0000
0000
00M0
0000
0000
0000
0000
0000
0000
0000
00M0
0000
0000
0000
0000
0000
0000
0000
00M0
0000
0000
0000
0000
0000
0000
0000
00M0
0000
0000
0000
0000
0000
0000
0000
00M0
0000
0000
0000
0000
0000
0000
0000
00M0
0000
0000
0000
0000
0000
0000
0000
00M0
0000
0000
0000
0000
0000
0000
0000
00M0
0000
0000
0000
0000
0000
0000
0000
00M0
0000
0000
0000
0000
0000
0000
0000
00M0
0000
0000
0000
0000
0000
0000
0000
00M0
0000
0000
0000
0000
0000
0000
0000
00M0
0000
0000
0000
0000
0000
0000
0000
00M0
0000
0000
0000
0000
0000
0000
0000
00M0
0000
0000
0000
0000
0000
0000
0000
00M0
0000
0000
0000
0000
0003
0000
0000
0001
0000
0000
0000
0000
0000
0000
0000
0000
0000
0000
0000
0000
0000
0000
0000
0010
0000
0000
0000
0000
0000
0000
0000
0000
0000
0000
0000
0000
0000
0000
0000
0100
0000
0000
0000
0000
0000
0000
0000
0000
0000
0000
0000
0000
0000
0000
0000
,
1000
0000
0000
0000
0020
0000
0000
0000
0000
0000
0000
0000
0000
0000
0000
0000
0000
0000
0031
0000
0000
0100
0000
0000
2000
0000
0000
0000
0000
0000
0000
0000
0000
0000
0000
0000
3000
0000
0000
0000
0000
0000
0000
0000
0000
0000
0000
0000
,
0000
0000
0000
0000
0000
0000
1000
0100
0010
0000
0200
0000
0000
0000
0300
0000
,
0000
0000
0000
0000
0000
0000
0000
0000
0000
0000
0000
0000
0000
0000
0000
0000
0000
0000
0000
0000
0000
0000
0000
0000
0000
0000
0000
0000
0000
0000
0000
0000
0000
0000
0000
0000
0000
0000
0000
0000
0000
0000
0000
0000
0000
0000
0000
0000
0000
0000
0000
0000
0000
0000
0000
0000
0000
0000
0000
0000
0000
0000
0000
0000
0000
0000
0000
0000
0000
0000
0000
0000
2000
0000
0000
0000
0000
0000
0000
0000
0000
0000
0000
0000
0000
0000
0000
0000
0000
0000
0000
0000
0000
0000
0000
0000
3100
0000
0000
0000
0000
0000
0000
0000
0000
0000
0000
0000
0000
0000
0000
0000
0000
0000
0000
0000
0000
0000
0000
0000
0000
0000
0000
0000
0000
0000
0000
0000
0000
1000
0000
0000
0000
0000
0000
0000
0000
0000
0000
0000
0000
0000
0000
0000
0000
0000
0000
0000
0000
0000
0000
0000
0000
0000
0000
0000
0000
0000
0000
0000
0100
0000
0000
0000
0000
0000
0000
0000
0000
0000
0000
0000
0000
0000
0000
0000
0000
0000
0000
0000
0000
0000
0000
0000
0000
0000
0000
0000
0000
0000
0000
0000
,
0010
0000
0000
0000
0000
0000
0000
0000
0000
0000
0000
0000
0000
0000
0000
0000
0000
0000
0000
0000
0000
0000
0000
0000
0000
0000
0000
0000
0000
0000
0000
0000
0000
0100
0000
0000
0000
0000
0000
0000
0000
0000
0000
0000
0000
0000
0000
0000
0000
0000
0000
0000
0000
0000
0000
0000
0000
0000
0000
0000
0000
0000
0000
0000
0000
0000
0000
0000
0000
0000
0000
0000
0010
0000
0000
0000
0000
0000
0000
0000
0000
0000
0000
0000
0001
0000
0000
0000
0000
0000
0000
0000
0000
0000
0000
0000
0010
0000
0000
0000
0000
0000
0000
0000
0000
0000
0000
0000
0000
0000
0000
0000
0000
0000
0000
0000
0000
0000
0000
0000
0000
0000
0000
0000
0000
0000
0000
0000
0100
0000
0000
0000
0000
0000
0000
0000
0000
0000
0000
0000
0000
0000
0000
0000
0000
0000
0000
0000
0000
0000
0000
0000
0000
0000
0000
0000
0000
0000
0000
0000
0000
0000
0100
0000
0000
0000
0000
0000
0000
0000
0000
0000
0000
0000
0000
0000
0000
0000
0000
1000
0000
0000
0000
0000
0000
0000
0000
0000
0000
0000
0000
0000
,
0200
0000
0000
0000
,
0000
0000
0000
0000
,
0300
0000
0000
0000
0000
0100
1000
0010
,
1101
0000
0010
0000
1100
0000
0010
0010
1100
0000
1001
0000
0100
0000
1001
0000
,
0010
0000
0000
0000
1100
0000
0000
0000
0020
0030
0000
0000
0100
0000
0000
0000
1001
0000
0000
0000
0110
0000
0000
0000
0001
0000
0000
0000
1010
0000
0000
0000
,
1010
0000
0100
0000
1010
0000
0100
0100
1010
0000
1001
0000
0010
0000
1100
0001
,
1001
0000
0000
0000
0000
0000
0000
0000
0110
0000
0000
0000
0000
0000
0000
0000
0102
0000
0003
0000
0000
0000
0000
0000
1000
0000
0000
0000
0100
0000
0000
0000
1001
0000
0000
0000
0000
0000
0000
0000
1010
0000
0000
0000
0000
0000
0000
0000
0200
0300
0000
0000
0000
0000
0000
0000
1010
0000
0000
0000
0000
0000
0000
0000
,
1101
0000
0000
0000
1010
0000
0100
0100
1010
0000
1100
0000
0010
0000
1001
0000
,
0010
0000
0000
0000
1001
0000
0000
0000
0200
0300
0000
0000
1000
0000
0000
0000
0011
0000
0000
0000
0110
0000
0000
0000
1000
0000
0000
0000
0110
0000
0000
0000
,
0101
0000
0000
0000
0000
0000
1000
0000
0000
0000
0000
0000
0110
0001
0000
0000
0000
0000
0100
0000
0000
0010
0000
0000
1001
0000
0000
0100
0000
0000
1010
0000
0000
0000
0000
0000
0100
0000
0000
0100
0000
0000
1010
0000
0000
0000
0000
0000
,
0000
0000
0000
0000
0000
0000
0000
0000
0110
0000
0000
0000
0010
0000
0000
0000
2000
0000
3000
0000
0000
0000
0000
0000
0010
0000
0000
0000
0000
0000
0000
0000
0101
0000
0000
0000
0000
0000
0000
0000
1010
0000
0000
0000
0000
0000
0000
0000
0200
0300
0000
0000
0000
0000
0000
0000
1001
0000
0000
0000
0000
0000
0000
0000
,
1011
0000
0000
0000
0100
0000
0000
0000
1010
0000
0000
0000
0001
0000
0001
0000
0110
0000
0000
0000
1010
0000
0000
0000
0101
0000
0000
0000
1002
0003
0000
0000
,
0000
0000
0000
0000
1001
0000
0000
0000
0010
0000
0000
0000
1100
0000
0000
0000
0102
0003
0000
0000
1010
0000
1000
0000
0012
0003
0000
0000
1100
0000
0000
0000
,
1010
0100
0001
0000
0000
0000
0000
0000
1000
0000
0000
0000
0000
0000
0000
0000
0110
0000
0000
0000
0000
0000
0000
0000
0101
0000
0000
0000
0100
0000
0000
0000
1010
0000
0000
0000
0000
0000
0000
0000
1010
0000
0000
0000
0000
0000
0000
0000
1001
0000
0000
0000
0000
0000
0000
0000
1011
0000
0000
0000
0000
0000
0000
0000
,
0000
0000
0000
0000
1011
0000
0000
0000
0101
0000
0000
0000
0010
0000
0010
0000
1002
0003
0000
0000
0010
0000
1000
0000
0101
0000
1000
0000
0010
0000
1000
0000
,
0111
0000
1000
0000
0110
0000
0001
0001
1010
0000
0110
0000
0101
0000
0110
0000
,
0000
0000
0000
0000
0110
0000
0000
0000
2100
3000
0000
0000
0000
0000
0000
0000
0101
0000
0000
0000
1100
0000
0000
0000
0101
0000
0000
0000
1001
0000
0000
0000
,
1010
0000
0001
0000
0110
0000
1000
0100
0011
1000
0110
0000
1000
0000
0110
0000
,
0001
0000
0000
0000
0000
0000
0000
0000
1001
0010
0000
0000
0000
0000
0000
0000
0200
0000
0300
0000
0000
0000
0000
0000
0000
1000
0000
0000
0000
0000
0000
0000
0101
0000
0000
0000
0000
0000
0000
0000
0011
0000
0000
0000
0000
0000
0000
0000
0100
0000
0000
0000
0000
0000
0000
0000
0001
0000
0000
0000
0000
0000
0000
0000
,
1110
0000
1010
0100
1010
1100
0011
0110
,
0000
0000
0000
0000
0110
0000
0000
0000
2000
3000
0100
0000
0010
0000
0100
0000
1001
0000
0010
0000
0101
0000
0010
0000
1100
0000
0010
0000
1001
0000
0010
0000
,
1100
0000
0000
0000
0100
0000
0000
0000
1001
0000
0000
0000
1000
0000
0000
0000
0011
0000
0000
0000
0100
0000
0012
0003
0100
0000
0000
0000
1011
0000
0000
0000
,
0000
0000
0000
0000
0000
0000
0000
0000
0001
0000
0000
0000
0000
0000
0000
0000
0010
0000
0000
0000
0000
0000
0000
0000
0000
0000
0000
1000
0000
0000
0100
0000
0011
0000
0000
0000
0000
0000
0000
0000
0001
0000
0000
0000
0000
0000
0000
0000
0100
0000
0000
0000
0000
0000
0000
0000
0100
0000
0000
0000
0000
0000
0000
0000
,
1011
1000
0101
1000
0110
0001
0010
1100
,
0010
0101
1100
0001
1010
1100
0010
1001
,
1010
0100
0010
1100
0011
1000
0100
1010
,
1001
0000
0110
0000
0101
1000
0001
1000
0111
0000
1000
0000
0110
0000
1000
0000
,
0101
0010
0100
1001
0010
0100
1010
0001
,
1010
0110
1000
0011
0101
1000
0100
0010
,
1001
0000
0010
0000
0100
0000
1001
1000
0011
0000
0101
0000
1010
0000
0100
0000
,
1011
0000
1000
0000
0110
0000
1000
0000
0101
0000
2000
3000
0200
0300
2001
3000
,
0020
0030
2100
3000
0201
0300
2000
3000
0012
0000
0110
0000
0100
0000
1013
0100
,
2001
0100
3010
1100
1010
1001
0101
0110
,
0011
0000
0000
0000
0000
0000
0000
0000
0110
0000
0000
0000
0000
0000
0000
0000
1100
0000
0000
0000
0010
0000
0000
0000
0001
0000
0000
0000
0010
0000
0000
0000
1101
0000
0000
0000
0000
0000
0000
0000
1000
0000
0000
0000
0000
0000
0000
0000
0110
0000
0000
0000
0000
0000
0000
0000
0001
0000
0000
0010
0000
0000
0000
0000
,
1100
0000
0000
0000
0000
0001
0000
0000
0010
0000
0000
0000
1000
0000
0000
0000
0100
0000
0000
0000
0010
0000
0000
0000
1001
0000
0000
0000
0000
0000
0000
0000
0020
0000
0000
0000
0030
0000
0000
0000
0101
0000
0000
0000
0000
0000
0000
0000
0110
0000
0000
0000
0000
0000
0000
0000
1000
0000
0000
0000
0100
0000
0000
0000
,
0022
0000
0030
0000
0003
0000
0000
0000
0110
0000
0000
0000
0000
0000
0000
0000
1000
0000
0000
0000
0000
0000
0000
0000
0101
0000
0000
0000
0000
0010
0000
0000
1200
0000
0000
0000
0300
0000
0000
0000
1000
0000
0000
0000
0000
0000
0000
0000
0100
0000
0000
0000
0000
0000
0000
0000
1010
0000
0000
0000
0000
0000
0000
0000
,
1001
0000
0000
0000
0000
0000
0000
0000
0000
0000
0000
0000
0000
0000
0000
0000
0000
0000
0000
0000
0000
0000
0000
0000
0011
0000
0000
0000
0000
0000
0000
0000
0000
0000
0000
0000
0000
0000
0000
0000
0000
0000
0000
0000
0000
0000
0000
0000
0110
0000
0000
0000
0000
0000
0000
0000
0000
0000
0000
0000
0000
0000
0000
0000
0000
0000
0000
0000
0000
0000
0000
0000
0101
0000
0000
0000
0000
0000
0000
0000
0000
0000
0000
0000
0000
0100
0000
0000
0000
0000
0000
0000
0000
0000
0000
0000
1011
0000
0000
0000
0000
0000
0000
0000
0000
0000
0000
0000
0000
0000
0000
0000
0000
0000
0000
0000
0000
0000
0000
0000
0110
0000
0000
0000
0000
0000
0000
0000
0000
0000
0000
0000
0000
0000
0000
0000
0000
0000
0000
0000
0000
0000
0000
0000
1011
0000
0000
0000
0000
0000
0000
0000
0000
0000
0000
0000
0000
0000
0000
0000
0000
0000
0000
0000
0000
0000
0000
0000
0110
0000
0000
0000
0000
0000
0000
0000
0000
0000
0000
0000
0000
0000
0000
0000
0000
0000
0000
0000
0000
0000
0000
0000
,
1021
0030
0100
0000
0011
0000
1000
0000
0201
0300
1000
0000
0020
0030
0101
0000
,
2000
3000
0101
0000
1200
0300
1010
0000
0012
0003
1000
0000
0100
0000
1001
0000
,
0021
0030
0100
0000
0001
0000
1100
0000
0201
0300
1000
0000
0010
0000
0101
0000
,
0110
0000
1000
0000
0101
0010
0001
0010
1201
0300
1000
0000
0012
0003
1000
0000
,
0210
0000
0000
0300
0000
0000
0001
0000
0000
0000
0000
0000
0200
0000
0000
0300
0000
0000
0011
0000
0000
0000
0000
2000
3020
0000
0000
0030
0000
0000
1001
0000
0000
0000
0000
0000
0012
0000
0000
0003
0000
0000
0000
0000
0000
0000
0000
0000
,
0110
0000
0000
0000
0000
0000
0001
0000
0000
0000
0000
0000
0000
0000
0000
0000
0010
0000
0000
0000
0000
0000
0000
0000
1100
0000
0000
0000
0000
0000
0000
0000
0000
0000
0000
0000
0000
0000
0000
0000
0000
0000
0000
0000
0000
0000
0000
0000
0010
0000
0000
0000
0000
0000
0000
0000
0000
0000
0000
0000
0000
0000
0000
0000
0000
0000
0000
0000
0000
0000
0000
0000
1001
0000
0000
0000
0000
0000
0000
0000
0000
0000
0000
0000
0000
0000
0000
0000
0000
0000
0000
0000
0000
0000
0000
0000
0201
0000
0000
0000
0000
0000
0000
0000
0000
0000
0000
0000
0300
0000
0000
0000
0000
0000
0000
0000
0000
0000
0000
0000
1000
0000
0000
0000
0000
0000
0000
0000
0000
0000
0000
0000
0000
0000
0000
0000
0000
0000
0000
0000
0000
0000
0000
0000
0020
0000
0000
0000
0000
0000
0000
0000
0000
0000
0000
0000
0030
0000
0000
0000
0000
0000
0000
0000
0000
0000
0000
0000
1100
0000
0000
0000
0000
0000
0000
0000
0000
0000
0000
0000
0000
0000
0000
0000
0000
0000
0000
0000
0000
0000
0000
0000
,
0201
0300
1001
0000
0100
0000
1010
0010
1101
0000
0110
0000
1101
0000
0110
0000
,
1101
0000
0010
0001
1100
0001
0010
0001
1010
0000
0100
0010
1000
0010
0101
0010
,
1000
0101
1001
0100
0011
1010
0100
1010
,
1100
0000
0000
0000
0010
0000
0000
0000
1000
0000
0000
0000
0001
0000
0000
0000
0000
0000
0110
0000
0000
0000
0000
0000
0011
0000
0000
0000
0000
0000
1000
0000
0000
0100
0000
0000
0010
0000
0000
0000
0000
0000
1100
0000
0000
0010
0000
0000
,
1001
0000
1100
0010
1001
0010
1000
0010
1101
0000
0010
0001
1100
0000
0110
0000
,
0110
0011
1010
1010
1000
0101
1001
0100
,
1010
0000
0000
0000
0000
0000
0001
0000
0000
0000
0000
0000
0000
0000
0000
0000
0010
0000
0000
0000
0000
0000
0000
0000
1100
0000
0000
0000
0000
0000
0000
0000
0000
0000
0000
0000
0000
0000
0000
0000
0000
0000
0000
0000
0000
0000
0000
0000
0010
0000
0000
0000
0000
0000
0000
0000
0000
0000
0000
0000
0000
0000
0000
0000
0000
0000
0000
0000
0000
0000
0000
0000
1001
0000
0000
0000
0000
0000
0000
0000
0000
0000
0000
0000
0000
0000
0000
0000
0000
0000
0000
0000
0000
0000
0000
0000
1100
0000
0000
0000
0000
0000
0000
0000
0000
0000
0000
0000
0000
0000
0000
0000
0000
0000
0000
0000
0000
0000
0000
0000
0011
0000
0000
0000
0000
0000
0000
0000
0000
0000
0000
0000
0000
0000
0000
0000
0000
0000
0000
0000
0000
0000
0000
0000
0011
0000
0000
0000
0000
0000
0000
0000
0000
0000
0000
0000
0000
0000
0000
0000
0000
0000
0000
0000
0000
0000
0000
0000
1100
0000
0000
0000
0000
0000
0000
0000
0000
0000
0000
0000
0000
0000
0000
0000
0000
0000
0000
0000
0000
0000
0000
0000
,
0101
0000
0101
0000
0010
0000
0110
0000
0110
0000
1100
0000
1010
0100
0010
0000
,
1121
0000
0130
1000
0110
0001
0010
0000
,
0110
0000
0000
0000
1000
0000
0000
0000
0010
0000
0000
0000
0001
0000
0000
0000
0110
0000
0000
0000
0001
0000
0000
0000
0010
0000
0000
0000
0000
0100
0000
0000
,
1010
0000
1000
0001
1010
0001
0010
0001
,
1010
0001
1000
0001
0110
0000
0100
1000
,
0110
0001
0010
0000
0110
1000
0010
0001
,
0110
0001
0010
0100
1010
0000
1000
0001
,
1010
0001
0010
0001
1010
0001
1000
0001
,
0110
1000
0100
0010
0100
1000
0100
0010
0101
1000
0100
1000
0100
0010
0100
0001
,
0110
0001
0010
0100
0010
0100
0010
1000
0011
0100
1000
0100
1000
0100
0001
0100
,
1010
0000
1000
0010
0100
0000
0010
0100
0001
0000
1000
0010
0100
0000
0001
0000
,
0010
0000
0100
0000
1000
0000
0100
0000
0011
1000
0100
1000
0001
0100
0010
1000
,
0101
0000
1000
0010
0001
0000
1000
0000
0110
0000
1000
0000
0100
0000
0001
0000
,
1010
0000
0001
0000
0010
0000
0100
0000
1001
0000
0010
1000
0100
0000
0001
0100
,
1010
0000
0100
1000
0001
0000
0010
0100
1000
0000
0100
0000
1010
0000
0001
0000
,
2110
3000
0100
2000
3011
0000
1010
0001
,
0110
2000
3001
0000
0210
1300
1000
0200
,
0311
0000
0000
0000
0000
0000
1000
0000
0000
0000
0000
0000
0210
0001
0000
0000
0000
0000
0301
0000
0000
0000
0000
0000
1020
0000
0000
0000
0000
0000
0130
0000
0000
0000
0000
0000
0200
0000
0000
0000
0000
0000
0300
0000
0000
0000
0000
0000
,
1020
0000
0000
0000
0000
0000
0000
0000
0000
0000
0000
0000
0000
0000
0000
0000
0000
0000
0000
0000
0000
0000
0000
0000
0130
0000
0000
0000
0000
0000
0000
0000
0000
0000
0000
0000
0000
0000
0000
0000
0000
0000
0000
0000
0000
0000
0000
0000
1000
0000
0000
0000
0000
0000
0000
0000
0000
0000
0000
0000
0000
0000
0000
0000
0000
0000
0000
0000
0000
0000
0000
0000
0020
0000
0000
0000
0000
0000
0000
0000
0000
0000
0000
0000
0000
0000
0000
0000
0000
0000
0000
0000
0000
0000
0000
0000
1031
0000
0000
0000
0000
0000
0000
0000
0000
0000
0000
0000
0000
0000
0000
0000
0000
0000
0000
0000
0000
0000
0000
0000
0100
0000
0000
0000
0000
0000
0000
0000
0000
0000
0000
0000
0000
0000
0000
0000
0000
0000
0000
0000
0000
0000
0000
1000
0020
0000
0000
0000
0000
0000
0000
0000
0000
0000
0000
0000
0000
0000
0000
0000
0000
0000
0000
0000
0000
0000
0000
0000
0031
0000
0000
0000
0000
0000
0000
0000
0000
0000
0000
0000
0000
0000
0000
0000
0000
0000
0000
0000
0000
0000
0000
0000
,
0110
0000
0010
0000
0020
0000
1030
1000
0102
0000
1003
0000
0100
0000
0002
0000
,
1103
0000
0111
0000
1002
0000
1113
0000
1010
0000
0101
1000
0010
0100
1000
0001
,
1220
0030
0000
0300
0000
0000
0011
0000
0000
0100
0000
0000
1001
0000
0000
0100
0000
0000
0011
0000
0000
0101
0000
0000
,
1000
0000
0000
0001
0000
0000
0010
0000
0000
0000
0000
0000
2200
0000
0300
0000
0000
0000
3220
0000
0300
0000
0000
0000
2230
0000
3000
0000
0000
0000
0300
0000
0000
0000
0000
0000
1001
0000
0000
0000
0000
0000
0110
0000
0000
0000
0000
0000
,
1010
0000
0000
0001
0000
0000
0100
0000
0000
0000
0000
0000
1010
0001
0000
0000
0000
0000
0000
0000
0000
0000
0000
0000
0022
0000
0030
0100
0000
0000
0013
0000
0000
1000
0000
0000
0220
0000
0300
0000
0000
0000
1031
0000
0000
0000
0000
0000
,
2201
0300
0000
3000
0000
0000
1001
0000
0000
0110
0000
0000
0011
0000
0000
1000
0000
0000
0110
0000
0000
0101
0000
0000
,
1000
0100
1010
0000
0011
1000
0001
0000
0220
0000
1300
0000
0131
0000
1010
0000
,
1001
0000
0010
0000
1001
0000
1101
0000
0010
0010
1100
0000
1010
0001
1000
0001
,
1220
0030
0000
0300
0000
0000
0011
0000
0000
0100
0000
0000
1001
0000
0000
0100
0000
0000
0011
0000
0000
0101
0000
0000
,
1000
0000
0000
0001
0000
0000
0010
0000
0000
0000
0000
0000
2200
0000
0300
0000
0000
0000
3220
0000
0300
0001
0000
0000
2230
0000
3000
0000
0000
0000
0300
0000
0000
0000
0000
0000
1001
0000
0000
0000
0000
0000
0110
0000
0000
0000
0000
0000
,
1010
0000
0000
0001
0000
0000
0100
0000
0000
0000
0000
0000
1010
0001
0000
0000
0000
0000
0000
0000
0000
0000
0000
0000
0022
0000
0030
0100
0000
0000
0013
0000
0000
1000
0000
0000
0220
0000
0300
0000
0000
0000
1031
0000
0000
0000
0000
0000
,
2201
0300
0000
3000
0000
0000
1001
0000
0000
0110
0000
0000
0011
0000
0000
1000
0000
0000
0110
0000
0000
0101
0000
0000
,
1000
0100
1010
0000
0011
1000
0001
0000
0100
0011
0100
0000
1011
0000
0100
0000
,
1011
0000
0000
0000
0100
0000
1000
0000
0110
0000
1000
0000
0111
0000
0000
0000
0001
0000
1000
0010
0001
0000
1000
0000
0010
0000
0100
0000
1000
0000
0100
0000
,
1021
0100
0001
0230
0001
2300
3210
0000
,
0320
0000
0032
0000
1023
0100
1000
0230
,
0301
0000
0000
2M00
3020
0000
0231
0000
0000
1000
0000
0000
0320
0000
0000
1000
0000
0000
0230
0000
0000
0000
0000
0000
,
2310
0100
0001
0100
3001
0010
0101
0000
,
1000
0000
0001
0000
0110
1000
0100
0010
,
0001
0000
1100
0010
0001
0010
0100
0000
,
1200
0010
0001
0320
0001
2030
3201
0000
,
0320
0000
0032
0000
1023
0100
1000
0230
,
0001
2300
3120
0001
0230
0001
2300
0000
,
3120
1000
0001
1000
0031
0100
0011
0000
,
1000
0000
0001
0000
0110
1000
0100
0010
,
0001
0000
1100
0010
0001
0010
0100
0000
,
120M
0010
M001
0320
0M01
2030
3201
0000
,
M320
0000
0M32
0000
1023
0100
100M
0230
,
0001
2300
3210
1000
032M
1000
0M32
0000
,
0123
1000
0M01
1000
0001
0100
1001
0000
,
1M00
0000
M001
0000
0101
1000
013M
0010
,
M001
00M0
0000
00M0
110M
0000
0010
0000
M001
0000
0010
0000
010M
0000
0000
0000
,
1201
0000
0001
1320
0101
2030
3210
0001
,
1320
0000
0100
0000
2032
3000
0000
0000
1023
0000
0000
0000
0001
0000
1230
0000
,
0311
0000
0000
0000
0000
0000
2M00
0000
3020
0000
0000
0000
0231
0000
0000
0000
0000
0000
1000
0000
0000
0000
0000
0000
0321
0000
0000
0000
0000
0000
1000
0000
0000
0000
0000
0000
0232
0000
0000
0003
0000
0000
0000
0000
0000
0000
0000
0000
,
1320
0032
0023
2130
0011
3200
2301
3020
,
0231
0000
1000
0000
0321
0030
1000
0100
1020
0000
0030
0000
0010
0100
2010
0000
,
3101
0000
0000
0000
0000
0000
0000
0000
0000
0000
0000
0000
0000
0000
0000
0000
0000
0000
0000
0000
0000
0000
0000
0000
0010
0000
0000
0000
0000
0000
0000
0000
0000
0000
0000
0000
0001
0000
0000
0000
0000
0000
0000
0000
0000
0000
0000
0000
1020
0000
0000
0000
0000
0000
0000
0000
0000
0000
0000
0000
0000
0000
0000
0000
0000
0000
0000
0000
0000
0000
0000
0000
1001
0000
0000
0000
0000
0000
0000
0000
0000
0000
0000
0000
1000
0000
0000
0000
0000
0000
0000
0000
0000
0000
0000
0000
0231
0000
0000
0000
0000
0000
0000
0000
0000
0000
0000
0000
0000
0000
0000
0000
0000
0000
0000
0000
0000
0000
0000
0000
0010
0000
0000
0000
0000
0000
0000
0000
0000
0000
0000
0000
0000
0000
0000
0000
0000
0000
0000
0000
0000
0000
0000
0000
2301
0000
0000
0000
0000
0000
0000
0000
0000
0000
0000
0000
0010
0000
0000
0000
0000
0000
0000
0000
0000
0000
0000
0000
0001
0000
0000
0000
0000
0000
0000
0000
0000
0000
0000
0000
0010
0000
0000
0000
0000
0000
0000
0000
0000
0000
0000
3000
,
1201
0000
0001
1320
0101
2030
3210
2300
,
3021
0000
2030
0000
3202
0300
2003
0000
3021
0000
0000
0000
0100
0000
2031
0000
,
0101
0000
3010
0001
1020
0000
0230
0000
2301
0000
3200
0000
0322
0003
2030
0000
,
3120
0000
0000
0000
0000
0000
0000
0000
0000
0000
0000
0000
0000
0000
0000
0000
0000
0000
0000
0000
0000
0000
0000
0000
0000
0000
0000
0000
0000
0000
0000
0000
0000
0000
0000
0000
0000
0000
0000
0000
0000
0000
0000
0000
0000
0000
0000
0000
0031
0000
0000
0000
0000
0000
0000
0000
0000
0000
0000
0000
0000
0000
0000
0000
0000
0000
0000
0000
0000
0000
0000
0000
1002
0000
0000
0000
0000
0000
0000
0000
0000
0000
0000
0000
0000
0000
0000
0000
0000
0000
0000
0000
0000
0000
0000
0000
0110
0000
0000
0000
0000
0000
0000
0000
0000
0000
0000
0000
0000
0000
0000
0000
0000
0000
0000
0000
0000
0000
0000
0000
1003
0000
0000
0000
0010
0000
0000
0000
0000
0000
0000
0000
0000
0000
0000
0000
0000
0000
0000
0000
0000
0000
0000
0000
1001
0000
0000
0000
0000
0000
0020
0000
0000
0000
0000
0000
0000
0000
0000
0000
0000
0000
0000
0000
0000
0000
0000
0000
0000
0000
0000
0000
0000
0000
0000
0000
0000
0000
0000
0000
0000
0000
0000
0000
0000
0000
0000
0000
0000
0000
0000
0000
,
0132
0000
0000
0000
0000
0000
0000
0000
0000
0000
0000
0000
0000
0000
0000
0000
0000
0000
0000
0000
0000
0000
0000
0000
0000
0000
0000
0000
0000
0000
0000
0000
0000
0000
0000
0000
0000
0000
0000
0000
0000
0000
0000
0000
0000
0000
0000
0000
2103
0000
0000
0000
0000
0000
0000
0000
0000
0000
0000
0000
3000
0000
0000
0000
0000
0000
0000
0000
0000
0000
0000
0000
0000
0000
0000
0000
0000
0000
0000
0000
0100
0000
0000
0000
0000
0000
0000
0000
0000
0000
0000
0000
0000
0000
0000
0000
0001
0000
0000
0000
0000
0000
0000
0000
0000
0020
0000
0000
0000
0000
0000
0000
0000
0000
0000
0000
0000
0000
0000
0000
0000
0000
0000
0000
0000
0000
0000
0000
0000
0000
0000
0000
0030
0000
0000
0000
0000
0000
0000
0000
0000
0000
0000
0000
0001
0000
0000
0000
0000
0000
0000
0000
0000
0000
0000
0000
0000
0000
0000
0000
0010
0000
0000
0000
0000
0000
0000
0000
0000
0000
0000
0000
0000
0000
0000
0000
0001
0000
0000
0000
0000
0000
0000
0000
0000
0000
0000
0000
0000
0000
0000
0000
,
0100
0001
0100
0010
0100
0010
1000
0010
1000
0100
1000
0100
,
M020
0000
0000
0000
0030
0200
0000
0000
0000
0300
0020
0000
0000
0000
0000
0000
0000
0000
0000
0000
0000
0000
0000
0000
0000
0000
0000
0000
0000
0000
0000
0000
0000
0000
0000
0000
0000
0000
0000
0000
0000
0000
0000
0000
0000
0000
0000
0000
,
0000
0000
0000
0030
1000
1000
0100
1000
1000
0100
1000
1000
,
0100
1000
0100
0010
0100
0100
0010
0100
0100
0010
0100
0010
,
0002
0000
0023
0230
0000
2300
3200
0302
,
0203
0000
0000
0000
0000
0000
0000
0000
0000
0000
0000
0000
0300
0000
0000
0000
0000
0000
0100
0000
0000
0010
0000
0000
0100
0000
0000
1000
0000
0000
0100
0000
0000
0010
0000
0000
0001
0000
0010
0000
0100
0000
1000
0000
0000
0100
0000
0000
,
0010
0100
0010
1000
0100
0010
0100
1000
0010
1000
0002
0000
0000
0000
00M0
0000
,
00M3
0000
0000
0000
1000
0000
1000
0010
0100
0000
0100
1000
0010
0000
1000
0001
,
0100
0000
0000
0000
0000
0000
0100
0000
0000
1000
0000
0000
0001
0000
0000
0000
0010
0000
0000
0000
1000
0000
0000
0000
0001
0000
0000
0000
0010
0000
0000
0000
0001
0000
0000
0000
1000
0000
0000
0000
0010
0000
0000
0000
0100
0000
0000
0000
,
0001
0000
0000
0000
0010
0000
0000
0000
0001
0000
0000
0000
0100
0000
0000
0000
1000
0000
0000
0000
0100
0000
0000
0000
0020
0000
0000
0000
0000
0000
0000
0000
0000
0000
0000
0000
0030
0000
0000
0000
0000
0000
0100
0000
0000
0010
0000
0000
,
0001
0010
0100
1000
0100
0010
0001
0010
0100
1000
0100
0010
0001
0010
0100
1000
,
0100
0010
0001
0010
0100
1000
0100
0010
1001
0010
0001
0100
0010
1000
0001
0010
,
1000
0000
0100
0000
0001
0000
0010
0000
1100
0000
0010
0000
1000
0000
0100
1000
0011
0000
0001
0000
0010
0000
0100
0000
1011
0000
0100
0000
0001
0000
0100
0000
,
2021
0030
0000
0000
0000
0000
0000
0000
,
0000
0000
0000
0000
,
0000
0000
0000
0000
,
0000
0000
0000
0000
,
3100
1000
0100
0010
1001
0100
1000
0010
,
0100
1000
0100
0010
1001
0100
1000
0100
,
0010
1000
0100
0010
1001
0100
1000
0010
,
0100
1000
0100
0010
1001
0100
1000
0010
,
0100
0000
0000
0000
;
