#TITLE:Steelgods of the Last Apocalypse;
#SUBTITLE:;
#ARTIST:Rhapsody;
#TITLETRANSLIT:;
#SUBTITLETRANSLIT:;
#ARTISTTRANSLIT:;
#CREDIT:;
#BANNER:sotla-bn.PNG;
#BACKGROUND:sotla-bg.PNG;
#LYRICSPATH:;
#CDTITLE:OMEGAspike.PNG;
#MUSIC:Steelgods of the Last Apocalypse.mp3;
#OFFSET:-0.320;
#SAMPLESTART:128.100;
#SAMPLELENGTH:21.000;
#SELECTABLE:YES;
#BPMS:0.000=174.000;
#STOPS:;
#BGCHANGES:;
// cache tags:
#FIRSTBEAT:0.000;
#LASTBEAT:994.000;
#SONGFILENAME:Songs/toune 2/(OMEGAspike)Steelgods of the Last Apocalypse/Steelgods of the Last Apocalypse.sm;
#HASMUSIC:1;
#HASBANNER:1;
#MUSICLENGTH:348.559;
// end cache tags

//---------------dance-single - ----------------
#NOTES:
     dance-single:
     :
     Hard:
     12:
     1.000,1.000,0.775,0.582,1.000,2660.000,270.000,203.000,0.000,0.000:
1001
0000
0000
1000
0100
0010
0001
0000
0000
0001
0010
0100
,
1000
0000
0000
0010
0100
0001
1000
0001
0100
0010
1000
0100
,
0010
0000
0000
0001
0010
0100
1000
0000
0000
1000
0100
0010
,
0001
0000
0000
0001
0100
0010
1000
0010
0100
0001
0100
0010
,
1000
0000
0000
1000
0010
0100
0001
0000
0000
0001
0010
0100
,
1000
0000
0000
0100
0010
0001
1000
0100
0010
0100
1000
0010
,
0100
0000
0000
0100
0001
1000
0010
0000
0000
0010
0100
0001
,
1000
0000
0000
0100
0010
0001
0010
0100
1000
0001
0100
0010
,
1001
0000
0000
0000
,
1001
0101
1010
0110
,
1001
0000
0011
0000
1100
0011
1001
0110
,
1001
0101
1010
1001
,
0110
0000
1010
0000
0101
1001
1010
1001
,
0110
0101
1010
1001
,
0110
0000
0011
0000
1100
0011
1100
0011
,
1001
0110
1010
0101
,
1001
0000
0110
0000
0101
1010
1001
0110
,
0001
0010
0100
1000
0100
0010
0001
0100
0001
0100
0001
1000
0010
1000
0010
0100
,
0001
0010
0100
1000
0100
0010
0001
1000
0001
0010
0100
0010
0001
1000
0010
0100
,
0001
1000
0010
1000
0001
0100
0001
1000
0010
0100
0001
0100
0010
1000
0010
0100
,
0001
0010
0100
1000
0001
0100
0010
1000
0010
0100
0001
1000
0100
0010
0001
0010
,
0100
1000
0010
1000
0001
0100
0001
0010
0100
1000
0010
1000
0001
0100
0001
0010
,
0100
1000
0010
1000
0001
0100
0001
0010
0100
0010
0001
1000
0010
0100
0001
1000
,
0001
0010
0001
0100
0001
1000
0100
0010
0001
0010
0001
0100
0001
1000
0100
0010
,
0001
0100
0010
1000
0010
0100
0010
0100
0001
0100
0010
1000
0010
0100
0010
0100
,
0001
0010
0001
0010
0100
1000
0100
1000
0001
0100
0001
0100
0010
1000
0010
1000
,
0001
1000
0001
1000
0010
0100
0010
0100
0001
0010
0001
0010
0100
1000
0100
1000
,
0001
0100
0010
1000
0001
0100
0001
0010
0100
1000
0100
0010
0001
1000
0100
1000
,
0010
0100
0001
0100
0001
1000
0100
0010
0001
0100
0010
0100
0001
1000
0010
0100
,
0001
0100
0010
1000
0010
0100
0001
1000
0100
0010
0100
1000
0001
0100
0010
0100
,
0001
1000
0100
1000
0001
0100
0010
0100
0001
1000
0100
1000
0001
0100
0010
0100
,
0001
0100
0010
1000
0001
0010
0100
0010
0001
0100
0010
1000
0001
0010
0100
0010
,
0001
1000
0100
0010
0100
1000
0001
0100
0010
1000
0001
0100
0010
1000
0100
0010
,
1001
0010
1100
0010
0101
1000
0011
0100
,
1001
0010
1100
0001
1010
0101
1001
0110
,
1010
0100
0101
0010
1100
0010
0101
1000
,
0011
0100
1100
0010
0101
1001
1010
1001
,
0110
0010
0101
1000
0011
0100
1001
0010
,
1100
0001
0101
0010
1010
1001
0110
1001
,
1010
0001
0110
1000
0011
1000
0110
0001
,
1010
0100
1001
0010
1100
0011
0101
1010
,
2002
0000
0000
0000
0000
0000
0000
3003
,
2020
0000
0000
3030
0202
0000
0000
0303
,
2002
0000
3003
0000
,
2020
0000
0000
3030
0202
0000
0000
0303
,
2002
0000
3003
0000
,
0220
0000
0000
0330
0202
0000
0000
0303
,
2200
0000
3300
0022
0000
0033
2002
3003
,
0220
0000
0330
2002
0000
0000
0000
0000
,
3003
1001
0110
1010
,
0101
1000
0100
0010
0100
1000
0001
0100
0001
1000
0010
0100
0001
1000
0100
0010
,
0001
1000
0001
0100
0010
1000
0010
0100
0001
1000
0001
1000
0010
0100
0010
0100
,
0001
0100
0001
1000
0010
0100
0001
0010
0100
1000
0100
0010
0001
1000
0010
0100
,
0010
1000
0010
0100
0001
0010
0100
0010
0001
1000
0010
0100
0010
1000
0010
0100
,
1001
0001
0001
0011
0000
0010
0100
1000
,
1001
0001
0001
0101
0000
0100
0010
1000
,
0100
0010
0001
1000
0001
0100
0010
1000
0010
0100
0001
1000
0100
0010
0100
1000
,
0001
0010
0001
1000
0001
0100
0001
1000
0001
1000
0100
1000
0001
0100
0010
0100
,
0001
1000
0100
0010
0001
0010
0100
1000
0001
1000
0010
0100
0001
1000
0100
0010
,
0001
1000
0001
1000
0001
1000
0001
1000
0010
0100
0010
0100
0010
0100
0010
0100
,
1001
0010
0100
1100
0000
0010
0100
0001
,
1010
0100
0001
1001
0000
1000
0001
1000
,
0001
0100
0010
1000
0010
0100
0001
1000
0001
1000
0100
0010
0100
1000
0001
0100
,
0001
1000
0010
0100
0001
1000
0010
0100
0001
1000
0100
0010
0100
1000
0001
1000
,
0010
1000
0001
0100
0010
1000
0001
0100
0010
1000
0100
0010
0001
1000
0001
0100
,
0010
1000
0001
0100
0001
1000
0100
1000
0010
0100
0001
1000
0100
0010
0001
0010
,
1100
0000
0010
0000
0001
0100
1001
0000
,
0020
2030
3200
0320
0230
2300
3002
0203
,
0310
1000
0001
0100
0001
1000
0100
0010
0001
1000
0010
0100
0001
0100
0010
0100
,
0001
1000
0100
1000
0001
0010
0001
1000
0001
0100
0001
1000
0010
1000
0010
0100
,
0001
1000
0001
0010
0100
1000
0100
0010
0001
1000
0010
0100
0001
0100
0010
1000
,
0100
0010
0100
1000
0001
0010
0100
0010
0001
0100
0010
1000
0010
0100
0001
1000
,
0001
0100
0010
1000
0100
0010
0001
0010
0100
1000
0100
0010
0001
0100
0001
0100
,
0010
1000
0010
1000
0001
0100
0010
1000
0100
0010
0001
0010
0100
1000
0001
0100
,
0010
1000
0010
1000
0010
1000
0010
1000
0010
1000
0010
1000
0001
0100
0001
0100
,
0001
1000
0001
1000
0001
1000
0001
1000
0001
1000
0001
1000
0001
0010
0100
1000
,
0001
0100
0001
1000
0010
0100
0001
1000
0001
0100
0010
1000
0100
0010
0001
0010
,
0100
1000
0001
0100
0001
1000
0010
1000
0001
0100
0001
1000
0010
1000
0001
0100
,
0001
0010
0001
1000
0100
1000
0001
0010
0001
1000
0100
1000
0001
0010
0100
1000
,
0010
0100
0010
0100
0001
1000
0100
1000
0001
0100
0010
0100
0001
1000
0100
1000
,
0100
0010
0001
1000
0001
0100
0010
0100
0001
1000
0100
0010
0001
0010
0100
1000
,
0001
0010
0100
0010
0001
0100
0010
0100
0001
0010
0100
0010
0001
0100
0010
0100
,
0001
1000
0100
0010
0100
1000
0010
0100
0010
1000
0100
0010
0100
1000
0010
0100
,
0001
0100
0010
1000
0001
1000
0001
0010
0100
1000
0001
0100
0001
1000
0001
0100
,
1001
1001
0000
0110
,
2002
0000
0000
3003
0220
0000
0000
0330
,
2200
0000
0000
0000
0000
3300
0022
0033
,
2002
0000
0000
3003
0202
0000
0000
0303
,
1000
0010
0100
0001
0100
0001
1000
0100
1000
0001
0100
0010
1000
0010
0100
0001
,
0010
0100
0010
0001
1000
0100
1000
0010
0100
0001
0100
0001
1000
0100
1000
0100
,
0010
0001
1000
0001
0100
0010
1000
0010
0100
0001
1000
0001
0010
0100
1000
0100
,
0010
0001
0010
0001
0010
0001
0010
0001
1000
0100
1000
0100
1000
0100
1000
0100
,
0011
0000
1001
0000
1010
0000
0000
0000
0000
0000
0001
0100
0010
1000
0001
0100
,
1001
1001
0000
0101
,
2002
0000
0000
3003
0220
0000
0000
0330
,
0202
0000
0000
0000
0000
0303
2200
3300
,
2002
0000
0000
3003
0220
0000
0000
0330
,
0001
0010
0100
1000
0001
1000
0001
0100
0010
1000
0001
1000
0001
0010
0100
1000
,
0100
0010
0100
0010
0001
0100
0001
0100
0010
1000
0010
1000
0001
0010
0100
1000
,
0001
0100
0010
0100
0001
1000
0100
1000
0001
0100
0010
1000
0010
0100
0001
1000
,
0010
0100
0010
0100
0010
0100
0010
0100
0001
1000
0001
1000
0001
1000
0001
1000
,
0110
0101
1001
0000
0000
0000
0000
0000
,
0010
0100
0010
0100
0010
0100
0010
0100
0001
0100
0001
0100
0001
0100
0001
0100
,
0001
1000
0001
1000
0001
1000
0001
1000
0010
1000
0010
1000
0010
1000
0010
1000
,
0001
0010
0100
1000
0001
0010
0100
1000
0001
0010
0100
1000
0001
0010
0100
1000
,
0001
0100
0010
1000
0001
0100
0010
1000
0001
0100
0010
1000
0001
0100
0010
1000
,
0010
0100
0001
0100
0010
1000
0010
0100
0001
0100
0010
1000
0010
0100
0001
0100
,
0010
1000
0001
0100
0010
1000
0001
0100
0020
0000
0000
0000
0000
0000
0000
0000
,
0000
0000
0000
0000
0000
0000
0000
0000
0000
0000
0000
0000
1030
0001
0000
0000
0100
0000
0000
0000
0010
0000
0000
0000
1100
0000
0000
0000
0000
0000
0000
0000
0000
0000
0000
0000
0101
0000
0000
0000
0000
0000
0000
0000
0000
0000
0000
0000
,
1001
0110
1010
0101
,
1010
0101
1001
0110
1010
0000
0101
0000
,
1001
0110
1100
0011
,
1100
0011
1100
0011
1001
0000
0110
0000
,
1010
0101
1001
0110
,
0011
1100
0101
1010
1001
0000
0110
0000
,
1010
0101
1001
0110
,
1100
0011
1001
0110
2002
0000
0000
0000
,
0000
0000
0000
3003
0202
0000
0303
2020
,
0000
3030
0220
0330
2002
0000
0000
0000
,
3003
0000
0000
0000
0202
0000
0000
0303
,
2020
0000
0000
3030
2002
0000
0000
0000
,
3003
0000
0000
0000
0220
0000
0000
0330
,
2020
0000
0000
3030
0022
0000
0033
2200
,
0000
3300
2002
3003
0220
0000
0330
2002
,
0000
0000
3003
0110
,
0101
0000
0000
0000
1001
0000
0000
0000
1010
0001
0010
0100
0010
0001
1000
0010
,
1000
0001
0100
0010
1000
0001
0010
0100
1000
0001
1000
0010
0100
0001
0100
0010
,
1000
0001
1000
0001
0100
0010
0100
0010
1000
0010
1000
0001
0100
0010
1000
0100
,
0010
0001
0010
0100
1000
0001
0100
0010
0100
0001
0100
0010
1000
0100
0010
0100
,
1000
0001
0100
0010
0100
0001
0100
0010
1001
0000
1000
0000
1000
0000
1100
0000
,
0000
0100
0010
0001
1001
1000
1000
1010
,
0000
0000
0010
0000
0100
0000
0001
0000
0010
0100
1000
0001
1000
0010
0100
0001
,
0100
0010
1000
0001
0010
0100
0010
0001
1000
0100
1000
0001
1000
0010
1000
0001
,
1000
0001
0010
0001
1000
0010
0100
0010
1000
0001
0010
0100
1000
0100
0010
0001
,
1000
0001
0100
0010
1000
0001
0010
0100
1000
0001
1000
0001
1000
0001
1000
0001
,
0100
0010
0100
0010
0100
0010
0100
0010
1001
0000
0100
0000
0010
0000
0011
0000
,
0000
0100
0010
1000
0101
0010
1000
1001
,
0000
0000
0001
0000
1000
0000
0001
0000
1000
0010
0100
0001
0100
0010
1000
0001
,
1000
0001
0010
0100
0010
0001
1000
0010
1000
0001
0100
0010
1000
0001
0100
0010
,
1000
0001
0010
0100
0010
0001
1000
0001
0100
0001
1000
0010
0100
0001
1000
0010
,
0100
0001
0010
0100
1000
0001
1000
0010
0100
0001
1000
0010
1000
0001
0010
0001
,
0100
0010
1000
0001
0010
0100
1000
0100
0011
0000
0000
0000
0100
0000
0000
0000
,
1000
0010
1001
0000
0200
0302
0023
0230
,
0320
0000
0032
0000
2003
0000
3020
0000
0130
0001
1000
0010
1000
0001
0010
0100
,
1000
0001
0100
0010
1000
0010
0100
0010
1000
0001
0010
0001
1000
0100
1000
0001
,
1000
0010
1000
0001
0100
0001
0100
0010
1000
0001
1000
0100
0010
0001
0010
0100
,
1000
0001
0100
0010
1000
0010
0100
0001
0010
0100
0010
0001
1000
0100
0010
0100
,
1000
0010
0100
0001
0100
0010
1000
0001
1000
0010
0100
0001
0010
0100
1000
0100
,
0010
0001
0010
0100
1000
0010
1000
0010
0100
0001
0100
0001
1000
0010
0100
0001
,
0010
0100
1000
0100
0010
0001
1000
0010
0100
0001
0100
0001
0100
0001
0100
0001
,
0100
0001
0100
0001
1000
0010
1000
0010
1000
0001
1000
0001
1000
0001
1000
0001
,
1000
0001
1000
0001
1000
0100
0010
0001
1000
0010
1000
0001
0100
0010
1000
0001
,
1000
0010
0100
0001
0010
0100
1000
0100
0010
0001
1000
0010
1000
0001
0100
0001
,
1000
0010
1000
0001
0100
0001
1000
0010
1000
0100
1000
0001
0010
0001
1000
0100
,
1000
0001
0010
0001
1000
0100
0010
0001
0100
0010
0100
0010
1000
0001
0010
0001
,
1000
0010
0100
0010
1000
0001
0010
0001
0010
0100
1000
0001
1000
0010
0100
0010
,
1000
0001
0010
0100
1000
0100
0010
0001
1000
0100
0010
0100
1000
0010
0100
0010
,
1000
0100
0010
0100
1000
0010
0100
0010
1000
0001
0010
0100
0010
0001
0100
0010
,
0100
0001
0010
0100
0010
0001
0100
0010
1000
0010
0100
0001
1000
0001
1000
0100
,
0010
0001
1000
0010
1000
0001
1000
0010
1001
0000
0000
0000
1001
0000
0000
0000
,
0000
0000
0110
0000
2002
0000
0000
3003
,
0220
0000
0000
0330
0022
0000
0000
0000
,
0000
0033
2200
3300
2002
0000
0000
3003
,
2020
0000
0000
0000
0000
0000
3030
0000
0001
0100
0010
1000
0010
1000
0001
0010
,
0001
1000
0010
0100
0001
0100
0010
1000
0100
0010
0100
1000
0001
0010
0001
0100
,
0010
1000
0010
1000
0001
0010
0001
0010
0100
1000
0001
1000
0010
0100
0001
0100
,
0010
1000
0001
1000
0100
0010
0001
0010
0100
1000
0100
1000
0100
1000
0100
1000
,
0001
0010
0001
0010
0001
0010
0001
0010
1100
0000
1001
0000
0101
0000
0000
0000
,
0000
0000
1000
0010
0100
0001
1000
0010
1001
0000
0000
0000
1001
0000
0000
0000
,
0000
0000
1010
0000
2002
0000
0000
3003
,
0220
0000
0000
0330
2020
0000
0000
0000
,
0000
3030
0022
0033
2002
0000
0000
3003
,
0220
0000
0000
0000
0000
0000
0330
0000
1000
0100
0010
0001
1000
0001
1000
0010
,
0100
0001
1000
0001
1000
0100
0010
0001
0010
0100
0010
0100
1000
0010
1000
0010
,
0100
0001
0100
0001
1000
0100
0010
0001
1000
0010
0100
0010
1000
0001
0010
0001
,
1000
0010
0100
0001
0100
0010
1000
0001
0100
0010
0100
0010
0100
0010
0100
0010
,
1000
0001
1000
0001
1000
0001
1000
0001
0110
0000
1010
0000
1001
0000
0000
0000
,
0000
0000
0000
0000
0000
0000
0000
0000
0100
0010
0100
0010
0100
0010
0100
0010
,
1000
0010
1000
0010
1000
0010
1000
0010
1000
0001
1000
0001
1000
0001
1000
0001
,
0100
0001
0100
0001
0100
0001
0100
0001
1000
0100
0010
0001
1000
0100
0010
0001
,
1000
0100
0010
0001
1000
0100
0010
0001
1000
0010
0100
0001
1000
0010
0100
0001
,
1000
0010
0100
0001
1000
0010
0100
0001
0100
0010
1000
0010
0100
0001
0100
0010
,
1000
0010
0100
0001
0100
0010
1000
0010
0100
0001
1000
0010
0100
0001
1000
0010
,
0200
0000
0000
0000
0000
0000
0000
0000
0000
0000
0000
0000
0000
0000
0000
0000
0000
0000
0000
0000
0000
0000
0000
0000
0301
1000
0000
0000
0000
0000
0000
0000
0000
0000
0000
0000
0110
0000
0000
0000
0000
0000
1001
0000
0000
0000
0000
0000
,
0110
1000
0001
0100
0001
1000
0010
0100
0001
0010
0100
1000
,
0100
0010
0001
1000
0001
0010
0100
1000
0010
0100
0001
1000
,
0001
0100
0010
0100
0001
1000
0100
1000
0010
1000
0010
0100
,
0010
0100
0001
0100
0010
1000
0100
0010
0001
0010
0100
1000
,
0100
0010
0001
1000
0100
0010
0001
1000
0010
0100
0001
1000
0010
0100
0001
0100
,
0001
0010
0100
1000
0100
0010
0001
1000
0001
0100
0010
1000
0010
0100
0001
1000
,
0010
0100
0001
0100
0010
1000
0010
0100
0001
1000
0001
1000
0001
0010
0100
1000
,
0010
0100
0001
0100
0001
0100
0020
0000
0000
0000
0000
0000
,
1030
0100
0020
0000
0000
0000
0031
0010
0100
1000
0100
0010
,
1001
0100
0010
1000
0001
0100
0001
1000
0010
0100
0001
0010
,
1100
0010
0001
1000
0001
0100
0010
1000
0100
0010
0001
1000
,
0101
0010
1000
0001
0100
0001
0010
0100
1000
0100
0010
0001
,
1000
0010
0100
0001
1000
0001
0100
0010
1000
0100
0010
0100
1000
0001
0100
0001
,
1000
0010
0100
0001
1000
0001
0010
0001
1000
0010
0100
0001
0010
0100
1000
0100
,
0010
0001
0100
0001
1000
0010
1000
0001
0100
0010
1000
0100
0010
0001
0010
0100
,
1000
0000
0000
0001
0000
0000
0100
0000
0000
0010
0000
0000
0100
0000
0000
0001
0000
0000
1000
0000
0000
0010
0000
0000
0100
0000
0000
0000
0001
0000
0000
0000
0100
0000
0000
0000
0001
0000
0000
0000
0100
0000
0000
0000
0001
0000
0000
0000
,
2000
0000
0000
0000
0000
0000
3001
0010
0200
0000
0000
0000
,
1300
0100
0010
0001
1000
0100
0010
0001
1000
0010
0100
0001
1000
0010
0100
0001
,
1000
0010
0100
0010
1000
0001
0100
0001
1000
0010
0100
0010
1000
0001
0100
0001
,
1000
0100
1000
0100
0010
0001
0010
0001
0100
0010
0100
0010
1000
0010
1000
0010
,
0100
0001
1000
0010
0100
0001
1000
0010
1000
0100
0010
0001
0010
0100
1000
0100
,
0020
0000
0030
0002
0000
0203
0000
0320
,
2030
0000
3200
0000
,
0320
0000
0000
0032
0000
0000
0203
0000
0320
0000
0000
2030
0000
0000
3200
0000
,
0320
0000
0000
0032
0000
0000
2003
0000
3020
0000
0000
0230
0000
0000
0302
0000
,
2003
0200
3300
0020
0002
0033
2000
0002
,
3003
0002
2000
3003
0110
0000
2000
0200
,
3300
0002
0200
0303
0020
2000
3030
0002
,
0200
0303
1010
0000
0101
0000
0010
0000
,
1000
0100
0011
0000
1001
0000
0010
0000
,
1000
0001
0110
0000
1100
0000
0001
0000
,
0010
0100
1001
0000
0011
0000
1000
0000
,
0100
0001
1100
0000
0002
0200
0303
0020
,
2000
3030
0002
2000
3003
0200
0020
0330
,
0011
0000
0002
0020
0033
2000
0020
3030
,
0002
2000
3003
0020
0200
0330
1001
0000
,
1000
0010
0100
0001
1000
0100
0010
0001
0010
0100
1000
0001
0100
0010
1000
0001
,
0010
0100
1000
0100
0010
0001
1000
0001
1000
0100
0010
0001
1000
0100
0010
0001
,
1000
0010
0100
0001
0100
0010
1000
0100
0010
0001
0010
0100
1000
0001
0100
0010
,
1000
0100
0010
0001
0010
0100
1000
0100
0010
0001
0010
0100
1000
0100
0010
0001
,
1100
0101
0000
0110
,
2002
0000
0000
3003
0220
0000
0000
0330
,
0202
0000
0000
0000
0000
0303
2020
3030
,
2002
0000
0000
3003
0220
0000
0000
0330
,
1000
0100
0010
0001
0010
0100
1000
0001
0100
0010
1000
0001
0100
0001
0010
0100
,
1000
0100
0010
0001
0010
0100
1000
0001
0100
0001
1000
0010
1000
0001
0100
0001
,
1000
0100
0010
0001
0010
0100
1000
0010
0100
0001
0100
0010
1000
0001
1000
0001
,
0010
0100
0010
0100
0010
0100
0010
0100
1000
0001
1000
0001
1000
0001
1000
0001
,
0110
0000
1010
0000
0101
0000
0000
0000
0000
0000
1000
0100
0010
0001
1000
0100
,
0011
1100
0000
0101
,
2002
0000
0000
3003
0220
0000
0000
0330
,
0202
0000
0000
0000
0000
0303
2020
3030
,
2002
0000
0000
3003
0220
0000
0000
0330
,
1000
0100
0010
0001
0010
0100
1000
0001
0100
0001
1000
0010
1000
0100
0010
0001
,
0010
0100
1000
0010
0100
0010
0100
0001
0100
0010
1000
0010
0100
0001
1000
0100
,
0010
0001
0010
0100
1000
0010
0100
0001
0100
0001
1000
0010
1000
0001
0010
0100
,
1000
0001
1000
0001
1000
0001
1000
0001
0010
0100
0010
0100
0010
0100
0010
0100
,
1001
0000
0110
0000
0101
0000
0000
0000
0000
0000
0000
0000
0001
0010
0100
1000
,
0100
0010
0100
0010
0100
0010
0100
0010
0001
1000
0001
1000
0001
1000
0001
1000
,
0010
0100
0010
0100
0010
0100
0010
0100
0010
1000
0010
1000
0010
1000
0010
1000
,
0001
0010
0100
1000
0001
0010
0100
1000
0001
0010
0100
1000
0001
0010
0100
1000
,
0010
0100
0001
0100
0010
0100
0001
0100
0010
0100
0001
0100
0010
0100
0001
0100
,
0010
1000
0010
0100
0010
1000
0010
0100
0010
1000
0010
0100
0010
1000
0010
0100
,
0001
1000
0001
0100
0001
1000
0010
0100
0002
0000
0000
0000
0000
0000
0000
0000
,
0000
0000
0000
0000
0013
0100
0010
0100
1001
0000
0000
0000
0000
0000
0000
0000
;
