#TITLE:Endless Tears ...;
#SUBTITLE:11eyes Crossover OP theme;
#ARTIST:Ayane;
#TITLETRANSLIT:;
#SUBTITLETRANSLIT:;
#ARTISTTRANSLIT:;
#CREDIT:ALICE_;
#BANNER:Endless Tears.png;
#BACKGROUND:Endless Tears1.jpg;
#LYRICSPATH:;
#CDTITLE:cdtitle.png;
#MUSIC:Endless Tears.mp3;
#OFFSET:0.562;
#SAMPLESTART:57.840;
#SAMPLELENGTH:19.680;
#SELECTABLE:YES;
#BPMS:0.000=192.010,354.500=384.018;
#STOPS:0.000=0.015
,354.500=7.620
;
#BGCHANGES:6.750=Endless Tears.avi=1.000=1=0=1,
355.000=Endless Tears2.jpg=1.000=1=0=1,
99999=-nosongbg-=1.000=0=0=0 // don't automatically add -songbackground-
;
// cache tags:
#FIRSTBEAT:20.000;
#LASTBEAT:355.250;
#SONGFILENAME:Songs/alice 4th complete step/Endless Tears/Endless Tears.sm;
#HASMUSIC:1;
#HASBANNER:1;
#MUSICLENGTH:117.846;
// end cache tags

//---------------dance-single - ----------------
#NOTES:
     dance-single:
     :
     Easy:
     4:
     0.387,0.376,0.170,0.102,0.000,287.000,20.000,12.000,0.000,0.000:
0000
0000
0000
0000
,
0000
0000
0000
0000
,
0000
0000
0000
0000
,
0000
0000
0000
0000
,
0000
0000
0000
0000
,
0001
0000
0000
0000
,
0100
0000
0000
0000
,
1000
0000
0000
0000
,
0001
0000
0100
0010
,
1000
0001
0100
0001
,
1000
0001
1000
0001
,
0100
0010
1000
0100
,
0001
1000
0001
1000
,
0010
0100
0010
0001
,
1000
0010
1000
0100
,
0001
0010
1000
0010
,
0001
0100
0010
0100
,
0002
0100
1000
0103
,
0000
1000
0000
0010
,
2000
0100
0001
3100
,
0000
0001
0000
0010
,
0100
1000
0001
0100
,
0010
0100
0000
0100
,
0001
1000
0010
1000
,
0001
0010
0000
0010
,
0001
1000
0100
1000
,
0001
0010
0100
0010
,
0002
0103
0000
0110
,
0000
0110
0000
0110
,
1000
0001
1000
0100
,
1000
1000
0010
0100
,
1000
0001
0100
0010
,
0001
0001
0100
0010
,
1000
0100
0001
0100
,
1000
0001
0010
1000
,
0200
0310
0000
1001
,
0000
0110
1000
0001
,
0100
0100
0100
0100
,
0010
1000
0001
1000
,
0100
0010
0001
0010
,
0100
1000
0001
0100
,
0010
1001
0100
0010
,
1000
0100
1000
0001
,
0100
0010
0010
0010
,
0001
1000
0100
0010
,
2000
0000
0000
0000
,
0000
0000
3001
0100
,
1001
0001
0010
0100
,
1000
0100
0010
0100
,
1000
1000
0010
0100
,
0001
0100
0010
1000
,
0001
0010
1000
0010
,
0001
0100
0010
1000
,
0001
0100
1000
0100
,
0001
1000
0010
0100
,
1001
1000
0100
0010
,
0001
0010
0100
0010
,
0001
0001
0100
0010
,
1000
0010
0100
0001
,
1000
0100
0001
0100
,
1000
0010
0001
0010
,
0200
0000
0000
0300
,
1001
0100
1100
0001
,
0101
0000
1000
0000
,
0001
0000
0200
0300
,
0010
0110
0000
0110
,
1000
1001
0000
1001
,
0001
0010
0100
1000
,
1000
0100
0010
0001
,
0100
0110
0000
0110
,
0001
1001
0000
1001
,
1000
0100
0010
0001
,
0001
0010
0100
1000
,
0010
0100
0001
0001
,
0010
0100
1000
1000
,
0001
0010
0001
0100
,
0001
1000
0010
1000
,
0100
0010
0100
0001
,
0100
1000
0010
0100
,
0002
0000
0000
0000
,
2003
0000
0000
0000
,
3001
0100
0010
0100
,
0010
0100
1000
0001
,
1000
0010
0100
0010
,
0100
0010
0001
1000
,
0001
0100
0000
0010
0000
0000
1000
0100
,
0000
0010
0000
0000
0001
1000
0002
0000
,
0003
0000
0000
0000
,
0000
0000
0000
0000
0000
0000
0000
0000
2200
0000
0000
3300
0000
0000
0000
0000
;

//---------------dance-single - Copied from----------------
#NOTES:
     dance-single:
     Copied from:
     Medium:
     8:
     0.656,0.640,0.467,0.187,0.000,464.000,55.000,22.000,0.000,0.000:
0000
0000
0000
0000
,
0000
0000
0000
0000
,
0000
0000
0000
0000
,
0000
0000
0000
0000
,
0000
0000
0000
0000
,
1001
0000
0000
0100
0000
0001
0000
1000
,
0010
0000
0000
0001
0000
1000
0000
0100
,
0010
0010
0000
0110
0000
1001
0000
0100
,
0002
0000
1000
1003
,
0100
1010
0100
1001
,
0010
1000
0100
1000
0001
0100
0010
0000
,
0100
1001
0010
0101
,
0010
0001
0100
0010
1000
0010
0100
0000
,
0001
0110
1000
0101
,
0010
1000
0100
0010
0001
0100
0010
0000
,
1000
0011
0001
0110
,
0010
1000
0100
0010
0100
1000
0010
0100
,
0001
0000
1100
0000
0101
1000
0000
0110
,
0000
1001
0000
0100
0000
0010
0001
0000
,
1000
0001
0100
0000
1000
0100
0000
0020
,
0000
0000
0100
0030
0100
1000
0010
0000
,
0001
0100
0001
0100
0001
0100
0010
1000
,
0000
0000
1010
0000
0100
1000
0010
0000
,
1000
0100
1000
0100
1000
0100
0010
0002
,
0000
0103
0010
0100
0001
0010
1000
0000
,
1000
0100
1000
0100
1000
0010
0100
0001
,
0010
0000
1100
0000
0010
0100
0001
0100
,
0010
1001
0100
1001
,
0010
0100
0001
0000
0110
0000
1100
0000
,
0001
0100
1000
0100
0001
0010
1000
0010
,
0000
0000
1000
0001
0100
0010
0100
0001
,
1000
0010
0100
0001
1000
0001
0010
0001
,
0000
1000
0100
0001
0100
1000
0100
0000
,
1000
0001
0100
0010
1000
0001
0010
0001
,
0000
0100
0010
0100
0001
1000
0001
1000
,
0100
1001
0010
1001
,
0100
0010
1000
0000
0101
0000
0011
0000
,
0010
0000
0200
1000
1300
0000
1010
0000
,
0100
0000
0002
0010
0013
0000
0110
0000
,
1000
0000
0001
0100
1000
0100
0001
1000
,
0000
0010
0100
0001
0100
0010
1000
0100
,
0010
0000
0011
0000
0001
0100
1000
0000
,
0010
0000
1010
0000
1000
0010
0001
0200
,
0300
1000
0100
1000
0010
0100
0001
0010
,
0001
0100
1000
0100
0001
0010
0100
0010
,
0110
0000
0000
1001
0000
0000
0110
0000
,
0000
2000
0000
0000
0002
0000
0000
3003
,
1000
0100
0010
0001
1000
0100
0010
0001
,
0000
0100
0010
1000
0010
0100
0001
0000
,
0001
0010
0100
1000
0001
0010
0100
1000
,
0000
0010
0100
0010
1000
0010
0100
0000
,
0001
1000
0100
0010
0001
1000
0010
0100
,
0000
0100
0001
0010
1000
0010
0001
0000
,
1000
0001
0100
0010
1000
0001
0010
0100
,
0000
1000
0010
0001
0010
1000
0100
0010
,
0100
1000
0010
0100
0010
0001
0010
0100
,
0000
0001
1000
0001
1000
0100
0010
0000
,
0001
0100
0010
0000
0010
1000
0100
0020
,
0000
0100
0130
0000
1001
0000
0110
0000
,
1000
0000
1000
0001
0010
0000
0001
0100
,
1000
0100
0001
0000
0010
1000
0001
0000
,
0200
0000
0000
0000
0000
0000
0000
0300
,
0001
1000
0010
0000
0100
0100
0100
0100
,
0200
0000
0000
0300
0020
0000
0230
0000
,
0302
0000
2003
0000
3010
0110
0000
0000
,
0110
1001
1100
0011
,
0101
0000
1010
0000
0100
0010
0001
2000
,
0000
0100
0010
0100
,
0001
0000
0010
3000
0100
0010
0001
0000
,
0110
1001
0101
1010
,
1100
0000
0011
0000
0100
1000
0010
1000
,
0000
0002
0100
0000
0010
0000
1000
0000
,
0100
0000
0013
0000
0100
1000
0010
0000
,
1001
0110
0011
1100
,
0101
0000
1010
0000
0001
0010
0100
2000
,
0000
0010
0100
0010
,
0100
0000
0001
3000
0010
0100
0001
0000
,
1000
0000
0100
1000
0000
0010
0100
0000
,
0001
0000
0110
0000
0001
0010
0100
0020
,
0000
0000
0100
0000
0000
0000
0100
0030
,
1000
0010
0100
0001
1000
0100
0010
0000
,
0001
1000
0100
1000
0100
1000
0010
1000
,
0010
1000
0001
0100
0001
0100
0001
0010
,
0100
0010
0100
0010
0100
1000
0010
1000
,
0010
0100
0001
0100
0001
0010
0100
0010
,
0100
0100
0000
0100
0100
0000
0100
0100
,
0000
0100
0100
0000
0100
1000
0002
0000
,
0000
0000
0000
0000
,
0000
0003
2200
3300
;

//---------------dance-single - Copied from Copied f----------------
#NOTES:
     dance-single:
     Copied from Copied f:
     Hard:
     9:
     0.771,0.942,0.390,0.356,0.000,548.000,46.000,42.000,0.000,0.000:
0000
0000
0000
0000
,
0000
0000
0000
0000
,
0000
0000
0000
0000
,
0000
0000
0000
0000
,
0000
0000
0000
0000
,
1001
0000
0000
0100
0000
0010
0000
1000
,
1100
0000
0000
0100
0000
0010
0000
0001
,
0100
0101
0000
0001
0000
0100
0000
0010
,
2002
0000
0000
0000
0000
0000
0000
3003
,
1000
0100
0010
0100
1000
0010
0100
0001
,
0010
0001
0100
0000
0010
0001
1100
0000
,
0001
0100
0010
1000
0100
0010
0100
1000
,
0010
1000
0100
0000
0010
1000
0101
0000
,
1000
0001
0100
0010
1000
0100
1000
0010
,
1000
0001
1100
0000
0001
1000
0101
0000
,
0010
0100
0001
1000
0100
0010
0001
0100
,
1000
0100
0010
0100
0001
0010
1000
0010
,
0001
0100
0001
1000
0010
0100
0000
1001
,
0000
0110
0000
1001
0000
0100
0010
2000
,
0100
0100
3001
0000
0001
0010
0100
2000
,
0000
3100
0010
0100
1000
0001
0100
0001
,
0010
0010
2002
3003
0100
0100
0010
0100
,
1000
0100
0010
0001
0100
0010
1000
0100
,
0010
0001
0010
0100
1000
0010
0100
0202
,
0303
1000
0010
1000
0001
0100
0010
0100
,
0001
1000
0100
1000
0010
0100
0001
0010
,
0001
0100
1000
0100
0010
0100
0001
1000
,
0002
0013
2000
3010
,
0002
0000
0103
0000
2000
3000
1100
0000
,
0010
0001
1000
0100
0010
0010
0001
0100
,
0010
1000
0100
0001
0100
1000
0010
0100
,
0001
1000
0010
0100
0010
1000
0100
2200
,
3300
0010
0001
0100
0010
1000
0001
1000
,
0010
0100
0001
0100
0001
0010
0001
0100
,
0010
1000
0100
0010
0001
0100
1000
0100
,
0002
0103
2000
3100
,
0002
0000
0013
0000
2000
3000
1010
0000
,
0100
0001
0010
0100
1000
0010
1000
0100
,
1000
0001
0100
0010
1000
0100
0010
0001
,
0100
0010
0100
1000
0100
0001
0010
0100
,
2000
3000
0000
0000
2000
3000
0000
0000
0020
0030
0000
0000
0200
0300
0000
0000
0002
0003
0000
0000
0200
0300
0000
0000
0020
0030
0000
0000
2000
3000
0000
0000
,
0200
0000
0310
0001
0100
0001
0100
0010
,
1000
0100
0010
0100
1000
0001
0100
0020
,
1030
0001
0001
0001
1000
0001
1000
1000
,
0001
1000
1000
0010
0100
0010
1000
0001
,
0101
0000
1000
1010
0000
0001
0101
0000
,
1000
1100
0010
0100
2002
0000
0000
3003
,
1000
0100
0001
0100
1000
0100
0010
0100
,
1000
0010
0001
0010
0100
0001
0010
0001
,
1000
0100
0010
0001
0100
0010
0100
0110
,
0000
0001
0010
0100
0010
0001
1000
0001
,
0100
0010
1000
0001
0010
0001
0100
0001
,
1000
0100
0001
0100
1000
0001
0010
0100
,
1000
0010
0001
1000
0100
0010
1000
1100
,
0000
0100
1000
0010
0100
0001
0100
0010
,
1000
0100
1000
0001
0100
0010
0100
0001
,
0010
0100
1000
0010
0001
0010
1000
0100
,
0001
0100
1000
0010
0100
0001
0010
0000
,
1001
0000
0101
0010
0001
1000
0010
0100
,
0001
1000
0010
1000
0100
0001
1000
0100
,
0010
0001
0100
0010
0001
0100
1000
0010
,
0200
0000
0000
0000
0000
0000
0000
0300
,
0002
0000
0000
0000
1003
0100
0010
0000
,
0001
0001
0000
0000
0101
0000
0010
0100
,
1000
1000
0100
0000
1010
0110
0000
0000
,
1001
0000
0110
0000
1000
0001
0100
0010
,
1000
0001
0010
0100
1000
0001
0010
0001
,
0100
0000
1010
0000
1100
0000
0100
0010
,
0001
0000
0001
0100
1000
0100
0010
0100
,
0110
0000
1001
0000
0100
0010
1000
0001
,
0100
0010
0001
0100
0010
1000
0100
1000
,
0010
0000
0101
0000
0011
0000
0010
0100
,
1000
0000
1000
0010
0001
0010
0100
0010
,
1001
0000
1010
0000
0011
0100
0001
0010
,
0000
0100
1000
0010
1000
0001
0100
0010
,
1000
0000
1100
0000
0110
0000
0011
0001
,
0100
0000
1010
1000
0001
0100
0010
0000
,
1000
0000
0010
0100
0000
1000
0100
0000
,
0001
0000
0010
0100
0001
0100
0010
2000
,
0000
3001
0001
0001
1000
0001
0001
1000
,
0100
0010
0001
0100
0010
1000
0200
0300
,
1000
0100
0001
0100
1000
0010
0001
0010
,
0100
0001
0100
0010
0100
0001
0010
0100
,
0001
0010
1000
0010
0001
0100
1000
0100
,
0010
1000
0010
0100
0010
1000
0100
0010
,
0002
0103
0000
2000
3010
0000
0002
0103
,
0000
0020
1030
0000
0110
0000
2002
0000
,
0000
0000
0000
0000
,
0000
0000
0000
0000
3003
0000
0000
0000
2200
0000
0000
0000
0000
3300
0000
0000
;

//---------------dance-single - ----------------
#NOTES:
     dance-single:
     :
     Challenge:
     18:
     1.000,1.000,1.000,0.416,1.000,897.000,322.000,49.000,0.000,54.000:
0000
0000
0000
0000
,
0000
0000
0000
0000
,
0000
0000
0000
0000
,
0000
0000
0000
0000
,
0000
0000
0000
0000
,
1001
0000
0000
0000
0000
0000
0000
0110
,
1101
0000
0000
0000
,
0101
1011
0000
0000
0000
0000
0000
0000
,
1011
0000
0000
0000
0000
0000
2000
0000
3100
0010
0001
1000
0010
0100
0001
0100
,
1001
0000
0010
0000
1101
0000
1000
0010
1100
0010
1000
0000
1101
0000
1000
0010
,
1100
0010
1000
0000
1101
0000
1000
0010
1100
0010
1000
0000
1101
0000
1000
0010
,
0100
0010
0001
0000
1101
0000
0001
0010
0101
0010
0001
0000
1101
0000
0001
0010
,
0101
0010
0001
0000
1101
0000
0001
0010
0101
0010
0001
1000
0100
0010
0100
0010
,
1001
0100
1001
0100
0011
0000
1000
0001
1010
0001
0100
0000
1110
0000
1000
0001
,
1010
0001
0100
0000
1110
0000
1000
0001
1010
0001
0100
0000
1110
0000
1000
0001
,
1010
0001
0100
0000
0111
0000
0001
1000
0101
1000
0010
0000
1001
0010
0100
0010
,
1100
0000
0110
0000
1010
0000
0101
0000
0011
1000
0100
0010
1001
0100
0011
1000
,
0110
0001
0101
0011
0100
1010
1100
0110
,
1001
0000
1010
0000
0101
0000
0010
0000
1100
0000
0012
0000
1003
0100
0010
0100
,
1010
0110
1011
0100
1010
0011
0100
2002
,
0000
3003
0100
0000
0011
0000
1001
0000
0101
0000
0011
0000
1010
0000
1100
0000
,
0010
0010
2002
3003
0100
1000
0011
1001
,
0100
1000
0011
1001
0100
1000
0011
1001
,
0010
1000
0110
1001
0010
1000
0110
2002
,
0000
3003
0100
0000
0011
0000
1010
0000
0110
0000
0100
0000
0011
0000
0101
0000
,
1001
0010
1100
1001
0010
1100
1001
0100
,
1001
0000
0100
0000
0011
0000
1001
0000
0100
0000
0011
0000
1001
0000
0010
0100
,
1010
1000
0111
0010
0101
0100
1110
1000
,
0110
0000
0000
0010
0000
0000
0111
0000
0000
0001
0000
0000
1100
0000
0000
0101
0000
0000
1110
0000
0000
0011
0100
0000
,
1000
0010
0100
1000
0010
0100
1000
0010
,
0100
0100
0010
0010
0100
0001
1000
0010
,
0001
0100
1000
0010
0100
1000
0010
2002
,
0000
3003
0100
0000
0110
0000
0100
0000
1001
0000
0010
0000
0110
0000
0100
0000
,
1000
0001
0010
0100
0001
0010
0100
0010
,
1000
0000
0001
0000
0100
0000
0010
0000
0100
0000
0001
0000
1000
0010
0100
0010
,
1000
0000
0110
0000
2002
0000
0000
3003
0010
0000
0011
0000
1001
0000
0100
0000
,
1010
0000
0000
0000
0000
0000
1001
0000
0000
0000
0000
0000
0010
0000
0000
0000
0000
0000
0100
0000
1000
0000
0000
0000
0011
0000
0000
0000
0000
0000
0101
0000
0000
0010
0000
0000
1000
0000
0000
0100
0000
0000
0010
0000
0000
0100
0000
0000
,
2002
0103
0011
0101
0010
0001
3110
0100
,
2002
3010
1100
1010
0100
1000
0113
0100
,
2010
0001
0110
0101
0010
0110
3101
0020
,
0230
0302
2003
3020
2030
3002
0023
0230
,
1310
1000
1101
1000
1010
1010
1101
1010
,
0100
0010
1101
0001
0011
0011
1101
0110
,
0001
0100
1011
0100
0001
0100
1011
0100
,
1000
0000
0010
0000
1101
0000
0010
0000
1000
0000
0010
0100
1001
0010
0100
0010
,
1001
0100
0010
0000
0110
0000
1001
0100
0010
0000
0110
0000
1001
0010
0100
0000
,
0110
0000
1001
0010
0100
0000
0110
0000
1000
0001
0220
0000
0000
0000
0000
0330
,
1001
0100
0010
0001
1100
0010
1000
0100
0010
1000
0001
0100
1010
0001
0100
1000
,
0001
0010
1000
0010
0101
1000
0010
0100
1000
0010
0100
0001
1010
0100
0001
0100
,
1000
0010
0001
0010
1100
0001
0010
1000
0100
0001
1000
0010
1100
0001
0010
0001
,
0100
0010
1000
0010
1001
0100
0010
0100
0001
0010
0100
1000
0011
0100
0010
1000
,
0100
0010
0100
0001
1010
0001
0100
0010
1000
0100
1000
0010
0101
1000
0010
0100
,
0001
1000
0010
0100
0011
1000
0001
0100
0010
0001
0010
1000
0101
1000
0010
0100
,
0010
1000
0100
1000
0011
0100
0001
0100
0010
0001
0010
0100
1010
0001
0100
0010
,
1000
0001
0100
1000
0110
0001
1000
0010
0100
0001
0010
0001
1100
0010
0001
0010
,
1001
0100
0010
0100
1001
0010
0100
0010
1000
0100
1000
0001
0110
1000
0010
0100
,
1001
0010
0001
0010
1100
0001
0010
0100
1010
0001
0100
0001
1100
0010
0100
0001
,
1010
0100
0001
0010
1001
0100
1000
0001
0110
0001
1000
0010
1100
0010
1000
0100
,
0011
1000
0010
0100
0011
1000
0100
0010
0101
1000
0001
0100
1010
0100
0010
0100
,
2002
0000
0010
0000
0100
3003
0220
0000
1000
0000
0001
0300
2232
0000
0010
0000
,
0010
3313
0110
1001
1000
0100
0011
0100
,
2002
0000
0000
0000
0000
0000
0000
3003
,
1100
0010
0010
0101
1000
0010
0101
1001
0010
0001
1000
0100
,
0011
0000
0001
0000
0010
0000
1001
0000
0101
0000
0010
0000
1000
0000
0101
0010
,
1000
0000
1010
0000
0001
0100
1000
0100
0001
0000
2002
0000
0000
0000
3003
0000
,
1001
0010
0100
1000
0001
0010
0100
1000
0001
0010
1100
0010
1001
0010
0100
0011
,
1000
0100
0011
0100
1000
0010
0001
0110
1000
0001
0110
0001
1100
0010
1000
0110
,
1001
0010
0100
1010
0001
0100
1010
0100
0011
1000
0010
1000
0101
0010
0100
0011
,
1000
0000
0000
0000
0010
0000
0000
0000
1100
0000
0000
0000
0001
0000
0000
0000
0010
0000
0000
0000
1001
0000
0000
0000
0100
0000
0000
0000
0010
0000
0000
0000
1001
0000
0000
0000
0100
0000
0000
0000
2022
3033
0000
0000
0000
0000
0000
0000
0000
0000
0000
0000
0000
0000
0000
0000
0101
0000
0000
0000
0010
0000
0000
0000
,
1001
0100
0010
0001
1000
0100
0010
0001
1000
0100
1010
0100
0001
1010
0101
0010
,
1000
0100
1010
0101
0010
1000
0100
0010
0101
1000
0011
0100
0010
1100
0001
0010
,
1001
0100
0011
0100
1000
0110
0001
0010
1100
0001
0110
0001
1000
0101
0010
1000
,
0011
0000
0000
0000
0100
0000
0000
0000
0010
0000
0000
0000
1000
0000
0000
0000
0101
0000
0000
0000
1000
0000
0000
0000
0010
0000
0000
0000
0100
0000
0000
0000
1001
0000
0000
0000
0010
0000
0000
0000
2202
3303
0000
0000
0000
0000
0000
0000
0000
0000
0000
0000
0000
0000
0000
0000
1001
0000
0000
0000
0100
0000
0000
0000
,
0011
0100
0010
1000
0011
0100
0010
1100
0001
0010
0101
1000
0011
0100
1001
0010
,
0100
0011
1000
0100
1001
0010
0100
0011
1000
0010
1100
0001
0110
1000
0010
0100
,
0001
0110
1000
0100
1001
0010
0100
0010
1000
0001
1100
0010
0100
0011
1000
0010
,
0101
1000
0010
0100
0010
1000
0101
1000
0010
1100
0001
0010
1100
0010
0101
0010
,
1000
0001
0110
0001
0100
0011
1000
0001
0110
0001
0100
0011
1000
0010
0101
0010
,
1000
0001
0100
0011
1100
0001
0100
0001
1010
0100
0010
1001
0100
0010
1001
0100
,
0001
0010
1001
0010
0100
0010
0101
0010
1000
0010
1100
0010
0001
0010
1000
0100
,
1001
0110
1001
0100
0010
1100
0011
1000
0100
0011
1100
0010
1001
0110
1000
0011
,
0100
0101
1010
1100
1001
0110
1100
0011
,
0101
1010
0101
0110
1001
1010
0101
1100
,
0011
1010
1100
0110
1001
0110
1010
1100
,
0110
0101
1010
0110
1001
0101
1010
1001
,
0110
1111
0000
0110
1111
0000
0110
1111
,
0000
0110
1111
0000
0110
0010
2112
0000
,
0000
0000
0000
0000
,
0000
0000
0000
0000
0000
0000
0000
0000
0000
0000
0000
0000
0000
0000
0000
0000
0000
0000
0000
0000
0000
0000
0000
0000
3003
0000
0000
0000
0000
0000
0000
0000
2200
0000
0000
0000
0000
0000
0000
0000
0000
3300
0000
0000
0000
0000
0000
0000
0000
0000
0000
0000
0000
0000
0000
0000
0000
0000
0000
0000
0000
0000
0000
0000
;
