#TITLE:Guatauba;
#SUBTITLE:;
#ARTIST:Plan B;
#TITLETRANSLIT:;
#SUBTITLETRANSLIT:;
#ARTISTTRANSLIT:;
#CREDIT:;
#BANNER:banner.JPG;
#BACKGROUND:;
#LYRICSPATH:;
#CDTITLE:!tizaTitle.png;
#MUSIC:Plan B - Guata-uba Ubaubaguata.ogg;
#OFFSET:-0.720;
#SAMPLESTART:128.541;
#SAMPLELENGTH:21.000;
#SELECTABLE:YES;
#BPMS:0.000=92.000;
#STOPS:;
#BGCHANGES:;
// cache tags:
#FIRSTBEAT:0.000;
#LASTBEAT:247.500;
#SONGFILENAME:Songs/Reggaeton and more/Guatauba/Guatauba.sm;
#HASMUSIC:1;
#HASBANNER:1;
#MUSICLENGTH:162.455;
// end cache tags

//---------------dance-single - ----------------
#NOTES:
     dance-single:
     :
     Challenge:
     9:
     0.762,0.724,0.948,0.000,0.889,713.000,154.000,0.000,0.000,0.000:
1010
0000
0110
0000
0101
0000
0001
0010
,
0100
1000
0100
0010
0001
0100
1000
0100
,
0101
0000
1001
0000
1010
0000
1000
0010
,
0001
0000
1000
0000
0100
0000
0001
0000
1001
1000
0100
0010
0100
1000
0001
0010
,
1001
0000
0000
0100
0000
0000
0010
0000
0011
0000
0000
0001
0000
0000
0100
0000
,
1010
0000
0000
1010
0000
0000
0110
0000
0101
0000
0000
0011
0000
0000
0110
0000
,
1100
1000
0100
0010
0011
0000
1001
0000
0000
1000
0010
0100
0001
0000
0001
0100
,
0010
0000
0010
1000
0100
0000
1100
0000
0000
1000
0100
0010
0100
0000
1000
0010
,
0100
0001
0100
0010
1000
0000
1001
0000
0000
0001
0100
0010
1000
0000
1000
0100
,
0000
0010
0000
0001
1001
0000
1010
0000
0000
1001
0000
0001
0101
0000
1001
0000
,
1100
0000
0001
0000
0101
0000
1000
0000
1010
1000
1001
0001
0101
0000
0110
0000
,
0000
1000
0100
0001
0100
0000
1000
0010
0110
0000
0100
0001
0101
0000
1001
0000
,
0000
1000
0010
0100
0001
0010
0100
1000
0100
0010
0001
0100
0010
0000
1010
0000
,
1001
1000
0100
1000
0010
0100
0001
0010
0001
0100
0010
1000
0100
0010
0000
0001
,
0011
0010
0100
0010
0001
0100
0010
0100
0001
1000
0100
0010
0100
1000
0000
0000
,
1100
0100
0010
0100
1000
0010
0100
0010
1000
0100
0010
0001
0010
0100
0000
0000
,
1100
1000
0010
0100
0010
1000
0001
0100
0010
0100
1000
0100
0010
1000
0100
0010
,
0011
0001
0010
0100
1000
0100
0010
0000
1000
0010
0100
0001
0100
0010
1000
0000
,
1000
0100
0010
0001
0010
0100
1000
0000
0001
0010
0100
1000
0100
0010
0001
0000
,
0001
0100
0010
1000
0010
0100
0001
0000
0001
0100
1000
0100
0001
0100
1000
0000
,
1000
0100
0001
0100
1000
0100
0001
0000
0001
0100
1000
0100
0001
0010
1000
0000
,
1000
0010
0001
0100
1000
0100
0000
0000
0100
0001
0010
0100
1000
1100
0000
0000
,
0000
1000
0100
0010
1001
0000
0101
0000
1010
0000
1100
0001
0101
0000
0011
0000
,
1000
1000
0100
0100
0110
0000
0011
0000
1001
1000
0100
1000
0010
0100
1000
0100
,
0010
0000
0000
1000
0000
0000
0100
0000
0000
0010
0000
0000
0001
0000
0000
0010
0000
0000
0100
0000
0000
1000
0000
0000
0100
0000
0010
0000
0100
0000
1000
0000
0000
0010
0000
0000
0001
0000
0000
1000
0000
0000
0100
0000
0000
0001
0000
0000
,
0010
0000
0000
0100
0000
0000
1000
0000
0000
0100
0000
0000
0010
0000
0000
0001
0000
0000
0010
0000
0000
0100
0000
0000
1000
0000
0100
0000
0010
0000
0001
0000
0000
0010
0000
0000
0100
0000
1000
0000
0100
0000
1000
0000
0000
0100
0000
0000
,
0010
0000
0000
0100
0000
0000
1000
0000
0000
0010
0000
0000
0100
0000
0000
0010
0000
0000
1000
0000
0000
0100
0000
0000
0010
0000
0001
0000
0010
0000
0100
0000
0000
0001
0000
0000
0100
0000
1000
0000
0010
0000
0100
0000
0000
0001
0000
0000
,
1001
1000
0100
0010
0011
0001
0000
0000
1010
0001
0011
1000
1100
0000
1001
0000
,
0000
1000
1000
1000
1000
0000
0100
0100
0000
0010
0000
0001
0011
0000
0110
0000
,
0000
0000
1001
1000
0001
0000
0101
0000
1000
0000
1010
0000
0001
0000
0011
0000
,
0001
0010
0100
1000
1100
0000
1001
0000
0000
1000
0100
1000
0010
0000
0100
0001
,
0010
0000
0100
1000
0010
0000
0101
0000
0000
1000
0010
0100
0001
0000
0010
0100
,
1000
0100
0010
0001
0010
0000
1100
0000
0000
1000
0010
0100
0001
0000
0001
0100
,
0000
1010
0000
0100
0001
0000
0101
0000
0000
0000
1000
0001
1000
0000
0110
0000
,
1100
0000
0110
0000
0011
0000
1001
0000
1000
0010
1000
0010
1000
0000
0101
0000
,
1001
1000
0100
0010
0001
0000
0001
0100
0110
0000
1100
0110
0011
0000
1001
0000
,
0000
1000
0100
1000
0100
0000
0100
0010
0011
0001
0010
0100
0110
0010
0100
1000
,
1100
0010
1100
0001
0110
1000
0110
0001
,
0011
0010
0001
0010
0001
0100
0010
0100
0010
1000
0100
1000
0100
1000
0010
0100
,
0101
0000
1000
0000
0110
0000
0001
0000
1010
1001
1010
0000
0011
0000
1000
0000
,
1000
0010
0100
0010
1000
0100
0010
0001
0010
0100
1000
0001
0010
0100
0010
0001
,
1001
0000
0000
1100
0000
0000
0011
0000
0000
0000
0000
1100
0000
0000
0110
0000
,
1001
0000
0000
0011
0000
0000
0110
0000
0000
0000
0000
1100
0000
0000
1010
0000
,
0110
0000
0000
0101
0000
0000
0011
0000
0000
0000
0000
1100
0000
0000
0011
0000
,
1001
0000
0000
0010
0000
0000
1001
0000
1000
0100
0010
0100
1000
0001
0100
0010
,
0101
0001
0100
0010
0100
0001
0101
0000
1001
1000
0100
0010
0100
1000
1010
0000
,
1100
0100
0010
0001
0010
0100
1100
0000
1010
1000
0010
0100
0001
0100
1010
0000
,
1010
0100
0001
0100
0010
1000
1100
0000
0101
0010
1000
0100
0010
0100
1001
0000
,
0110
0000
0000
0000
1000
0000
0100
0000
0010
0001
0000
0001
0010
0000
0100
0000
1100
0000
0000
0000
1000
0000
0010
0000
0100
0000
0101
0000
0000
0000
0000
0000
,
0000
1000
0100
1000
0010
0000
0100
0001
0000
0011
0000
0110
1100
0000
1001
0000
,
0000
0000
1000
0010
0100
0000
0101
0000
0010
0000
1010
0000
1000
0000
0011
0000
,
1000
0100
1000
0010
0100
0000
0101
0000
0000
1000
0010
1000
0001
0000
0001
0100
,
0010
0000
0010
1000
0100
0000
0110
0000
1001
0000
1000
0100
0010
0001
1000
0010
,
0100
0001
0100
0010
1000
0000
1100
0000
0000
0010
0001
0100
0010
0000
0010
1000
,
0000
1100
0000
0100
0010
0000
0011
0000
0000
0000
0011
0110
1100
0000
1001
0000
,
1000
0000
1010
0000
0100
0000
0101
0000
0001
0100
0010
1000
0100
0000
0110
0000
,
1000
0000
0000
0100
0000
0000
0010
0000
0001
0010
0100
1000
0001
0100
0010
1000
,
1001
0001
1000
0100
0010
0000
0001
0010
0100
1000
0010
0100
0001
1000
1001
0000
,
1000
0010
0100
0001
1000
0100
0010
0001
1000
0010
0100
0001
0100
0010
1000
0000
,
0001
0010
0100
1000
0001
0100
0010
1000
0001
0010
0100
1000
0100
0010
0001
0000
,
1000
0010
0100
0001
0010
0100
1000
0010
0100
0010
1000
0100
0010
0001
1001
0000
,
1100
0100
0010
0001
0011
0000
1001
0000
0000
0000
0000
1100
0101
0000
1001
0000
;
