#TITLE:Pacific Girls;
#SUBTITLE:;
#ARTIST:DJ Sharpnel;
#TITLETRANSLIT:;
#SUBTITLETRANSLIT:;
#ARTISTTRANSLIT:;
#CREDIT:;
#BANNER:../Jawn - ban.png;
#BACKGROUND:../Jawn - bg.png;
#LYRICSPATH:;
#CDTITLE:;
#MUSIC:Pacific Girls.ogg;
#OFFSET:-0.463;
#SAMPLESTART:256.472;
#SAMPLELENGTH:19.691;
#SELECTABLE:YES;
#BPMS:0.000=195.000;
#STOPS:;
#BGCHANGES:;
// cache tags:
#FIRSTBEAT:0.000;
#LASTBEAT:1040.000;
#SONGFILENAME:Songs/Jimmy Jawns/Pacific Girls - [Aoreo]/Pacific Girls.sm;
#HASMUSIC:1;
#HASBANNER:1;
#MUSICLENGTH:322.063;
// end cache tags

//---------------dance-single - J. Nero (18-)----------------
#NOTES:
     dance-single:
     J. Nero (18-):
     Challenge:
     18:
     1.000,1.000,0.000,0.043,1.000,3819.000,0.000,14.000,0.000,0.000:
0100
0001
0100
0001
0010
0100
1000
0001
1000
0010
1000
0100
0010
0001
1000
0001
,
0100
0010
0100
0001
1000
0100
0010
0001
1000
0010
0100
0010
1000
0100
1000
0001
,
1000
0100
0010
0001
0100
0001
0100
0010
0100
0001
1000
0001
0010
0001
1000
0100
,
1000
0010
0100
0001
1000
0010
1000
0001
0100
0001
0010
0100
1000
0010
1000
0100
,
0010
0001
1000
0001
0100
0001
1000
0010
0100
0001
0010
0001
0100
0010
1000
0010
,
1000
0001
0100
0001
1000
0100
0010
0001
1000
0010
0100
0001
1000
0100
0010
0001
,
1000
0001
0100
0010
0100
0001
1000
0100
0010
0001
1000
0001
0100
0010
0100
0001
,
0010
0100
0010
0001
1000
0100
1000
0001
1000
0010
0100
0001
0010
0001
0100
0010
,
0100
0001
1000
0010
1000
0001
0100
0010
1000
0100
1000
0010
1000
0001
0100
0001
,
1000
0010
1000
0001
0010
0100
1000
0001
0100
0010
1000
0001
0010
0100
1000
0001
,
0100
0001
0100
0010
1000
0001
0100
0001
0010
0001
0100
0010
0100
0001
1000
0100
,
1000
0010
1000
0001
0100
0001
1000
0100
0010
0001
0100
0001
0010
0001
1000
0010
,
0100
0010
1000
0001
0100
0010
1000
0001
0100
0001
1000
0010
1000
0100
0010
0001
,
1000
0100
1000
0001
0100
0001
0100
0010
1000
0001
0100
0001
0010
0100
1000
0001
,
0100
0001
0100
0010
1000
0001
0100
0010
0100
0001
1000
0100
0010
0001
1000
0010
,
2000
3000
0000
0000
0020
0030
0000
0000
0200
0300
0001
0000
1000
0000
1000
0000
,
0001
0100
0001
1000
0010
0100
0010
1000
0100
1000
0100
0010
0001
1000
0001
0100
,
0010
0100
0001
1000
0100
1000
0001
0100
0001
1000
0010
1000
0100
1000
0001
0100
,
0001
0100
0010
1000
0001
0010
0001
0010
0100
1000
0010
1000
0001
0100
0010
1000
,
0001
0100
0001
1000
0100
1000
0001
0100
0010
1000
0001
0010
0001
0100
0001
0010
,
0100
1000
0001
0100
0001
1000
0010
0100
0010
1000
0001
1000
0100
0010
0001
1000
,
0010
0100
0010
1000
0001
0010
0001
1000
0010
0100
0010
1000
0100
0010
0100
0010
,
0001
0100
0001
1000
0010
0100
0001
0100
0001
0010
0001
0100
0010
1000
0010
0100
,
0001
1000
0100
0010
0100
1000
0001
0100
0010
0100
0001
1000
0100
0010
0100
1000
,
0010
1000
0010
0100
0001
1000
0001
0100
0010
1000
0100
1000
0010
1000
0001
0100
,
0010
0100
0001
1000
0001
0010
0100
0010
0100
1000
0010
1000
0001
0100
0001
0010
,
0001
0010
0100
1000
0001
0100
0001
0100
0010
1000
0001
0100
0001
1000
0100
1000
,
0010
0100
0010
0100
0001
1000
0001
0010
0100
0010
0001
1000
0100
1000
0010
1000
,
0100
0010
0001
1000
0001
0100
0010
0100
0001
0010
0001
0100
0010
0100
0010
1000
,
0100
1000
0100
0010
0001
0100
0001
0100
0010
1000
0001
0100
0001
1000
0100
0010
,
0001
0100
0001
1000
0100
0010
0100
1000
0001
0100
0010
1000
0001
0010
0001
1000
,
0100
0010
0100
1000
0001
0100
0001
0100
0010
1000
0001
0010
0100
1000
0100
1000
,
0001
0100
0001
1000
0001
0100
0010
0100
0001
1000
0100
0010
0100
1000
0001
1000
,
0010
0100
0010
1000
0001
0100
0001
1000
0100
0010
0100
1000
0001
0010
0100
1000
,
0001
0100
0001
1000
0001
0100
0010
1000
0001
0010
0100
1000
0001
0010
0100
0010
,
0001
1000
0001
0100
0010
0100
0001
1000
0001
0010
0100
0010
0001
1000
0100
0010
,
0001
1000
0001
0100
0010
0100
0001
1000
0001
0010
0100
1000
0001
0010
0001
1000
,
0100
1000
0001
1000
0010
0100
0001
1000
0001
0010
0001
1000
0100
0010
0001
1000
,
0001
0100
0010
0100
0001
1000
0001
0100
0010
1000
0001
0010
0100
0010
0001
1000
,
0100
1000
0001
0100
0010
0100
0001
1000
0001
0010
0100
0010
0001
1000
0100
0010
,
0001
0100
0001
1000
0010
0100
0010
1000
0001
0010
0001
1000
0001
0010
0100
1000
,
0001
0100
0010
0100
0001
0100
0010
1000
0001
0010
0100
0010
0001
1000
0100
0010
,
0001
1000
0010
0100
0010
1000
0010
0100
0001
1000
0001
0010
0100
1000
0001
0010
,
0001
1000
0010
1000
0001
0100
0001
1000
0100
0010
0100
1000
0001
0010
0100
1000
,
0001
1000
0001
0100
0001
1000
0010
1000
0001
0010
0100
0010
0001
1000
0100
1000
,
0001
0100
0010
0100
0001
0100
0010
1000
0001
1000
0100
0010
0001
1000
0100
0010
,
0100
1000
0001
0100
0010
0100
0001
1000
0100
0010
0100
1000
0100
0010
0001
1000
,
0010
0100
0010
1000
0010
0100
0001
1000
0001
0010
0100
0010
0001
1000
0100
0010
,
0001
0100
0001
1000
0010
0100
0010
1000
0100
0010
0001
1000
0100
0010
0100
1000
,
0010
0100
0010
1000
0001
0100
0001
1000
0010
1000
0100
0010
0001
1000
0100
1000
,
0010
0100
0010
1000
0001
1000
0010
0100
0001
0010
0100
1000
0001
1000
0100
1000
,
0010
0100
0001
0100
0010
1000
0001
0100
0001
0010
0100
0010
0001
1000
0100
0010
,
0001
0100
0010
1000
0010
0100
0001
1000
0010
1000
0100
0010
0001
1000
0100
1000
,
0010
0100
0001
0100
0010
1000
0001
0100
0010
1000
0100
0010
0001
1000
0100
1000
,
0010
0100
0010
1000
0001
0100
0001
1000
0010
1000
0100
0010
0100
1000
0001
0010
,
0001
0100
0010
0100
0001
1000
0001
0100
0010
1000
0100
0010
0100
1000
0001
0010
,
0001
0100
0010
0100
0001
1000
0010
0100
0010
1000
0100
0010
0001
1000
0100
1000
,
0010
0100
0010
1000
0001
0100
0001
1000
0010
1000
0100
0010
0100
1000
0001
0010
,
0001
0100
0010
1000
0001
0100
0010
1000
0100
0010
0100
1000
0001
0010
0001
0100
,
0010
1000
0010
0100
0001
0100
0010
1000
0100
0010
0100
1000
0001
1000
0100
1000
,
0010
0100
0010
1000
0001
0100
0001
1000
0010
1000
0100
0010
0100
1000
0001
0010
,
0001
0100
0010
0100
0001
1000
0001
0100
0010
1000
0100
0010
0100
1000
0001
0010
,
0001
0100
0001
1000
0010
0100
0010
1000
0100
0010
0100
1000
0001
0010
0100
1000
,
0010
0100
0010
1000
0001
0100
0010
1000
0100
0010
0100
1000
0001
0010
0001
0100
,
0001
0010
0001
0100
0010
1000
0100
0010
0001
0100
0001
1000
0100
0010
0100
1000
,
0010
0100
0010
1000
0100
0010
0001
0100
0001
0010
0100
1000
0010
0100
0010
1000
,
0100
0010
0001
0100
0010
1000
0001
0100
0010
1000
0100
0010
0001
0100
0010
1000
,
0001
0100
0001
0010
0100
1000
0010
1000
0001
0010
0100
1000
0010
0100
0010
0100
,
0001
0010
0100
1000
0001
0100
0001
0010
0001
1000
0100
1000
0010
0100
0001
1000
,
0100
1000
0010
0100
0001
1000
0100
0010
0001
0100
0001
1000
0010
1000
0100
0010
,
0100
1000
0010
0100
0001
1000
0100
0010
0001
0100
0001
1000
0010
1000
0100
0010
,
0001
0100
0001
1000
0010
1000
0100
0010
0001
1000
0100
1000
0010
0100
0001
0010
,
0001
1000
0010
0100
0001
1000
0100
0010
0100
1000
0010
0100
0010
1000
0001
0010
,
0001
0100
0001
1000
0010
1000
0100
0010
0001
0100
0001
1000
0100
0010
0100
1000
,
0010
0100
0001
1000
0100
0010
0100
1000
0001
0010
0001
0100
0010
1000
0100
0010
,
0001
0100
0001
1000
0100
0010
0100
1000
0001
0100
0001
1000
0010
0100
0010
1000
,
0100
0010
0001
0100
0001
1000
0100
1000
0001
0100
0001
0010
0100
1000
0001
0100
,
0010
1000
0100
0010
0001
1000
0010
1000
0001
0100
0010
1000
0100
0010
0100
1000
,
0001
0100
0001
0010
0001
0100
0010
1000
0100
1000
0010
0100
0001
1000
0010
1000
,
0001
0010
0100
1000
0010
0100
0001
0010
0100
1000
0010
0100
0001
0010
0100
1000
,
0010
0100
0001
1000
0100
1000
0010
0100
0001
0010
0001
1000
0100
0010
0100
1000
,
0010
0100
0001
0010
0001
0100
0010
1000
0100
0010
0001
0100
0001
1000
0100
0010
,
0100
1000
0010
0100
0010
1000
0100
0010
0001
0100
0010
1000
0001
0100
0001
0010
,
0001
1000
0100
0010
0100
1000
0010
1000
0100
0010
0001
0100
0010
1000
0100
1000
,
0010
1000
0001
0100
0010
0100
0001
0010
0100
1000
0010
0100
0001
0010
0100
1000
,
0010
1000
0100
1000
0010
0100
0001
0010
0001
1000
0010
0100
0010
1000
0001
0010
,
0100
1000
0010
0100
0010
1000
0100
0010
0100
1000
0010
0100
0001
0010
0001
0100
,
0010
1000
0100
1000
0001
0100
0010
0100
0001
0010
0100
1000
0010
0100
0001
0010
,
0001
1000
0100
0010
0100
1000
0001
0100
0001
0010
0001
1000
0100
1000
0010
1000
,
0001
0010
0100
1000
0010
0100
0010
1000
0100
1000
0001
0100
0010
1000
0100
1000
,
0010
0100
0010
1000
0100
0010
0001
0100
0001
0010
0001
1000
0010
0100
0010
1000
,
0100
0010
0001
0100
0001
1000
0100
1000
0010
0100
0001
0010
0100
0010
0001
1000
,
0010
0100
0010
1000
0100
0010
0001
0100
0010
0100
0001
1000
0100
0010
0100
1000
,
0010
0100
0001
0010
0001
0100
0010
1000
0100
0010
0001
1000
0010
1000
0100
0010
,
0001
1000
0010
0100
0001
0010
0100
0010
0001
1000
0100
0010
0100
1000
0010
0100
,
0001
0010
0100
1000
0010
0100
0001
0010
0100
1000
0010
0100
0001
0010
0100
1000
,
0010
1000
0001
0100
0001
1000
0100
0010
0100
1000
0001
1000
0010
0100
0001
0010
,
0100
1000
0001
1000
0010
0100
0001
1000
0100
0010
0001
1000
0100
1000
0010
1000
,
0100
1000
0010
1000
0001
0010
0001
0100
0001
0010
0001
1000
0100
1000
0010
1000
,
0100
1000
0001
0010
0100
0010
0001
0100
0010
1000
0010
0100
0001
1000
0001
0010
,
0100
1000
0010
0100
0001
0100
0010
1000
0100
0010
0100
1000
0010
0100
0001
0010
,
0100
0010
0001
1000
0001
0100
0010
0100
0001
0010
0100
1000
0001
1000
0010
0100
,
0010
1000
0100
0010
0100
1000
0010
0100
0001
1000
0100
1000
0001
0010
0100
0010
,
0001
1000
0010
0100
0010
1000
0100
0010
0100
1000
0010
0100
0001
0010
0100
1000
,
0010
1000
0001
0100
0010
0100
0001
1000
0100
0010
0100
1000
0001
0010
0100
1000
,
0001
0100
0010
0100
0001
1000
0100
1000
0010
0100
0010
1000
0001
0010
0100
1000
,
0010
0100
0010
1000
0001
1000
0100
0010
0100
1000
0001
0010
0001
1000
0010
0100
,
0010
1000
0001
0100
0001
1000
0100
0010
0001
0100
0001
1000
0100
1000
0010
1000
,
0100
0010
0001
1000
0001
0100
0010
0100
0001
1000
0100
0010
0001
0100
0001
0010
,
0001
1000
0100
0010
0001
1000
0010
0100
0010
1000
0001
0010
0100
1000
0001
0100
,
0001
1000
0100
0010
0001
1000
0001
0100
0010
1000
0001
0010
0100
1000
0001
0100
,
0001
0010
0100
1000
0010
0100
0001
0010
0100
1000
0010
0100
0001
0010
0100
1000
,
0010
1000
0001
0100
0001
1000
0100
0010
0100
1000
0001
1000
0010
0100
0001
0010
,
0100
1000
0001
1000
0010
0100
0001
1000
0100
0010
0001
1000
0100
1000
0010
1000
,
0100
1000
0010
1000
0001
0010
0001
0100
0001
0010
0001
1000
0100
1000
0010
1000
,
0100
1000
0001
0010
0100
0010
0001
0100
0010
1000
0010
0100
0001
1000
0001
0010
,
0100
1000
0010
0100
0001
0100
0010
1000
0100
0010
0100
1000
0010
0100
0001
0010
,
0100
0010
0001
1000
0001
0100
0010
0100
0001
0010
0100
1000
0001
1000
0010
0100
,
0010
1000
0100
0010
0100
1000
0010
0100
0001
1000
0100
1000
0001
0010
0100
0010
,
0001
1000
0010
0100
0010
1000
0100
0010
0100
1000
0010
0100
0001
0010
0100
1000
,
0010
1000
0001
0100
0010
0100
0001
1000
0100
0010
0100
1000
0001
0010
0100
1000
,
0001
0100
0010
0100
0001
1000
0100
1000
0010
0100
0010
1000
0001
0010
0100
1000
,
0010
0100
0010
1000
0001
1000
0100
0010
0100
1000
0001
0010
0001
1000
0010
0100
,
0010
1000
0001
0100
0001
1000
0100
0010
0001
0100
0001
1000
0100
1000
0010
1000
,
0100
0010
0001
1000
0001
0100
0010
0100
0001
1000
0100
0010
0001
0100
0001
0010
,
0001
1000
0100
0010
0001
1000
0010
0100
0010
1000
0001
0010
0100
1000
0001
0100
,
0001
1000
0100
0010
0001
1000
0001
0100
0010
1000
0001
0010
0100
1000
0010
0100
,
0001
0010
0100
1000
0010
0100
0001
0010
0100
1000
0010
0100
0001
0010
0100
1000
,
0001
0100
0010
0100
0001
1000
0100
0010
0100
1000
0001
0100
0001
1000
0100
0010
,
0100
1000
0001
0100
0010
0100
0001
1000
0100
0010
0100
1000
0001
0100
0010
0100
,
0001
1000
0100
0010
0001
1000
0001
0100
0010
1000
0001
0010
0100
0010
0001
1000
,
0010
0100
0010
1000
0001
0010
0100
1000
0001
0100
0001
1000
0010
0100
0010
1000
,
0001
0010
0100
0010
0001
1000
0010
0100
0010
1000
0001
1000
0100
0010
0001
1000
,
0010
0100
0010
1000
0001
0010
0100
0010
0001
1000
0010
0100
0010
1000
0001
0100
,
0001
1000
0100
0010
0100
1000
0001
0100
0010
0100
0001
1000
0100
0010
0001
1000
,
0010
0100
0010
1000
0001
0010
0100
0010
0001
0100
0010
1000
0100
0010
0001
0100
,
0010
1000
0010
0100
0001
0010
0100
0010
0001
1000
0001
0100
0010
0100
0001
1000
,
0100
0010
0100
1000
0001
0100
0010
0100
0001
1000
0100
0010
0001
1000
0010
0100
,
0010
1000
0001
0010
0100
0010
0001
1000
0010
0100
0010
1000
0001
0010
0100
1000
,
0001
0100
0001
1000
0010
1000
0001
0010
0100
1000
0001
0100
0001
1000
0100
0010
,
0100
1000
0001
0100
0001
1000
0100
0010
0001
1000
0010
0100
0010
1000
0001
0010
,
0100
0010
0001
1000
0010
0100
0001
1000
0001
0010
0100
0010
0001
1000
0010
0100
,
0010
1000
0001
0010
0100
1000
0001
0100
0001
1000
0100
0010
0001
1000
0010
0100
,
0010
1000
0001
0010
0100
0010
0001
1000
0010
0100
0001
0100
0010
1000
0100
0010
,
0001
0100
0010
0100
0001
1000
0100
0010
0100
1000
0001
0100
0001
1000
0100
0010
,
0100
1000
0001
0100
0010
0100
0001
1000
0100
0010
0100
1000
0001
0100
0010
0100
,
0001
1000
0100
0010
0001
1000
0001
0100
0010
1000
0001
0010
0100
0010
0001
1000
,
0010
0100
0010
1000
0001
0010
0100
1000
0001
0100
0001
1000
0010
0100
0010
1000
,
0001
0010
0100
0010
0001
1000
0010
0100
0010
1000
0001
1000
0100
0010
0001
1000
,
0010
0100
0010
1000
0001
0010
0100
0010
0001
1000
0010
0100
0010
1000
0001
0100
,
0001
1000
0100
0010
0100
1000
0001
0100
0010
0100
0001
1000
0100
0010
0001
1000
,
0010
0100
0010
1000
0001
0010
0100
0010
0001
0100
0010
1000
0100
0010
0001
0100
,
0010
1000
0010
0100
0001
0010
0100
0010
0001
1000
0001
0100
0010
0100
0001
1000
,
0100
0010
0100
1000
0001
0100
0010
0100
0001
1000
0100
0010
0001
1000
0010
0100
,
0010
1000
0001
0010
0100
0010
0001
1000
0010
0100
0010
1000
0001
0010
0100
1000
,
0001
0100
0001
1000
0010
1000
0001
0010
0100
1000
0001
0100
0001
1000
0100
0010
,
0100
1000
0001
0100
0001
1000
0100
0010
0001
1000
0010
0100
0010
1000
0001
0010
,
0100
0010
0001
1000
0010
0100
0001
1000
0001
0010
0100
0010
0001
1000
0010
0100
,
0010
1000
0001
0010
0100
1000
0001
0100
0001
1000
0100
0010
0001
1000
0010
0100
,
0001
0000
0000
0000
0000
0000
0000
0000
0000
0000
0100
0000
0000
0000
0000
0000
0000
0000
0000
0001
0000
0000
0000
0000
0000
0000
0000
0000
0000
0010
0000
0000
0000
0000
0000
0000
0000
0000
0100
0000
0000
0000
0000
0000
0000
0000
0000
0000
1000
0000
0000
0000
0000
0000
0000
0000
0000
0000
0010
0000
0000
0000
0000
0000
0000
0000
0000
1000
0000
0000
0000
0000
0000
0000
0000
0000
0000
0100
0000
0000
0000
0000
0000
0000
0000
0000
0010
0000
0000
0000
0000
0000
0000
0000
0000
0000
0001
0000
0000
0000
0000
0000
0000
0000
0000
0000
0100
0000
0000
0000
0000
0000
0000
0000
0000
0001
0000
0000
0000
0000
0000
0000
0000
0000
0000
1000
0000
0000
0000
0000
0000
0000
0000
0000
0010
0000
0000
0000
0000
0000
0000
0000
0000
0000
0100
0000
0000
0000
0000
0000
0000
0000
0000
0000
0010
0000
0000
0000
0000
0000
0000
0000
0000
1000
0000
0000
0000
0000
0000
0000
0000
0000
0000
0100
0000
0000
0000
0000
0000
0000
0000
0000
0010
0000
0000
0000
0000
0000
0000
0000
0000
0000
,
0002
0000
0003
0000
,
0000
0000
0000
0000
,
0000
0000
0000
0000
,
0000
0000
0000
0000
,
1000
0000
0000
0100
0000
0000
1000
0000
0010
0000
0000
0100
0000
0000
0001
0000
,
0010
0000
0000
0100
0000
0000
1000
0000
0010
0000
0000
0100
0000
0000
0001
0000
,
0010
0000
0000
0100
0000
0000
1000
0000
0010
0000
0000
1000
0000
0000
0100
0000
,
0010
0000
0000
0001
0000
0000
0100
0000
0010
0000
0000
1000
0000
0000
0100
0000
,
0010
0000
0000
0100
0000
0000
1000
0000
0010
0000
0000
0100
0000
0000
0001
0000
,
0010
0000
0000
0001
0000
0000
0100
0000
0010
0000
0000
1000
0000
0000
0100
0000
,
0010
0000
0000
0100
0000
0000
1000
0000
0010
0000
0000
0100
0000
0000
0001
0000
,
0010
0000
0000
0001
0000
0000
0100
0000
0010
0000
0000
1000
0000
0000
0100
0000
,
0010
0001
0100
0001
0010
0100
1000
0010
,
0100
0001
0010
0100
1000
0010
0100
0001
,
1000
0100
1000
0001
0010
0100
1000
0010
0100
0001
1000
0100
0010
0001
0100
0001
,
1000
0100
0010
0100
1000
0010
0100
0001
0100
0010
1000
0100
0010
0001
0100
0001
,
1000
0010
0100
0010
1000
0001
0100
0001
0010
0001
1000
0100
0010
0100
1000
0001
,
0100
0010
0100
0001
1000
0100
0010
0001
1000
0100
1000
0010
1000
0001
0100
0001
,
1000
0100
0010
0001
1000
0001
0100
0010
0100
0001
0010
0001
0010
0100
1000
0001
,
0100
0010
0100
0001
1000
0100
1000
0001
0100
0001
1000
0100
1000
0010
1000
0001
,
0010
0100
0010
0001
1000
0010
0100
0010
1000
0001
0100
0001
0010
0100
1000
0001
,
0100
0010
0100
0001
0010
0001
0010
0100
1000
0001
0100
0010
0100
0001
1000
0100
,
0010
0100
1000
0010
1000
0001
0100
0001
1000
0100
0010
0001
1000
0001
0100
0010
,
1000
0100
1000
0001
0100
0010
1000
0010
1000
0001
0100
0001
0010
0001
1000
0100
,
0010
0001
0100
0010
0100
0100
0001
1000
,
0100
1000
0010
0100
0001
0010
0010
0100
,
1000
0001
0100
0010
1000
1000
0100
0010
,
0001
0100
0001
1000
0010
0100
0100
0001
,
0010
0000
0100
1000
0000
0001
0010
0000
0100
0000
0010
0001
0000
1000
0010
0000
,
0100
0000
0001
1000
0000
0001
0010
0000
0100
0000
1000
0001
0000
1000
0010
0000
,
1000
0000
0001
0010
0000
0100
1000
0000
0100
0000
1000
0001
0000
0100
0010
0000
,
1000
0000
0001
1000
0000
0001
0010
0000
0100
0000
0010
0001
0000
0100
0010
0000
,
1000
0001
0100
0001
1000
0100
0010
0001
1000
0010
1000
0001
0100
0010
0100
0000
,
0001
0100
0001
1000
0100
0010
0001
0100
0001
1000
0100
0010
0001
0100
0001
0000
,
1000
0010
1000
0001
0010
0100
1000
0001
0100
0001
1000
0100
0010
0001
0100
0000
,
0001
0100
0001
1000
0100
0010
0001
1000
0010
0100
0010
1000
0001
0100
0001
0000
,
1000
0100
1000
0010
0100
0001
1000
0001
0010
0100
1000
0001
0100
0001
1000
0000
,
0001
0100
0001
1000
0100
0010
0001
1000
0010
0100
0010
1000
0100
0010
0001
0000
,
1000
0100
0010
0100
1000
0001
0100
0001
1000
0100
0010
0001
1000
0010
0100
0000
,
0001
0100
0001
1000
0010
0100
0001
0010
0100
1000
0001
0100
0010
0100
0001
0000
,
2000
3100
0020
0031
2000
3010
0200
0301
,
2000
3100
0020
0031
0200
0301
2000
3010
,
1000
0100
0010
0100
1000
0010
0100
0001
1000
0001
0010
0100
1000
0010
0100
0010
,
1000
0000
0000
0000
0000
0000
0000
0000
0000
0000
0001
0000
0000
0000
0000
0000
0000
0000
0000
0100
0000
0000
0000
0000
0000
0000
0000
0000
0000
0001
0000
0000
0000
0000
0000
0000
0000
0000
0010
0000
0000
0000
0000
0000
0000
0000
0000
0000
0100
0000
0000
0000
0000
0000
0000
0000
0000
0000
1000
0000
0000
0000
0000
0000
0000
0000
0000
0010
0000
0000
0000
0000
0000
0000
0000
0000
0000
1000
0000
0000
0000
0000
0000
0000
0000
0000
0001
0000
0000
0000
0000
0000
0000
0000
0000
0000
0100
0000
0000
0000
0000
0000
0000
0000
0000
0000
0001
0000
0000
0000
0000
0000
0000
0000
0000
0010
0000
0000
0000
0000
0000
0000
0000
0000
0000
0100
0000
0000
0000
0000
0000
0000
0000
0000
1000
0000
0000
0000
0000
0000
0000
0000
0000
0000
0001
0000
0000
0000
0000
0000
0000
0000
0000
0000
0100
0000
0000
0000
0000
0000
0000
0000
0000
0010
0000
0000
0000
0000
0000
0000
0000
0000
0000
0100
0000
0000
0000
0000
0000
0000
0000
0000
0001
0000
0000
0000
0000
0000
0000
0000
0000
0000
,
2000
0000
3000
0000
,
0001
0000
0000
0100
0000
0000
0001
0000
0010
0000
0000
0100
0000
0000
1000
0000
,
0001
0000
0010
0100
0000
1000
0100
0000
0010
0000
0001
1000
0000
0010
0100
0000
,
0001
0000
1000
0000
0100
0000
1000
0000
0010
0000
1000
0001
0000
0010
0100
1000
,
0010
1000
0001
0010
0001
1000
0010
0100
0010
1000
0001
1000
0100
0010
0001
0100
,
0010
1000
0001
1000
0100
0010
0001
1000
0010
0100
0001
1000
0010
1000
0100
1000
,
0010
1000
0100
1000
0001
0100
0001
0010
0001
0100
0001
1000
0010
1000
0100
1000
,
0010
1000
0001
0100
0010
0100
0001
0010
0100
1000
0100
0010
0001
1000
0001
0100
,
0010
1000
0100
0010
0001
0010
0100
1000
0010
0100
0010
1000
0100
0010
0001
0100
,
0010
0100
0001
1000
0001
0010
0100
0010
0001
0100
0010
1000
0001
1000
0100
0010
,
0100
1000
0010
0100
0010
1000
0100
0010
0001
1000
0010
1000
0001
0100
0010
0100
,
0001
1000
0100
0010
0100
1000
0010
0100
0010
1000
0100
0010
0001
0100
0010
1000
,
0100
1000
0001
0010
0100
0010
0001
1000
0010
0100
0010
1000
0001
0100
0010
1000
,
0001
0010
0100
0010
0001
1000
0010
1000
0100
0010
0100
1000
0001
0100
0010
1000
,
0100
0010
0100
1000
0001
1000
0010
0100
0010
1000
0001
0100
0001
1000
0100
0010
,
0100
1000
0001
0010
0001
1000
0010
0100
0001
0010
0001
1000
0010
1000
0100
1000
,
0010
0100
0001
1000
0001
0010
0100
0010
0001
1000
0010
0100
0001
0010
0001
0100
,
0001
1000
0010
0100
0001
1000
0100
0010
0100
1000
0001
0100
0010
1000
0001
0010
,
0001
1000
0010
0100
0001
1000
0001
0010
0100
1000
0001
0100
0010
1000
0001
0010
,
0001
0100
0010
1000
0100
0010
0001
0100
0010
1000
0100
0010
0001
0100
0010
1000
,
0100
1000
0001
0010
0001
1000
0010
0100
0010
1000
0001
1000
0100
0010
0001
0100
,
0010
1000
0001
1000
0100
0010
0001
1000
0010
0100
0001
1000
0010
1000
0100
1000
,
0010
1000
0100
1000
0001
0100
0001
0010
0001
0100
0001
1000
0010
1000
0100
1000
,
0010
1000
0001
0100
0010
0100
0001
0010
0100
1000
0100
0010
0001
1000
0001
0100
,
0010
1000
0100
0010
0001
0010
0100
1000
0010
0100
0010
1000
0100
0010
0001
0100
,
0010
0100
0001
1000
0001
0010
0100
0010
0001
0100
0010
1000
0001
1000
0100
0010
,
0100
1000
0010
0100
0010
1000
0100
0010
0001
1000
0010
1000
0001
0100
0010
0100
,
0001
1000
0100
0010
0100
1000
0010
0100
0010
1000
0100
0010
0001
0100
0010
1000
,
0100
1000
0001
0010
0100
0010
0001
1000
0010
0100
0010
1000
0001
0100
0010
1000
,
0001
0010
0100
0010
0001
1000
0010
1000
0100
0010
0100
1000
0001
0100
0010
1000
,
0100
0010
0100
1000
0001
1000
0010
0100
0010
1000
0001
0100
0001
1000
0100
0010
,
0100
1000
0001
0010
0001
1000
0010
0100
0001
0010
0001
1000
0010
1000
0100
1000
,
0010
0100
0001
1000
0001
0010
0100
0010
0001
1000
0010
0100
0001
0010
0001
0100
,
0001
1000
0010
0100
0001
1000
0100
0010
0100
1000
0001
0100
0010
1000
0001
0010
,
0001
1000
0010
0100
0001
1000
0001
0010
0100
1000
0001
0100
0010
1000
0001
0010
,
0001
0100
0010
1000
0100
0010
0001
0100
0010
1000
0100
0010
0001
0100
0010
1000
,
0001
0010
0100
0010
0001
1000
0010
0100
0010
1000
0001
0010
0001
1000
0010
0100
,
0010
1000
0001
0010
0100
0010
0001
1000
0010
0100
0010
1000
0001
0010
0100
0010
,
0001
1000
0010
0100
0001
1000
0001
0010
0100
1000
0001
0100
0010
0100
0001
1000
,
0100
0010
0100
1000
0001
0100
0010
1000
0001
0010
0001
1000
0100
0010
0100
1000
,
0001
0100
0010
0100
0001
1000
0100
0010
0100
1000
0001
1000
0010
0100
0001
1000
,
0100
0010
0100
1000
0001
0100
0010
0100
0001
1000
0100
0010
0100
1000
0001
0010
,
0001
1000
0010
0100
0010
1000
0001
0010
0100
0010
0001
1000
0010
0100
0001
1000
,
0100
0010
0100
1000
0001
0100
0010
0100
0001
0010
0100
1000
0010
0100
0001
0010
,
0100
1000
0100
0010
0001
0100
0010
0100
0001
1000
0001
0010
0100
0010
0001
1000
,
0010
0100
0010
1000
0001
0010
0100
0010
0001
1000
0010
0100
0001
1000
0100
0010
,
0100
1000
0001
0100
0010
0100
0001
1000
0100
0010
0100
1000
0001
0100
0010
1000
,
0001
0010
0001
1000
0100
1000
0001
0100
0010
1000
0001
0010
0001
1000
0010
0100
,
0010
1000
0001
0010
0001
1000
0010
0100
0001
1000
0100
0010
0100
1000
0001
0100
,
0010
0100
0001
1000
0100
0010
0001
1000
0001
0100
0010
0100
0001
1000
0100
0010
,
0100
1000
0001
0100
0010
1000
0001
0010
0001
1000
0010
0100
0001
1000
0100
0010
,
0100
1000
0001
0100
0010
0100
0001
1000
0100
0010
0001
0010
0100
1000
0010
0100
,
0002
0000
0000
0000
,
0000
0000
0000
0000
,
0000
0000
0000
0000
,
0000
0000
0000
0000
,
0003
0000
0000
0000
;
