#TITLE:Disposable Teens;
#SUBTITLE:;
#ARTIST:Marilyn Manson;
#TITLETRANSLIT:;
#SUBTITLETRANSLIT:;
#ARTISTTRANSLIT:;
#CREDIT:Arch0wl;
#BANNER:disposableteens-bn.png;
#BACKGROUND:disposableteens-bg.png;
#LYRICSPATH:;
#CDTITLE:!Arch0wlTitle.png;
#MUSIC:disposableteens.ogg;
#OFFSET:-0.168;
#SAMPLESTART:59.125;
#SAMPLELENGTH:14.337;
#SELECTABLE:YES;
#BPMS:0.000=134.000;
#STOPS:;
#BGCHANGES:0.000=disposableteens.avi=1.000=1=1=0,
228.000=disposableteens-bg.png=1.000=0=0=1,
99999=-nosongbg-=1.000=0=0=0 // don't automatically add -songbackground-
;
// cache tags:
#FIRSTBEAT:0.000;
#LASTBEAT:228.000;
#SONGFILENAME:Songs/Archmage and Dark0wl Hammer of Thor UltraHyperMegaPack/Disposable Teens/disposableteens.sm;
#HASMUSIC:1;
#HASBANNER:1;
#MUSICLENGTH:105.000;
// end cache tags

//---------------dance-single - Arch0wl----------------
#NOTES:
     dance-single:
     Arch0wl:
     Hard:
     9:
     0.661,0.787,1.000,0.229,0.810,311.000,144.000,24.000,0.000,7.000:
2000
0000
0000
0000
,
3001
0000
0001
0010
0000
0011
0000
0000
0100
1000
0000
0001
,
1000
0000
0100
1000
0000
0011
0000
0000
0000
0000
0000
0000
,
1000
0000
1000
0010
0000
0101
0000
0000
0010
0001
0000
1000
,
0001
0000
0010
0001
0000
1100
0000
0000
0000
0000
0000
0000
,
0010
0000
0010
0100
0000
1001
0000
0000
0100
0001
0000
0010
,
0001
0000
1000
0001
0000
1010
0000
0000
0000
0000
0000
0000
,
0100
0000
0001
0010
0000
1100
0000
0000
0010
0100
0000
1000
,
0100
0000
0010
0100
0000
1001
0000
0000
0100
0010
0000
1000
,
0101
0000
1000
0001
0000
0010
0100
0010
0100
0011
0000
0001
,
1100
0000
0001
1000
0000
0010
0100
0010
0100
0010
0100
0010
,
1001
0000
0010
1000
0000
0100
0010
0100
0010
1100
0000
0001
,
1000
0000
0010
1000
0000
0001
0010
0001
0010
0001
0010
0001
,
1100
0000
0010
1001
0000
0010
1001
0000
1100
0000
0000
0101
,
0000
0000
0001
1100
0000
0001
1100
0000
0110
0000
0000
1001
,
0000
0000
0001
1010
0000
0001
1010
0000
1000
0011
0000
1000
,
0011
0000
1000
0110
0000
1001
0000
0000
0100
0001
0000
0010
,
1001
0000
0000
0100
0000
0010
0000
0000
0101
0000
0000
0010
,
1001
0000
0000
0100
0000
0010
0000
0000
1100
0000
0000
0010
,
1001
0000
0010
1001
0000
0010
1001
0000
0000
2202
0000
0000
,
0000
0000
0000
3303
,
1000
0110
1000
0110
,
1000
0110
0110
0110
,
0001
1010
0001
1010
,
0001
0000
0000
1010
0000
0000
1010
0000
0000
1000
0010
1000
,
1010
0000
0100
1001
0000
0100
1001
0000
0101
0000
0000
1100
,
0000
0000
0010
0101
0000
0010
0101
0000
0110
0000
0000
1001
,
0000
0000
0001
1100
0000
0001
1100
0000
1000
0100
0010
1001
,
0000
0000
0000
1000
0000
0001
1100
0000
1100
0000
0000
0110
,
0000
0000
0010
1100
0000
0010
1100
0000
0110
0000
0000
1001
,
0000
0000
0101
0000
0000
0000
1010
0000
0011
0000
0000
1010
,
0000
0000
0000
1001
0000
0110
1001
0000
0000
1001
0000
0110
,
1001
0000
0110
1001
0000
1001
0000
0000
1001
0000
0000
0010
,
0101
0000
0010
0101
0000
0010
0101
0000
1010
0000
0000
0101
,
0000
0000
1001
0000
0000
0000
0000
0000
0000
0000
0000
0100
,
0011
0000
0100
1000
0000
0011
0000
0000
1100
0000
0000
1001
,
0000
0000
0000
0000
0000
0000
0000
0000
0000
0000
0000
0010
,
1001
0000
0010
1001
0000
0010
1001
0000
1100
0000
0000
0101
,
0000
0000
1100
0000
0000
0101
0000
0000
0000
0010
0000
0010
,
1001
0000
0010
0100
0000
1001
0000
0000
0110
0000
0000
1001
,
0000
0000
0000
0000
0000
0000
0000
0000
0000
0000
0000
0100
,
1010
0000
0100
1010
0000
0100
1010
0000
0101
0000
0000
1010
,
0000
0000
1001
0000
0000
0000
0000
0000
0000
0000
0000
0010
,
1100
0000
0010
0001
0000
1100
0000
0000
0011
0000
0000
1001
,
0000
0000
0000
0000
0000
0000
0000
0000
0000
0000
0000
0100
,
1001
0000
0100
1001
0000
0100
1001
0000
0011
0000
0000
1010
,
0000
0000
0011
0000
0000
1010
0000
0000
0000
0100
0000
0100
,
1001
0000
0100
0010
0000
1001
0000
0000
0110
0000
0000
1001
,
0010
0110
0110
0110
,
0000
0000
0000
1000
0000
0100
0010
0000
0100
0010
0000
2220
,
0000
3330
0000
0010
0000
0001
0010
0000
0001
0010
0000
0222
,
0000
0333
0000
0100
0000
0010
0100
0000
0010
0100
0000
2220
,
0000
3330
0000
1000
0000
0010
1000
0000
0010
2000
0000
0000
,
3000
0000
0000
1010
0000
1010
0110
0000
1010
0110
0000
2220
,
0000
3330
0000
0011
0000
0011
0110
0000
0011
0110
0000
2220
,
0000
3330
0000
1010
0000
1010
0110
0000
1010
0110
0000
0222
,
0000
0333
0000
1000
0000
0010
1000
0000
0010
2000
0000
0000
,
3000
0000
0000
0000
;
