#TITLE:Niggas In Paris;
#SUBTITLE:Sexuality Violation;
#ARTIST:Jay-Z & Kanye West;
#TITLETRANSLIT:;
#SUBTITLETRANSLIT:;
#ARTISTTRANSLIT:;
#CREDIT:;
#BANNER:Niggas In Paris-bn.png;
#BACKGROUND:Niggas In Paris-bg.png;
#LYRICSPATH:;
#CDTITLE:GazeboCD.png;
#MUSIC:Niggas In Paris.ogg;
#OFFSET:-0.041;
#SAMPLESTART:74.180;
#SAMPLELENGTH:13.600;
#SELECTABLE:YES;
#BPMS:0.000=140.000;
#STOPS:;
#BGCHANGES:;
// cache tags:
#FIRSTBEAT:5.000;
#LASTBEAT:384.000;
#SONGFILENAME:Songs/Sexuality Violation 2/Niggas In Paris - [Gazebo]/Niggas In Paris.sm;
#HASMUSIC:1;
#HASBANNER:1;
#MUSICLENGTH:168.574;
// end cache tags

//---------------dance-single - Gazebo----------------
#NOTES:
     dance-single:
     Gazebo:
     Challenge:
     15:
     1.000,1.000,0.089,0.148,1.000,1239.000,15.000,25.000,50.000,0.000:
0000
0000
0000
0000
,
0000
00M0
0000
00M0
,
0000
00M0
0000
00M0
,
0000
0000
0000
0000
0000
0000
0001
0100
0001
1000
0000
0000
1010
0000
0000
0000
0000
0000
1000
0100
1000
0001
0000
0000
,
0011
0000
0000
0000
0000
0000
0001
1000
0001
0100
0000
0000
0101
0000
0000
0000
0000
0000
1000
0010
1000
0001
1000
0100
,
0010
0000
0000
0000
0000
0000
0001
0010
0001
1000
0000
0000
1100
0000
0000
0000
0000
0000
1000
0010
1000
0001
0000
0000
,
0101
0000
0000
0000
0000
0000
0001
1000
0001
0010
0000
0000
0011
0000
0000
0000
0000
0000
1000
0100
1000
0001
1000
0010
,
0100
0000
0000
0000
0000
0000
0001
0100
0001
1000
0000
0000
1010
0000
0000
0000
0000
0000
1000
0100
1000
0001
0000
0000
,
0011
0000
0000
0000
0000
0000
0001
1000
0001
0100
0000
0000
0101
0000
0000
0000
0000
0000
1000
0010
1000
0001
1000
0100
,
0010
0000
0000
0000
0000
0000
0001
0010
0001
0100
0001
1000
0010
1000
0010
0100
0001
1000
0100
1000
0010
1000
0001
0100
,
0001
0100
0010
1000
0001
1000
0001
0100
0001
0010
0001
1000
0100
1000
0100
0010
0001
1000
0010
1000
0100
1000
0001
0010
,
0001
0000
0100
0000
0001
0000
1000
0000
0000
0000
0000
0000
1000
0000
0000
0000
0000
0000
0010
0000
0000
0000
0000
0000
1000
0000
0000
0000
0000
0000
0001
0000
0000
0100
0000
0000
0001
0000
0000
0100
0000
0000
0001
0000
0000
1000
0000
0000
,
0002
0000
0000
0013
0000
0000
0000
0000
0000
0001
1000
0000
0100
0010
0100
0010
,
0002
0000
0000
1003
0000
0000
0000
0000
0000
0000
0010
0000
1000
0010
1000
0000
,
0001
0010
0100
0010
0001
1000
0001
0000
0010
0000
0001
1000
0010
0000
0100
0001
,
0000
0001
0000
0000
1000
0000
0100
0000
1000
0000
0001
0000
0100
0000
0020
0000
,
0000
0130
0000
0000
0010
1000
0000
1000
0000
0001
1000
0000
0100
0000
0020
0000
,
0000
0000
0000
0031
0000
0000
0000
0000
0000
0000
0000
0000
1000
0000
0100
0000
0010
0000
0100
0000
1000
0000
0001
0000
0100
0000
0001
0000
0100
0000
0010
0000
1000
0000
0001
0000
1000
0000
0001
0000
0010
0000
0100
0000
1000
0000
0010
0000
,
1000
0001
0100
0001
1000
0001
1000
0010
1000
0001
0010
0100
1000
0100
0010
0001
1000
0001
0100
0001
1000
0010
1000
0010
,
0100
0001
1000
0100
0010
0001
1000
0100
1000
0001
0010
0001
1000
0010
1000
0001
1000
0001
0100
0010
1000
0002
0000
0000
,
0000
0000
0000
0003
0000
0000
1000
0100
1000
0100
0010
0001
1000
0001
1000
0010
0100
0010
1000
0001
0010
0200
0000
0000
,
0000
0000
0000
0300
0000
0000
1000
0100
1000
0001
0010
0001
1000
0010
1000
0001
1000
0001
0100
0010
1000
0002
0000
0000
,
0000
0000
0000
0003
0000
0000
1000
0001
1000
0100
1000
0010
0100
0001
0100
0001
1000
0001
0010
0100
1000
0002
0000
0000
,
0000
0000
0000
0003
0000
0000
1000
0010
1000
0001
1000
0100
0010
0000
0000
0000
0000
0000
0001
0010
0001
1000
0001
0100
,
0010
0000
0000
1000
0010
1000
0001
0010
0100
1000
0100
1000
0001
0000
0000
0000
0000
0000
0100
0001
1000
0001
0010
0100
,
1000
0000
0000
0000
0000
0000
0001
0010
0001
1000
0001
0100
0010
0000
0000
0000
0000
0000
1000
0010
1000
0001
1000
0100
,
0010
0000
0000
0000
0000
0000
0001
0010
0100
1000
0100
1000
0001
0000
0000
0000
0000
0000
0100
0001
1000
0001
0010
0100
,
1000
0000
0000
0000
0000
0000
0000
0000
0000
0000
0000
0000
0001
0000
0100
0000
0001
0000
1000
0000
0010
0000
1000
0000
0001
0000
0010
0000
0001
0000
1000
0000
0100
0000
0010
0000
0001
0000
0000
0000
0000
0000
0000
0000
0000
0001
0000
0000
,
0000
0000
0000
0000
0000
0000
0100
0001
1000
0001
0010
0100
1000
0001
1000
0001
0100
0001
1000
0000
0000
0000
0000
0000
,
1000
0000
0000
0000
0000
0000
0001
0100
0001
1000
0001
0010
0100
0010
0001
1000
0100
0010
0001
1000
0010
1000
0001
0100
,
0001
0000
1000
0000
0001
0000
1000
0000
0010
0000
1000
0000
0001
0000
0010
0000
0001
0000
1000
0000
0100
0000
1000
0000
0100
0000
0010
0000
0001
0000
0100
0000
0001
0000
1000
0000
0001
0000
0000
0000
0000
0000
0000
0000
0000
0001
0000
0000
,
0000
0000
0000
0000
0000
0000
1000
0000
0000
0000
0000
0000
1000
0000
0010
0000
1000
0000
0001
0000
0100
0000
0001
0000
1000
0000
0100
0000
1000
0000
0001
0000
0010
0000
0100
0000
1000
0000
0000
0000
0000
0000
0000
0000
0000
1000
0000
0000
,
0000
0000
0000
0000
0000
0000
0010
1000
0001
1000
0100
0010
0001
1000
0001
1000
0010
1000
0001
0000
0000
0010
0000
0000
,
0001
0000
0000
0000
0000
0000
1000
0100
1000
0001
1000
0010
0100
0010
1000
0001
0100
0010
1000
0001
0010
0001
1000
0100
,
1000
0001
1000
0001
0010
0001
1000
0010
1000
0001
0100
0001
0100
0010
1000
0100
1000
0001
1000
0000
0000
0010
0000
0000
,
1000
0000
0001
0000
0001
0010
0001
1000
0001
0100
0010
1000
0010
1000
0100
1000
,
0100
0010
0001
1000
0010
1000
0001
0010
0001
0100
0010
0100
0001
1000
0100
1000
,
0100
0010
0001
1000
0001
0100
0001
1000
0010
1000
0001
1000
0001
0010
0001
1000
,
0100
1000
0001
1000
0010
0100
0001
0100
0001
1000
0100
0010
0001
0100
0010
1000
,
0010
1000
0001
1000
0001
0010
0001
1000
0001
0100
0010
1000
0010
1000
0100
1000
,
0100
0010
0001
1000
0010
1000
0001
0100
0001
0010
0001
1000
0100
1000
0010
0100
,
0010
0000
0000
0100
0000
0000
0001
0000
0000
1000
0000
0000
0001
0000
0100
0000
0001
0000
0010
0000
0001
0000
1000
0000
0100
0000
1000
0000
0100
0000
0010
0000
0001
0000
1000
0000
0010
0000
1000
0000
0100
0000
1000
0000
0001
0000
0010
0000
,
0001
0010
0100
1000
0001
1000
0001
0010
0001
0100
0001
1000
0010
1000
0010
0100
0001
1000
0100
1000
0010
1000
0001
0100
,
0001
0010
0100
1000
0100
1000
0001
0010
0001
1000
0100
1000
0001
0100
0001
1000
0010
1000
0100
1000
0001
0010
0001
1000
,
0100
0010
0001
0100
0001
1000
0001
0000
0000
0000
0000
0000
0000
0000
0000
1000
0000
0000
0010
0000
0000
1010
0000
0000
,
0000
0000
1000
0001
0000
0001
0010
0011
,
0000
0000
0001
1000
0000
0000
0010
0100
,
0110
0000
0000
0001
0000
0000
0001
0100
0001
1000
0010
1000
0001
0010
0001
1000
0100
1000
0010
1000
0001
0100
0001
1000
,
0010
0100
0001
0010
0001
1000
0001
0000
0000
0000
0000
0000
0000
0000
0000
1000
0000
0000
0100
0000
0000
1100
0000
0000
,
0000
0000
1000
0001
0000
0001
0100
0101
,
0000
0000
0001
1000
0000
0000
0M0M
M0M0
,
MMMM
0000
0001
1000
0200
0000
1300
0001
,
0010
0000
0000
0001
0000
0000
1000
0000
0000
0010
0000
0000
0100
0000
0000
0010
0000
0000
1000
0001
0100
0001
1000
0001
,
1000
0100
1000
0100
0010
0001
1000
0000
0000
0001
0000
0000
0200
0000
0000
0000
0000
0000
0301
0000
0000
0010
0000
0000
,
0100
0000
0000
1000
0000
0000
0002
0000
0000
0000
0000
0000
1003
0000
0000
0001
0000
0000
1000
0010
1000
0001
0100
0001
,
1000
0001
0010
0100
0010
0001
1000
0000
0000
0000
0000
0000
0010
0000
0000
0100
0000
0000
0010
0000
0000
1000
0000
0000
,
0001
0000
0000
1000
0000
0000
0200
0000
0000
0000
0000
0000
2300
0000
0000
0000
0000
0000
3001
0010
0100
1000
0001
1000
,
0001
0100
0001
1000
0010
1000
0001
0000
0000
0100
0000
0000
0002
0000
0000
0000
0000
0000
1003
0000
0000
0001
0000
0000
,
0010
0000
0000
0100
0000
0000
1000
0000
0000
0001
0000
0000
0100
0000
0000
0001
0000
0000
1000
0010
1000
0001
0100
0001
,
1000
0000
0001
0000
0010
0000
0100
0000
0010
0000
0001
0000
1000
0000
0000
0100
0000
0000
1000
0000
0000
0001
0000
0000
1000
0000
0000
0010
0000
0000
0100
0000
0000
0010
0000
0000
0100
0000
0000
0001
0000
0000
0010
0000
0000
0001
0000
0000
,
1000
0001
0100
0010
0100
0001
0010
0001
1000
0001
0100
0010
1000
0100
1000
0100
,
0010
0001
1000
0010
1000
0010
1000
0001
1000
0100
0010
0100
0010
0001
1000
0010
,
1000
0001
0100
0001
0010
0001
1000
0010
1000
0001
0100
0001
1000
0100
1000
0100
,
0010
0001
1000
0010
1000
0010
1000
0001
1000
0100
0010
0001
1000
0010
1000
0100
,
0010
0100
0010
0001
1000
0010
1000
0100
0010
0100
0010
0001
1000
0010
1000
0010
,
0100
0000
0000
0001
0000
0000
1000
0000
0000
0001
0000
0000
1000
0000
0010
0000
1000
0000
0100
0000
1000
0000
0001
0000
0010
0000
0001
0000
0010
0000
0100
0000
1000
0000
0001
0000
0100
0000
0001
0000
0010
0000
0001
0000
1000
0000
0100
0000
,
1000
0100
0010
0001
1000
0001
1000
0100
1000
0010
1000
0001
0100
0001
0100
0010
1000
0001
0010
0001
0100
0001
1000
0010
,
1000
0100
1000
0001
0010
0001
1000
0010
1000
0010
0100
0001
2000
0000
0000
3000
0000
0000
0001
0100
0001
1000
0100
0010
,
0002
0000
0000
0003
0000
0000
0100
0001
1000
0001
0010
0100
0010
0001
1000
0010
1000
0001
0100
0001
1000
0100
0010
0001
,
2000
0000
0000
3000
0000
0000
0001
0100
0001
0100
0010
1000
0001
1000
0001
0010
0100
1000
0100
1000
0001
0100
0001
1000
,
0002
0000
0000
0000
0000
0000
0000
0000
0000
0000
0000
0000
0003
0000
0000
0000
0000
0000
0MM0
0000
0000
M00M
0000
0000
0000
0000
0000
0000
0000
0000
0000
0000
0000
0000
0000
0000
0001
0000
1000
0000
0001
0000
0010
0000
0100
0000
1000
0000
,
0002
0000
0000
0000
0000
0000
0003
0000
0000
0100
0001
0100
0001
1000
0010
1000
0001
0010
0100
1000
0001
0100
0001
1000
,
0010
1000
0001
1000
0100
0010
0001
0000
0000
0000
0000
0000
1000
0100
1000
0001
1000
0010
0200
0000
0000
0000
0000
0000
,
0000
0000
0000
0301
0000
0000
0000
0000
0000
1000
0010
1000
0001
0100
0001
1000
0100
1000
0001
0010
0001
0100
0001
1000
,
0010
0100
0001
1000
0000
0000
0MM0
0000
0000
0000
0000
0000
0M0M
0000
0000
0000
0000
0000
M0M0
0000
0000
0000
0000
0000
,
M0M0
0000
0000
0001
0000
0000
1000
0010
1000
0001
0010
0001
1000
0100
1000
0010
1000
0001
1000
0000
0000
0000
0000
0000
,
0000
0000
0000
0001
0000
0000
1000
0100
1000
0001
0100
0001
1000
0010
1000
0100
1000
0001
1000
0000
0000
0000
0000
0000
,
0000
0000
0000
0001
0000
0000
1000
0100
1000
0100
0010
0001
1000
0010
1000
0001
0100
0001
1000
0000
0000
0000
0000
0000
,
0010
0000
0000
0100
0000
0000
0001
1000
0010
1000
0001
0100
0001
1000
0100
0010
0001
1000
0001
0000
0000
0000
0000
0000
,
1000
0000
0000
0010
0000
0000
0100
0001
0100
0001
1000
0100
0010
0001
0100
0001
1000
0010
1000
0000
0000
0000
0000
0000
,
0001
0000
0000
0010
0000
0000
0100
1000
0100
1000
0001
0100
0010
1000
0100
1000
0001
0010
0001
0000
0000
0000
0000
0000
,
1000
0000
0000
0010
0000
0000
1000
0001
0100
0001
1000
0010
1000
0100
0010
0001
0100
0001
1000
0000
0000
0000
0000
0000
,
0010
0000
0000
1000
0000
0000
0001
0010
0001
1000
0100
1000
0001
1000
0001
0100
0010
1000
0001
0000
0000
0000
0000
0000
,
0220
0330
MMMM
0000
0M00
0000
0M00
0000
,
0000
00M0
0000
00M0
0000
00M0
0000
0000
,
0000
00M0
0000
0000
00M0
0000
0000
0000
,
0M00
0M00
0MM0
00M0
,
00M0
0000
0000
0000
0001
0000
0100
0000
0001
0000
1000
0010
1000
0010
1000
0001
,
2000
0000
0000
3100
0010
0000
0001
0000
0000
0000
0000
0000
1000
0000
0001
0000
,
0100
0000
0010
1000
0000
0000
0100
1000
,
0000
0000
0001
1000
0000
0000
0010
1000
,
0100
0000
1000
0000
1000
0000
0010
0000
1000
0000
0001
0100
0001
0100
0001
1000
,
0002
0000
0000
0013
0100
0000
1000
0000
0000
0000
0000
0000
0001
0000
0100
0000
,
0010
0000
0000
0000
0000
0000
1000
0010
1000
0100
1000
0001
0010
0001
0010
0100
1000
0001
0100
0001
0010
0001
1000
0100
,
1000
0100
0010
0001
1000
0001
1000
0100
1000
0010
1000
0001
0100
0001
0100
0010
1000
0001
0010
0001
0100
0001
1000
0010
,
1000
0000
0100
0000
1000
0000
0001
0000
0010
0000
0001
0000
2000
0000
0000
0000
0000
0000
0000
0000
0000
0000
0000
0000
0000
0000
0000
0000
0000
0000
0000
0000
0000
0000
0000
0000
30M0
0000
0000
0M0M
0000
0000
M0M0
0000
0000
0M0M
0000
0000
,
M0M0
0000
0000
0000
;

//---------------dance-single - Gazebo----------------
#NOTES:
     dance-single:
     Gazebo:
     Hard:
     11:
     0.824,0.940,0.036,0.148,1.000,941.000,6.000,25.000,50.000,0.000:

0000
0000
0000
0000
,
0000
00M0
0000
00M0
,
0000
00M0
0000
00M0
,
0000
0000
0001
1000
0000
0000
0010
1000
,
0000
0000
0100
1000
0000
0000
0001
0100
,
0010
0000
1000
0001
0000
0000
0010
0001
,
0000
0000
0100
0001
0000
0000
1000
0100
,
0010
0000
0001
1000
0000
0000
0010
1000
,
0000
0000
0100
1000
0000
0000
0001
0100
,
0010
0000
0000
0000
1000
0010
1000
0100
1000
0001
0010
0001
0100
0001
1000
0010
,
1000
0001
0100
0001
1000
0100
1000
0010
1000
0001
0100
0001
0010
0100
0010
0001
,
0100
0001
1000
0000
1000
0000
0010
0000
1000
0000
0001
0100
0001
0100
0001
1000
,
0002
0000
0000
0013
0000
0000
0000
0000
0000
0001
1000
0000
0100
0010
0100
0010
,
0002
0000
0000
1003
0000
0000
0000
0000
0000
0000
0010
0000
1000
0010
1000
0000
,
0001
0010
0100
0010
0001
1000
0001
0000
0010
0000
0001
1000
0010
0000
0100
0001
,
0000
0001
0000
0000
1000
0000
0100
0000
1000
0000
0001
0000
0100
0000
0020
0000
,
0000
0130
0000
0000
0010
1000
0000
1000
0000
0001
1000
0000
0100
0000
0020
0000
,
0000
0031
0000
0000
1000
0010
1000
0100
1000
0001
0010
0001
0100
0001
1000
0010
,
1000
0001
0100
0001
1000
0100
1000
0010
1000
0001
0100
0001
0010
0100
0010
0001
,
0100
0001
1000
0001
1000
0100
1000
0010
1000
0001
0100
0001
1000
0000
0002
0000
,
0010
0000
0003
0000
1000
0100
1000
0001
0100
0001
0010
0100
1000
0000
0002
0000
,
0100
0000
0003
0000
1000
0010
1000
0100
1000
0001
0010
0001
1000
0000
0002
0000
,
0100
0000
0003
0000
1000
0100
1000
0010
0100
0001
0010
0001
1000
0000
0002
0000
,
0000
0000
0003
0000
1000
0010
1000
0001
0000
0000
0000
1000
0100
0010
0100
1000
,
0000
0001
1000
0000
0010
0100
0010
1000
0000
0000
0000
0000
0001
0100
0001
0010
,
0000
0000
0000
0000
0001
0010
0001
1000
0000
0000
0000
0000
0010
0100
0010
1000
,
0000
0000
0000
0000
0001
0100
0001
1000
0000
0000
0000
0000
0100
0010
0001
1000
,
0000
0000
0000
0000
0001
0100
0001
0010
0001
1000
0100
1000
0001
0000
0000
0001
,
0010
0000
0000
0000
0001
0010
0001
1000
0010
1000
0100
1000
0001
0000
0000
0000
,
0001
0000
0000
0000
1000
0010
1000
0100
0010
0100
1000
0001
0100
0001
1000
0010
,
0000
0000
0000
0000
1000
0010
1000
0100
0010
0001
0100
0001
1000
0000
0000
1000
,
0000
0000
0001
0000
0001
0010
0001
0100
0001
1000
0010
1000
0001
0000
0000
0001
,
1000
0000
0000
0000
0001
0010
0100
0010
0001
1000
0010
1000
0100
1000
0010
0100
,
0001
0000
0000
0000
1000
0010
1000
0001
0100
0001
0010
0001
1000
0100
1000
0001
,
0010
0001
0100
0001
1000
0010
0100
0010
1000
0001
0100
0001
1000
0100
0010
0001
,
1000
0000
0001
0000
0001
0010
0001
1000
0001
0100
0010
1000
0010
1000
0100
1000
,
0100
0010
0001
1000
0010
1000
0001
0010
0001
0100
0010
0100
0001
1000
0100
1000
,
0100
0010
0001
1000
0001
0100
0001
1000
0010
1000
0001
1000
0001
0010
0001
1000
,
0100
1000
0001
1000
0010
0100
0001
0100
0001
1000
0100
0010
0001
0100
0010
1000
,
0010
1000
0001
1000
0001
0010
0001
1000
0001
0100
0010
1000
0010
1000
0100
1000
,
0100
0010
0001
1000
0010
1000
0001
0100
0001
0010
0001
1000
0100
1000
0010
0100
,
0010
0100
0001
1000
0001
0100
0001
0010
0001
1000
0100
1000
0010
1000
0001
0100
,
0001
1000
0010
1000
0001
0010
0001
0100
0001
1000
0010
1000
0100
0010
0100
1000
,
0010
1000
0001
1000
0001
0010
0001
0100
0001
1000
0010
0100
0010
0100
0001
1000
,
0100
0010
0001
1000
0001
0000
0000
0000
0000
0000
1000
0000
0010
0000
1010
0000
,
0000
0000
1000
0001
0000
0001
0010
0011
,
0000
0000
0001
1000
0000
0000
0010
0100
,
0110
0000
0001
0000
0001
0100
0001
0010
0001
1000
0100
0010
0100
0010
0001
1000
,
0010
0100
0001
1000
0001
0000
0000
0000
0000
0000
1000
0000
0100
0000
1100
0000
,
0000
0000
1000
0001
0000
0001
0100
0101
,
0000
0000
0001
1000
0000
0000
0M0M
M0M0
,
MMMM
0000
0001
1000
0200
0000
1300
0001
,
0010
0000
0001
0000
1000
0000
0010
0000
0100
0000
0010
0000
1000
0001
0010
0001
,
1000
0001
0010
0001
1000
0000
0001
0000
0200
0000
0000
0000
0301
0000
0010
0000
,
0100
0000
1000
0000
0002
0000
0000
0000
1003
0000
0001
0000
1000
0010
1000
0001
,
1000
0010
1000
0001
1000
0000
0000
0000
0010
0000
0100
0000
0010
0000
1000
0000
,
0001
0000
1000
0000
0200
0000
0000
0000
2300
0000
0000
0000
3001
0010
0001
1000
,
0001
0010
0001
1000
0001
0000
0100
0000
0002
0000
0000
0000
1003
0000
0001
0000
,
0010
0000
0100
0000
1000
0000
0001
0000
0100
0000
0001
0000
1000
0010
1000
0001
,
1000
0010
1000
0001
1000
0100
1000
0001
1000
0010
0100
0010
0100
0001
0010
0001
,
1000
0001
0100
0010
0100
0001
0010
0001
1000
0001
0100
0010
1000
0100
1000
0100
,
0010
0001
1000
0010
1000
0010
1000
0001
1000
0100
0010
0100
0010
0001
1000
0010
,
1000
0001
0100
0001
0010
0001
1000
0010
1000
0001
0100
0001
1000
0100
1000
0100
,
0010
0001
1000
0010
1000
0010
1000
0001
1000
0100
0010
0001
1000
0010
1000
0100
,
0010
0100
0010
0001
1000
0010
1000
0100
0010
0100
0010
0001
1000
0010
1000
0010
,
0100
0001
1000
0001
1000
0010
1000
0100
1000
0001
0010
0001
0100
0001
1000
0010
,
1000
0001
0100
0001
1000
0100
1000
0010
1000
0001
0100
0001
0010
0100
0010
0001
,
0100
0001
1000
0001
1000
0010
1000
0100
2000
0000
3000
0000
0001
0100
0010
0100
,
0002
0000
0003
0000
1000
0100
0010
0100
1000
0010
0100
0010
1000
0001
0100
0001
,
2000
0000
3000
0000
0001
0010
0001
0100
0001
1000
0010
1000
0100
1000
0010
0100
,
0002
0000
0000
0000
0003
0000
0MM0
M00M
0000
0000
0000
0000
1000
0001
0010
0001
,
2000
0000
0000
0000
3000
0000
0010
0100
0010
1000
0001
0010
0100
1000
0001
0100
,
0001
1000
0010
1000
0001
0000
0000
0000
1000
0001
1000
0100
0020
0000
0000
0000
,
0000
0000
0031
0000
0000
0000
1000
0010
1000
0100
0010
0001
1000
0100
1000
0010
,
0100
0001
1000
0000
0MM0
0000
0000
0000
0M0M
0000
0000
0000
M0M0
0000
0000
0000
,
M0M0
0000
0001
0000
1000
0010
1000
0100
0010
0001
0100
0001
1000
0000
0000
0000
,
0000
0000
0001
0000
1000
0010
1000
0100
0010
0001
0100
0001
1000
0000
0000
0000
,
0000
0000
0001
0000
1000
0010
1000
0010
0100
0001
0010
0001
1000
0000
0000
0000
,
0010
0000
0100
0000
0001
0010
0001
0100
0010
1000
0100
1000
0001
0000
0000
0000
,
1000
0000
0010
0000
1000
0001
1000
0100
0010
0001
0100
0001
1000
0000
0000
0000
,
0001
0000
0010
0000
0001
1000
0001
0100
0010
1000
0100
1000
0001
0000
0000
0000
,
1000
0000
0010
0000
1000
0001
1000
0100
0010
0001
0100
0001
1000
0000
0000
0000
,
0010
0000
1000
0000
0001
0010
0001
0100
0010
1000
0100
1000
0001
0000
0000
0000
,
0220
0330
MMMM
0000
0M00
0000
0M00
0000
,
0000
00M0
0000
00M0
0000
00M0
0000
0000
,
0000
00M0
0000
0000
00M0
0000
0000
0000
,
0M00
0M00
0MM0
00M0
,
00M0
0000
0000
0000
0001
0000
0100
0000
0001
0000
1000
0010
1000
0010
1000
0001
,
2000
0000
0000
3100
0010
0000
0001
0000
0000
0000
0000
0000
1000
0000
0001
0000
,
0100
0000
0010
1000
0000
0000
0100
1000
,
0000
0000
0001
1000
0000
0000
0010
1000
,
0100
0000
1000
0000
1000
0000
0010
0000
1000
0000
0001
0100
0001
0100
0001
1000
,
0002
0000
0000
0013
0100
0000
1000
0000
0000
0000
0000
0000
0001
0000
0100
0000
,
0010
0000
0000
0000
1000
0010
1000
0100
1000
0001
0010
0001
0100
0001
1000
0010
,
1000
0001
0100
0001
1000
0100
1000
0010
1000
0001
0100
0001
0010
0100
0010
0001
,
0100
0001
1000
0001
2000
0000
0000
0000
0000
0000
0000
0000
30M0
0M0M
M0M0
0M0M
,
M0M0
0000
0000
0000
;
