#TITLE:Rick The Hamster;
#SUBTITLE:Kirby's Dreamland 2;
#ARTIST:Hirokazu Ando, Tadashi Ikegami;
#TITLETRANSLIT:;
#SUBTITLETRANSLIT:;
#ARTISTTRANSLIT:;
#CREDIT:;
#BANNER:Rick The Hamster.png;
#BACKGROUND:Rick The Hamster-bg.png;
#LYRICSPATH:;
#CDTITLE:kn33growzw9.png;
#MUSIC:Rick The Hamster.mp3;
#OFFSET:-0.300;
#SAMPLESTART:38.029;
#SAMPLELENGTH:12.000;
#SELECTABLE:YES;
#BPMS:0.000=159.030;
#STOPS:;
#BGCHANGES:;
// cache tags:
#FIRSTBEAT:0.000;
#LASTBEAT:129.750;
#SONGFILENAME:Songs/VGMP 2/Rick The Hamster (Kn33groW)/Rick The Hamster.sm;
#HASMUSIC:1;
#HASBANNER:1;
#MUSICLENGTH:50.569;
// end cache tags

//---------------dance-single - Blank----------------
#NOTES:
     dance-single:
     Blank:
     Hard:
     10:
     1.000,1.000,1.000,1.000,1.000,461.000,175.000,75.000,0.000,0.000:

1200
0300
0000
1020
0030
0000
0002
0003
0000
1200
0300
0000
1020
0030
0000
0002
0003
0000
1200
0300
0000
1020
0030
0000
0002
0003
0000
1200
0300
0000
1020
0030
0000
0002
0003
0000
1020
0030
0000
1200
0300
0000
0020
0030
0000
0000
0000
0000
,
1001
0000
0010
1001
0101
0010
1000
0101
0010
1000
0001
0110
1000
0001
0110
0001
,
1100
0000
0000
0000
0000
0000
0001
0000
0000
1010
0000
0000
1100
0000
0000
0000
0000
0000
0002
0003
0020
0030
0200
0300
2000
3000
0000
0002
0003
0000
1000
0000
0000
1100
0000
0000
0001
0000
0000
0010
0000
0000
1001
0000
0000
0010
0000
0000
,
1100
0000
0001
1100
1010
0001
0100
1010
0001
0100
1000
0011
0100
1000
0011
1000
,
0110
0000
0000
0000
0000
0000
0100
0000
0000
0011
0000
0000
1100
0000
0000
0000
0000
0000
0100
0000
0000
0011
0000
0000
0000
0000
0000
2000
3000
0000
0200
0300
0000
0020
0030
0000
0002
0003
0000
0002
0003
0000
1002
0003
0000
0000
0000
0000
,
0110
0000
1000
0011
0110
1000
0010
0101
1000
0010
0100
1001
0010
0100
1001
0100
,
0011
0000
0000
0000
0000
0000
0001
0000
0000
1010
0000
0000
1100
0000
0000
0000
0000
0000
0002
0003
0020
0030
0200
0300
2000
3000
0000
0002
0003
0000
1000
0000
0000
1010
0000
0000
0100
0000
0000
0010
0000
0000
1001
0000
0000
0100
0000
0000
,
1010
0000
0100
0011
1001
0100
0010
1001
0100
0001
0010
1100
0001
0010
1100
0010
,
1001
0000
1000
0100
0011
1000
0110
0011
0000
0000
0000
1100
0011
1100
1100
0000
,
0010
0101
0010
1001
0000
1001
0110
0001
2000
0010
0100
3010
0002
0010
0100
0013
,
1000
0000
0110
0000
1000
0000
0101
0000
0000
0000
0110
0000
1001
0000
0100
0000
0020
0000
1000
0000
0001
0030
2000
0000
0000
3000
1000
0000
0100
0000
0010
0000
,
1000
0101
1000
0110
0000
0110
1001
0100
0002
0010
0100
0013
2000
0010
0100
3010
,
0001
0010
1100
0011
0100
0100
0110
1001
0000
0100
0000
0001
0000
1000
0100
0010
,
1001
0000
0100
0011
1010
0100
0001
1010
0100
0001
0010
1100
0001
0010
1100
0010
,
1001
0000
0000
0000
0000
0000
0100
0000
0000
0011
0000
0000
1001
0000
0000
0000
0000
0000
0002
0003
0020
0030
0200
0300
2000
3000
0000
0020
0030
0000
0001
0000
0000
1001
0000
0000
0100
0000
0000
0010
0000
0000
1100
0000
0000
0010
0000
0000
,
1001
0000
0010
1100
0101
0010
0100
1001
0010
1000
0001
0110
1000
0001
0110
0001
,
1100
0000
0000
0000
0000
0000
1000
0000
0000
0110
0000
0000
1001
0000
0000
0000
0000
0000
1000
0000
0000
0110
0000
0000
0000
0000
0000
0002
0003
0000
2000
3000
0000
0200
0300
0000
0020
0030
0000
0020
0030
0000
1020
0030
0000
0000
0000
0000
,
0110
0000
1000
0011
0110
1000
0010
0101
1000
0010
0100
1001
0010
0100
1001
0100
,
0011
0000
0000
0000
0000
0000
0001
0000
0000
1010
0000
0000
1100
0000
0000
0000
0000
0000
0002
0003
0020
0030
0200
0300
2000
3000
0000
0002
0003
0000
1000
0000
0000
1010
0000
0000
0100
0000
0000
0010
0000
0000
1001
0000
0000
0100
0000
0000
,
1010
0000
0100
0011
1001
0100
0010
1001
0100
0001
0010
1100
0001
0010
1100
0010
,
1001
0000
1000
0100
0011
1000
0110
0011
0000
0000
0000
1100
0011
1100
1100
0000
,
0001
1010
0001
1100
0000
1100
0011
1000
0200
0001
0010
0301
2000
0001
0010
3001
,
0100
0000
0011
0000
0100
0000
1010
0000
0000
0000
0011
0000
1100
0000
0010
0000
0002
0000
0100
0000
1000
0003
0200
0000
0000
0300
0100
0000
0010
0000
0001
0000
,
0100
1010
0100
0011
0000
0011
1100
0010
2000
0001
0010
3001
0200
0001
0010
0301
,
1000
0001
1100
0011
1000
1001
1010
1100
0000
0010
0000
1000
0000
0001
0010
0100
,
1001
0000
0001
1100
1010
0001
0100
1010
0001
0100
1000
0011
0100
1000
0011
1000
,
0110
0000
0000
0000
0000
0000
1000
0000
0000
0101
0000
0000
0110
0000
0000
0000
0000
0000
0002
0003
0020
0030
0200
0300
2000
3000
0000
0002
0003
0000
0010
0000
0000
1010
0000
0000
0100
0000
0000
0001
0000
0000
1100
0000
0000
0001
0000
0000
,
1100
0000
0001
1100
1010
0001
0100
1010
0001
0100
1000
0011
0100
1000
0011
1000
,
0110
0000
0000
0000
0000
0000
0100
0000
0000
0011
0000
0000
1100
0000
0000
0000
0000
0000
0100
0000
0000
0011
0000
0000
0000
0000
0000
2000
3000
0000
0200
0300
0000
0020
0030
0000
0002
0003
0000
0002
0003
0000
1002
0003
0000
0000
0000
0000
,
1001
0000
0010
1100
1001
0010
1000
0101
0010
1000
0001
0110
1000
0001
0110
0001
,
1100
0000
0000
0000
0000
0000
0001
0000
0000
0110
0000
0000
1100
0000
0000
0000
0000
0000
2000
3000
0200
0300
0020
0030
0002
0003
0000
0200
0300
0000
1000
0000
0000
1010
0000
0000
0100
0000
0000
0010
0000
0000
1001
0000
0000
0100
0000
0000
,
1010
0000
0100
0011
1001
0100
0010
1001
0100
0001
0010
1100
0001
0000
1000
0100
,
0001
0000
0010
0100
0000
1000
0000
0100
0000
0000
0000
0000
0000
0000
0000
0000
;
