#TITLE:11 STRANGEPROGRAM;
#SUBTITLE:;
#ARTIST:Unknown artist;
#TITLETRANSLIT:;
#SUBTITLETRANSLIT:;
#ARTISTTRANSLIT:;
#CREDIT:;
#BANNER:;
#BACKGROUND:;
#LYRICSPATH:;
#CDTITLE:;
#MUSIC:11 STRANGEPROGRAM.mp3;
#OFFSET:0.000;
#SAMPLESTART:100.000;
#SAMPLELENGTH:12.000;
#SELECTABLE:YES;
#BPMS:0.000=82.500;
#STOPS:;
#BGCHANGES:;
// cache tags:
#FIRSTBEAT:0.000;
#LASTBEAT:18.667;
#SONGFILENAME:Songs/My Creations/11 STRANGEPROGRAM/11 STRANGEPROGRAM.sm;
#HASMUSIC:1;
#HASBANNER:0;
#MUSICLENGTH:225.201;
// end cache tags

//---------------dance-single - ----------------
#NOTES:
     dance-single:
     :
     Challenge:
     1:
     0.072,0.052,0.253,0.000,0.084,57.000,57.000,0.000,0.000,0.000:
1100
1100
1100
1100
1100
0110
1100
0110
1100
1100
1100
1100
,
0011
1100
1100
1100
1100
1100
1100
0110
0011
1100
0110
1100
,
1100
1100
0110
1100
1100
1100
1100
1100
0110
1100
1100
1100
,
1100
1100
0110
0110
1100
1100
0110
0110
1100
1100
1100
1100
,
1100
0110
0110
1100
1100
1100
1100
1100
1100
0000
0000
0000
;

//---------------dance-single - ----------------
#NOTES:
     dance-single:
     :
     Easy:
     1:
     0.000,0.000,0.000,0.000,0.000,0.000,0.000,0.000,0.000,0.000:
0000
0000
0000
0000
;
