#TITLE:Lawn Wake II;
#SUBTITLE:;
#ARTIST:the flashbulb;
#TITLETRANSLIT:;
#SUBTITLETRANSLIT:;
#ARTISTTRANSLIT:;
#CREDIT:;
#BANNER:lawnwakeii.png;
#BACKGROUND:lawnwakeii-bg.png;
#LYRICSPATH:;
#CDTITLE:Goliath logo.png;
#MUSIC:03 - the flashbulb - lawn wake ii.mp3;
#OFFSET:-0.020;
#SAMPLESTART:79.760;
#SAMPLELENGTH:16.320;
#SELECTABLE:YES;
#BPMS:0.000=220.000;
#STOPS:;
#BGCHANGES:;
// cache tags:
#FIRSTBEAT:0.000;
#LASTBEAT:511.500;
#SONGFILENAME:Songs/toune/Lawn Wake II/lawnwakeii.sm;
#HASMUSIC:1;
#HASBANNER:1;
#MUSICLENGTH:191.268;
// end cache tags

//---------------dance-single - ----------------
#NOTES:
     dance-single:
     :
     Hard:
     11:
     1.000,1.000,0.826,1.000,0.630,883.000,158.000,334.000,0.000,3.000:
2002
3000
0000
0000
0003
0000
0000
0000
0000
0000
0000
0000
0200
0300
0000
0000
,
0000
0000
0000
0000
,
0020
0030
0000
0000
0000
0000
0000
0000
0000
0000
0000
0000
2000
3000
0000
0000
,
0000
0000
0000
0000
,
0200
0300
0000
0000
0000
0000
0020
0030
,
0000
0000
0000
0000
,
0002
0003
0000
0000
0000
0000
2000
3000
,
0000
0000
0000
0000
0000
0000
0002
0003
,
0220
0330
0000
0002
,
0003
0000
0000
0000
,
2000
3000
0000
0200
,
0300
0000
0000
0000
,
0020
0000
0000
2030
,
0000
0000
3000
0000
,
0002
0000
0000
0203
,
0000
0000
0000
0000
0000
0000
0000
0000
0300
0000
0000
0000
0002
0000
0000
0003
,
2200
0300
0000
3020
,
0000
0000
0000
0030
,
0200
0000
0000
0302
,
0000
0000
0000
0003
,
2000
0000
0000
3200
,
0000
0000
0000
0000
0000
0000
0000
0300
,
0002
0000
0000
0023
,
0000
0000
0000
0000
0000
0000
0000
0000
0000
0000
0000
0000
2030
0000
0000
3000
,
0202
0003
0000
2300
,
0000
0000
0000
0000
,
3200
0000
0000
0302
,
0000
0000
0000
0000
,
0023
0000
0000
0230
,
0000
0000
0000
0000
,
2300
0000
0000
3020
,
0000
0000
0000
0000
0000
0000
0000
0000
0000
0000
0000
0000
0230
0000
0000
0300
,
0011
0000
0100
0010
0001
0000
0001
0100
1000
0000
1000
0000
0202
0000
0000
0303
,
1000
0100
0010
0001
0100
0010
1000
0001
0010
0100
1000
0010
0100
1000
0010
0000
,
2002
0000
0000
3003
0110
0000
1000
0010
0001
0010
0100
1000
0220
0000
0000
0330
,
0002
0000
0103
0010
2000
0000
3020
0000
0130
1000
0020
0000
0032
0000
0000
0003
,
1100
0000
0010
0001
0010
0100
0010
0000
0010
0000
0100
0010
2002
0000
0000
3003
,
0010
0000
0100
0000
1000
0000
0001
0000
0010
0000
0000
0000
2000
0000
0000
0000
0000
0000
0000
0000
0000
3000
0000
0000
0200
0000
0000
0000
0000
0000
0320
0000
0000
0030
0000
0000
0020
0000
0000
0000
0000
0000
0000
0000
0000
0030
0000
0000
,
0101
0000
0010
1000
0001
0000
0100
0000
0010
0000
1000
1000
0022
0000
0000
0033
,
2200
0000
3300
0010
0001
0100
0020
0000
2030
0000
3001
0100
2020
0000
0000
3030
,
0101
0000
1000
0000
1000
0000
0001
1000
0100
1000
0010
0001
0220
0000
0000
0330
,
1001
0000
0100
0000
0100
0000
0001
1000
0200
0300
0200
0300
0020
0000
0031
0000
,
2002
0000
0000
3003
0110
0000
1000
0010
0100
0001
0010
1000
0202
0000
0000
0303
,
0010
0000
0001
0000
1000
0100
0010
0001
0200
0000
0000
0000
0320
0000
0030
0000
0001
0000
1000
0000
0001
0000
1000
0000
0220
0000
0330
0000
2200
0000
3300
0000
,
0011
0000
1000
0011
0000
1000
0011
0000
1000
0001
1000
0001
0220
0000
0000
0330
,
1001
0000
0001
0000
1000
0000
0010
0001
0100
0010
1000
0001
0200
0000
0000
0300
,
0011
0000
0100
0001
1000
0000
1000
0000
0100
0010
0100
0010
2200
0000
0000
3300
,
0022
0033
0000
2020
3030
0000
2200
3300
0000
0202
0303
0000
2002
0000
0000
3003
,
0110
0000
0001
0000
1001
0000
0010
1000
0010
0000
0010
1000
0002
0000
0000
0003
,
0200
0000
0000
0000
0320
0000
0000
0000
2030
0000
0000
0000
3200
0000
0302
0003
,
2020
0000
3030
0000
0101
0000
0100
0010
0100
0000
0100
0010
2000
0000
0000
3000
,
0021
0000
0000
0000
0000
0000
0000
0030
2200
0000
0000
3300
0022
0000
0000
0033
,
0220
0000
0000
0330
0000
0000
0000
0000
0000
0000
0000
0000
2002
0000
0000
3003
,
0000
0000
0000
0000
,
0022
0000
0000
0033
0000
0000
0000
0000
0000
0000
0000
0000
0220
0000
0000
0300
,
0002
0000
0000
0000
0000
0033
1001
0000
,
0110
0000
0001
0000
1000
0000
0010
0100
0001
0100
1000
0010
0202
0000
0000
0303
,
0011
0000
0000
0000
1000
0000
0000
0000
0100
0000
0000
0000
0001
0010
0100
1000
0001
0000
1000
0000
0100
0000
0010
0000
0002
0000
0000
0000
0000
0000
0003
0000
,
0110
0000
1000
0000
1100
0000
0100
0000
0100
0000
0020
0030
0202
0000
0000
0303
,
1000
0000
0010
0000
0100
0000
0001
0010
0001
0010
0100
1000
0020
0030
0200
0300
,
2002
0000
3000
0000
0000
0000
0000
0000
0000
0000
0000
0003
2200
0000
3300
0000
,
1001
0000
1001
0000
0110
0000
0022
0033
,
1010
0000
1000
0000
0001
0000
0100
0010
1000
0001
0010
1000
0200
0000
0000
0000
,
0320
0000
0000
0130
0001
1000
0010
0100
2000
0000
3100
0010
2002
0000
0000
3003
,
0110
0000
0100
0000
0001
0000
0100
0010
1000
0010
0001
0100
0020
0000
0000
0030
,
1100
0000
1000
0000
0001
0000
0010
1000
0001
0100
0010
1000
0110
0000
0110
0000
,
0022
0000
0000
0033
1100
0000
0010
0001
1000
0001
0100
0010
2000
0000
0000
3000
,
0001
0001
0000
0000
0000
0000
0000
0000
1000
0001
1100
0000
0110
0000
0011
0000
,
1001
0000
0100
1001
0000
0200
0000
0000
0310
1000
0010
1000
0202
0000
0000
0303
,
1010
0000
0000
0000
0000
0000
0010
0000
0000
0000
0000
0000
0100
0000
0000
0000
0000
0000
0001
0000
0000
0010
0000
0000
0001
0000
0000
0100
0000
0000
0001
0000
0000
0010
0000
0000
1000
0000
0100
0000
0010
0000
0001
0000
1000
0000
0100
0000
,
0011
0000
0100
0001
1000
0000
1000
0000
0001
0010
0100
0010
2200
0000
0000
3300
,
0022
0033
0000
2200
3300
0000
2020
3030
0000
0202
0303
0000
2002
0000
0000
3003
,
0220
0000
0330
0000
0110
0000
0010
0100
0010
0000
0010
0100
0020
0000
0000
0000
,
0130
0010
0001
1000
0100
0010
0001
0100
0010
1000
0100
0010
1000
0100
0010
0000
,
0202
0000
0303
0000
1001
0000
1000
0001
1000
0000
1000
0001
2000
0000
0000
3000
,
0002
0000
0103
0010
2000
0000
3002
0000
0013
1000
0200
0000
0302
0000
0000
0003
,
0110
0000
0000
0000
0000
0000
0000
0000
0000
0000
0000
0000
0000
0000
0000
0000
0000
0000
0000
0000
0000
0000
0000
0000
0001
0000
0000
0000
0000
0000
0000
0000
0000
0000
0000
0000
0000
0000
0000
0000
0010
0000
0000
0000
0000
0000
0000
0000
0000
0000
0000
0000
0000
0000
1100
0000
0000
0000
0000
0000
0000
0000
0000
0000
0000
0000
0000
0000
0000
0000
0000
0000
0001
0000
0000
0000
0000
0000
0000
0000
0000
0000
0000
0000
0000
0000
0000
0000
0000
0000
0000
0000
0000
0000
0000
0000
0001
0000
0000
0000
0000
0000
0000
0000
0000
0000
0000
0000
0000
0000
0000
0000
0000
0000
0000
0000
0000
0000
0000
0000
0010
0000
0000
0000
0000
0000
0000
0000
0000
0000
0000
0000
0100
0000
0000
0000
0000
0000
0000
0000
0000
0000
0000
0000
2020
0000
0000
0000
0000
0000
0000
0000
0000
0000
0000
0000
0000
0000
0000
0000
0000
0000
0000
0000
0000
0000
0000
0000
0000
0000
0000
0000
0000
0000
0000
0000
0000
0000
0000
0000
3030
0000
0000
0000
0000
0000
0000
0000
0000
0000
0000
0000
,
0002
0000
0000
0000
0000
0000
0000
0000
2003
0000
0000
0000
0000
0000
0000
0000
3200
0000
0000
0000
0320
0000
0000
0030
0020
0000
0000
0000
0000
0000
0030
0000
,
1001
0000
0100
0100
0011
0000
0101
0000
0110
0000
0001
0010
2200
0000
0000
3300
,
0002
0000
0000
0103
0010
0001
2000
0000
3020
0000
0130
0001
2200
0000
0000
3300
,
0120
0000
0000
0000
0000
0000
0000
0000
0032
0000
0000
0000
0000
0000
0003
0000
0020
0000
0000
0000
0230
0000
0000
0000
0320
0000
0000
0000
0000
0000
0000
0030
,
0020
0000
0230
0000
0000
0000
0320
0230
0320
0000
0000
0000
0230
0000
0000
0000
,
0320
0000
0130
0000
0020
0000
0000
0000
2030
0000
0000
0000
3002
2003
3002
2003
,
3200
0000
0000
0000
2300
0000
0000
0000
3200
0000
0301
0000
0100
0001
0200
0300
,
2020
0000
0000
0000
0000
0000
0000
3030
0020
0000
0000
0000
2030
0000
0000
0000
3020
0000
0000
0000
0000
0030
0020
0000
0000
0000
0000
0030
0020
0000
0000
0030
,
2200
0000
0000
3300
0010
0000
0000
0000
0010
0000
0001
0000
2200
0000
0000
3300
0010
0000
0000
0000
0010
0000
0001
0000
2200
0000
0000
3300
0001
0000
0000
0000
,
2000
0000
0000
0000
3100
0000
0000
0000
0020
0000
0030
0000
0002
0000
0000
0003
0002
0000
0000
0003
0002
0000
0000
0003
0002
0000
0000
0003
0200
0000
0300
0000
,
0022
0000
0000
0000
0000
0000
0033
0000
0200
0000
0000
0000
0320
0000
0230
0000
0302
0000
0000
0000
0203
0000
0320
0000
2030
0000
0000
0000
3200
0000
0000
0300
,
0011
0000
0100
0000
1002
0000
0013
0000
1000
0000
0010
0100
0010
0000
0001
0000
,
2000
0000
3000
0000
0220
0000
0330
0000
0101
0000
1000
0010
0202
0000
0303
0000
,
0110
0000
0001
0100
1010
0000
1010
0000
0202
0000
0303
0000
0002
0003
0001
0001
,
1100
0000
0010
0001
1100
0000
0010
0001
2020
0000
3030
0000
2020
0000
3030
0000
,
0220
0000
0000
0000
0000
0000
0330
0000
1001
0000
0000
0000
0010
0000
0000
0000
1000
0000
0000
0000
0001
0000
0000
0000
0100
0000
0000
0000
0002
0000
0000
0003
,
0002
0000
0000
0003
0001
0000
0001
0000
0002
0000
0000
0003
0002
0000
0000
0003
0002
0000
0000
0003
0200
0000
0300
0000
1001
0000
0000
0000
0000
0000
0000
0000
,
2200
0000
3300
0000
2200
0000
3301
0010
2200
0000
3301
0010
2200
0000
3301
0010
,
0200
0000
0000
0000
0000
0000
0000
0000
0302
0000
0000
0000
0000
0000
0000
0000
2003
0000
0000
0000
3010
0000
0010
0000
2000
0000
0000
0000
0000
0000
3100
0010
,
1001
0010
1000
1001
0010
1000
1001
0010
,
0100
0000
0100
0000
0001
0000
1000
0010
0100
0010
0001
0100
1010
0000
1010
0000
,
0220
0000
0000
0330
0001
0000
1000
0010
1000
0001
0100
0010
2002
0000
0000
3003
,
0020
0000
0000
0000
0230
0000
0000
0000
0301
0010
0001
0010
1000
0000
1000
0000
,
0101
0000
0000
0000
0010
0000
0101
0000
0000
0000
0010
0000
0101
0000
0000
0000
2000
3000
0200
0300
0020
0030
0002
0003
2200
0000
0000
0000
0000
0000
3300
0000
,
0001
0000
0000
0000
0000
0000
0001
0000
0000
0000
0000
0000
0100
0000
0000
0000
0000
0000
1000
0000
0000
0100
0000
0000
0010
0000
0000
0100
0000
0000
1000
0000
0100
0000
0010
0000
0001
0000
0010
0100
2000
0000
0000
0000
3000
0000
0000
0000
,
0011
0000
0100
0010
1001
0000
1001
0000
0010
1000
0100
1000
0202
0000
0000
0303
,
2020
3030
0000
0220
0330
0000
0202
0303
0000
0220
0330
0000
2002
0000
0000
3003
,
0010
0000
0010
0100
0010
0000
0100
0000
0010
0000
0001
0000
0010
0000
0100
0000
,
1000
0000
1000
0001
1000
0000
0001
0000
1000
0000
0010
0000
0100
0010
0001
1000
,
0010
0000
0100
0010
0100
0010
0100
0000
0010
0100
0010
0100
0010
0100
0010
0000
,
0001
0000
0001
1000
0001
0000
0001
1000
0200
0000
0320
0000
0000
0000
0000
0030
,
0001
0000
0001
0100
0010
0000
0010
1000
0010
1000
0100
0000
0001
0010
0001
0010
,
1000
0000
1000
0001
1000
0000
1000
0001
1000
0000
1000
0001
0100
0000
0100
0001
,
1000
0000
1000
0010
1000
0010
1000
0000
0010
1000
0010
0000
0010
1000
0010
1000
,
0001
0000
0001
0100
0010
1000
0001
0000
0020
0000
0230
0000
2300
0000
3200
0000
,
0301
0000
0001
0100
0001
0000
0100
0000
0010
0000
0100
0000
0010
0000
0001
0000
,
1000
0000
1000
0010
1000
0000
0010
0000
0100
0000
0010
0000
1000
0100
0010
0001
,
0100
0000
0010
1000
0010
1000
0010
0000
1000
0001
1000
0001
1000
0001
1000
0000
,
0100
0000
0100
0010
0100
0000
0100
0010
2000
0000
3002
0000
0000
0000
0000
0003
,
1000
0000
1000
0100
0010
0000
0010
0001
1000
0001
1000
0000
0010
1000
0010
1000
,
0100
0000
0100
0010
0100
0000
0100
0010
0100
0000
0100
0010
1000
0000
1000
0100
,
0001
0000
0001
1000
0001
1000
0001
0000
0100
0010
0100
0000
0100
1000
0100
1000
,
0010
0000
0100
0010
0001
1000
0100
0000
0020
0000
2030
0000
3002
0000
2003
0000
,
3100
0000
0010
0000
1000
0000
0100
0001
0100
0010
0100
1000
0022
0000
0000
0033
,
1000
0000
0000
0000
0010
0000
0000
0000
0001
0000
0000
0000
0010
0100
1000
0001
0100
0000
0010
0000
0100
0000
0010
0000
1000
0000
0001
0000
1000
0000
0001
0000
,
0110
0000
0000
0000
0001
0000
0000
0000
1001
0000
0000
0000
1000
0000
0000
0000
1000
0000
0000
0000
0100
0010
0001
1000
0220
0000
0000
0000
0000
0000
0330
0000
,
1100
0000
0022
0033
0220
0330
2002
3003
2020
3030
0202
0303
0010
0100
0001
1000
,
0220
0000
0030
0000
0000
0000
0000
0000
0000
0000
0000
0300
2002
0000
0000
3003
,
0110
0000
0000
0000
0110
0000
0000
0000
2200
3300
0002
0003
0200
0300
0020
0030
,
0202
0000
0000
0000
0000
0000
0000
0303
1000
0010
0100
0001
0220
0000
0000
0330
,
0002
0000
0000
0103
0010
1000
0001
0010
0200
0000
0301
0010
2200
0000
3300
0000
;
