#TITLE:Heart Of Witch;
#SUBTITLE:;
#ARTIST:Rex;
#TITLETRANSLIT:;
#SUBTITLETRANSLIT:;
#ARTISTTRANSLIT:;
#CREDIT:;
#BANNER:Heart of Witch-bn.png;
#BACKGROUND:Heart of Witch-bg.jpg;
#LYRICSPATH:;
#CDTITLE:Type MARS.png;
#MUSIC:Heart Of Witch.mp3;
#OFFSET:0.760;
#SAMPLESTART:11.920;
#SAMPLELENGTH:11.300;
#SELECTABLE:YES;
#BPMS:0.000=170.000;
#STOPS:;
#BGCHANGES:;
// cache tags:
#FIRSTBEAT:3.000;
#LASTBEAT:244.000;
#SONGFILENAME:Songs/Definitive Keyboard Megapack/Heart Of Witch(typeMARS)/Heart Of Witch.sm;
#HASMUSIC:1;
#HASBANNER:1;
#MUSICLENGTH:95.067;
// end cache tags

//---------------dance-single - ----------------
#NOTES:
     dance-single:
     :
     Hard:
     12:
     1.000,1.000,1.000,1.000,1.000,777.000,148.000,103.000,0.000,0.000:

0000
0000
0000
0000
0000
0000
0000
0000
0000
0000
0000
0000
1000
0100
0010
0001
,
0110
0000
1000
0000
0001
0010
0100
1000
0001
0000
0100
0000
0010
0000
1000
0000
,
0002
0003
0200
0300
0020
0030
2000
3000
0200
0302
0023
2030
3001
0010
0100
0010
,
1001
0000
0100
0000
0010
1000
0100
0010
0001
0000
0100
0000
0010
0000
1000
0000
,
0200
0301
2000
3100
0020
0031
0200
1300
0002
0013
0200
1300
0020
0031
2000
3100
,
1001
0000
0100
0001
0100
0000
0110
0000
0010
1000
0010
0000
1100
0000
1000
0001
,
1000
0000
0110
0000
0001
0100
0001
0000
1010
0001
0100
0010
1001
0000
0010
0100
,
1001
0000
0010
0001
0100
0000
1100
0000
1000
0100
0010
0000
0011
0000
0001
0100
,
1000
0000
1001
0000
0010
0001
0100
0000
0110
0000
0010
1000
0110
0000
0010
0001
,
0220
0330
2200
3300
2200
3300
0022
0033
0202
0303
0202
0303
2002
3003
0010
0100
,
0022
0033
0202
0303
0202
0303
2020
3030
2200
3300
2200
3300
2002
3003
0010
0100
,
2002
3003
0220
0330
0220
0330
2002
3003
0220
0330
0220
0330
1001
0000
0010
0100
,
1001
0000
0100
0000
0011
0100
1000
0100
0011
0100
1000
0100
0011
0100
1000
0100
,
0022
0033
2002
3003
2002
3003
2020
3030
2002
3003
2002
3003
0220
0330
0001
0100
,
2020
3030
0220
0330
0220
0330
0022
0033
0220
0330
0220
0330
2002
3003
0100
0010
,
1001
0010
0100
1000
0100
0010
1001
0010
2200
3300
2200
3300
2002
3003
0010
0100
,
1001
0000
0010
0000
1100
0010
0001
0010
1100
0010
0001
0010
1100
0010
0001
0010
,
1200
0000
1300
0000
0001
0010
0100
1000
0001
0100
0010
1000
0001
0010
0100
0010
,
0001
0100
1000
0100
0001
1000
0010
0100
0001
0010
1000
0100
0010
0001
0100
1000
,
0102
0000
1003
0000
1000
0100
0010
0001
1000
0010
0100
0001
1000
0100
0010
0100
,
1000
0100
0001
0100
1000
0010
0001
0010
1000
0010
0001
0100
1000
0100
0001
0010
,
2100
0000
3001
0000
0010
0001
0100
1000
0100
0001
0010
1000
0010
0001
0100
1000
,
0100
0001
0010
1000
0100
0010
1000
0001
0100
0010
1000
0001
0100
0010
0001
0010
,
2100
0000
3001
0000
0100
0010
1000
0100
0010
0001
0010
0001
0100
1000
0100
0010
,
0100
1000
0010
0001
0100
0010
1000
0001
0100
0010
0100
1000
0010
0001
0100
0010
,
1001
0000
0101
0000
0010
0000
1000
0000
0001
0010
0100
1000
0010
0001
0100
1000
,
0010
0000
0100
0000
0001
0000
1000
0000
0010
0000
0100
0001
1000
0010
0100
0001
,
1100
0000
0110
0000
0001
0000
0100
0000
0010
1000
0100
0010
0001
0010
0100
1000
,
0001
0000
0100
0000
0010
0100
1000
0010
0100
0001
0100
1000
0010
0001
0100
0010
,
1001
0000
0101
0000
0010
0000
1000
0000
0010
0001
0100
0010
1000
0100
0010
0001
,
0100
0000
0010
0000
0001
0000
0100
0000
0010
0000
1000
0100
0010
0001
0100
1000
,
0110
0000
0101
0000
0010
0000
1000
0100
0010
0001
0010
0001
0100
1000
0100
1000
,
0010
0000
0100
0000
0001
1000
0010
0100
0001
1000
0010
0100
0001
1000
0010
0100
,
0011
0110
1100
0110
0011
0110
1100
0110
,
1010
0110
0101
0110
1010
0110
0101
0110
,
1010
0001
0010
0001
1000
0010
0100
0010
1000
0001
0100
0001
1000
0010
0100
0010
,
0001
1000
0100
1000
0010
0001
0100
0001
1000
0010
0100
0010
0001
1000
0100
1000
,
0011
1000
0101
1000
0101
0000
0110
0000
1100
0000
1100
0000
1001
0000
0010
0100
,
1010
0001
1100
0001
1100
0000
0110
0000
0101
0000
0101
0000
1010
0000
0001
0100
,
0011
1000
0101
1000
0101
0000
0110
0000
1100
0000
1100
0000
1001
0000
0010
0100
,
0010
0000
1000
0000
0011
0100
1000
0100
0011
0100
1000
0100
0011
0100
1000
0100
,
1010
0001
1100
0001
1100
0000
0110
0000
0101
0000
0101
0000
0110
0000
1000
0100
,
0011
0100
0011
0100
1001
0000
0110
0000
0101
0000
0101
0000
1001
0000
0010
0100
,
0011
1100
0011
1100
0011
0100
1000
0010
0101
0000
0101
0000
1001
0000
0010
0100
,
1001
0000
0100
0000
1100
0010
0001
0010
1100
0010
0001
0010
1100
0010
0001
0010
,
1100
0001
0100
0010
1000
0100
0010
0001
0010
0100
0010
0001
0100
1000
0100
0010
,
0001
0010
0100
0010
0001
0100
1000
0100
0001
0100
1000
0100
0001
0010
1000
0010
,
0001
0100
0010
1000
0100
0010
0001
0010
0100
0010
0001
0100
1000
0100
0001
0010
,
1000
0100
0010
0001
0010
0100
0010
0001
0100
1000
0100
0010
0001
0010
1000
0100
,
0001
0100
1000
0010
0001
0100
0010
0001
0100
1000
0100
0010
0001
0100
1000
0010
,
0001
1000
0100
0001
0010
1000
0010
0001
0100
0010
0001
1000
0100
0010
0001
0100
,
1000
0010
1000
0001
1000
0100
1000
0010
0001
0100
0001
1000
0001
0100
0001
0010
,
0100
0010
0100
0001
0100
1000
0100
0001
0010
1000
0010
0100
0010
0001
0010
0100
,
1002
0000
0103
0000
0010
1000
0100
0001
0010
1000
0100
0001
0010
1000
0100
0001
,
0010
0001
0100
1000
0010
0001
0100
1000
0010
0001
0100
1000
0010
0001
0100
1000
,
0120
0000
1030
0000
0001
0010
0100
1000
0001
0010
0100
1000
0001
0010
0100
1000
,
0001
0100
0010
1000
0001
0100
0010
1000
0001
0100
0010
1000
0001
0100
0010
1000
,
0102
0000
1003
0000
0010
1000
0100
0010
0001
0100
0010
1000
0100
0001
0100
1000
,
0010
0001
0100
0010
1000
0100
0001
0100
1000
0010
0001
0100
1000
0010
0100
0001
,
2200
3300
0010
0000
0001
0100
0001
0100
2020
3030
0100
0000
0001
1000
0001
1000
,
0220
0000
0000
0000
,
0330
0000
0000
0000
;
