#TITLE:Gleam in the Dark;
#SUBTITLE:;
#ARTIST:STM;
#TITLETRANSLIT:;
#SUBTITLETRANSLIT:;
#ARTISTTRANSLIT:;
#CREDIT:;
#BANNER:Gleam in the Dark BN.png;
#BACKGROUND:Gleam in the Dark BG.png;
#LYRICSPATH:;
#CDTITLE:!kilgacdtitle.png;
#MUSIC:Gleam in the Dark.mp3;
#OFFSET:1.175;
#SAMPLESTART:51.600;
#SAMPLELENGTH:12.800;
#SELECTABLE:YES;
#BPMS:0.000=150.000;
#STOPS:;
#BGCHANGES:;
// cache tags:
#FIRSTBEAT:4.000;
#LASTBEAT:260.000;
#SONGFILENAME:Songs/Keyboard Collaboration II/Kilgamayan - Gleam in the Dark/Gleam in the Dark.sm;
#HASMUSIC:1;
#HASBANNER:1;
#MUSICLENGTH:107.630;
// end cache tags

//---------------dance-single - ----------------
#NOTES:
     dance-single:
     :
     Hard:
     11:
     1.000,1.000,0.576,0.288,1.000,889.000,62.000,31.000,0.000,5.000:  // measure 1
0000
0000
0000
0000
,  // measure 2
0110
0000
0000
0000
0101
0000
0000
0000
1100
0000
0000
0010
0101
0000
0100
0000
,  // measure 3
0110
0000
0000
0000
1010
0000
0000
0000
0011
0000
0000
0100
1010
0000
0010
0000
,  // measure 4
1000
0100
0010
0100
0000
0100
0001
1000
0001
0010
0100
1010
0000
0000
0010
0100
,  // measure 5
0010
0001
1000
0001
0000
1000
0100
0010
0001
0010
0100
1001
0000
0000
0110
0000
,  // measure 6
1001
0000
0000
0000
0101
0000
0000
0000
1010
0000
0000
1000
0101
0000
0010
0000
,  // measure 7
1001
0000
0000
0000
1100
0000
0000
0000
0011
0000
0000
0010
1100
0000
0001
0000
,  // measure 8
0100
0001
1000
0001
0000
0010
0100
1000
0100
0010
1000
0101
0000
0000
0010
0100
,  // measure 9
1000
0001
1000
0010
0000
1000
0001
1000
0010
1000
0100
0011
0100
0010
0100
0010
,  // measure 10
2000
0000
0000
0100
0001
0000
0010
0000
0010
0000
0000
0001
0100
0000
0010
0000
,  // measure 11
3020
0000
0000
0100
1000
0000
0100
0000
0230
0000
0000
0010
0001
0000
0010
0000
,  // measure 12
0302
0000
0000
1000
0100
0000
1000
0000
0013
0100
1000
0100
1000
0001
0100
0001
,  // measure 13
0010
0100
1000
0100
0010
0001
0010
0100
1000
0010
0100
0010
0100
0001
0010
0100
,  // measure 14
0010
1000
0100
0010
0001
0100
0010
0100
1000
0001
0100
0010
0100
0001
0100
1000
,  // measure 15
0100
0001
1000
0100
1000
0100
0010
0100
0010
0001
0010
0100
0010
0001
0010
0001
,  // measure 16
1000
0100
0010
0001
1000
0001
1000
0100
0010
0100
0010
0001
1000
0100
0010
0001
,  // measure 17
0010
0100
1000
0100
1000
0001
0010
0100
0010
0100
1000
0001
1000
0001
0010
0100
,  // measure 18
2001
0100
0010
3000
0201
0000
0010
0300
0012
0000
0000
1000
0100
0000
1000
0000
,  // measure 19
0010
0000
0000
0100
0010
0000
0100
0003
1000
0001
1000
0100
0010
0001
0010
0100
,  // measure 20
1000
0100
0010
0100
1000
0100
0010
0100
1000
0100
0010
0100
1000
0100
0010
0100
,  // measure 21
1000
0100
0010
0100
1000
0100
0010
0100
1000
0001
0010
0001
0010
0100
1000
0100
,  // measure 22
1002
0000
0000
0010
1000
0000
0010
0000
0100
0000
0000
1000
0100
0000
0010
0000
,  // measure 23
2013
0000
0000
0100
0001
0000
0010
0000
0100
0000
0000
0001
0010
0000
0100
0000
,  // measure 24
3001
0010
0100
0010
0001
0010
0100
0010
0001
0010
0100
0010
0001
0010
0100
0010
,  // measure 25
0001
0100
1000
0100
0001
0100
1000
0100
0001
0010
1000
0010
0001
0010
1000
0010
,  // measure 26
2001
0000
0000
3201
0000
0000
1302
0000
0100
0000
0000
1000
0010
0000
0100
0000
,  // measure 27
1003
0100
0010
0100
1000
0100
0010
0100
1000
0001
0010
0001
1000
0001
0010
0100
,  // measure 28
0010
1000
0100
1000
0010
1000
0100
1000
0010
1000
0100
1000
0010
1000
0100
1000
,  // measure 29
0010
1000
0100
1000
0010
1000
0100
1000
0010
0001
0010
0100
1000
0100
0010
0001
,  // measure 30
2100
0000
0000
0001
0010
0000
0001
0000
0100
0000
0000
0010
0100
0000
0001
0000
,  // measure 31
3001
0010
0100
0010
0001
0010
0100
0010
0001
0010
0100
0010
0001
0010
0100
0010
,  // measure 32
0100
0001
0010
0001
0100
0001
0010
0001
0100
0001
0010
0001
0100
0001
0010
0001
,  // measure 33
0100
0010
1000
0010
0100
0010
1000
0010
0010
0100
0001
0100
0010
0100
0001
0100
,  // measure 34
1001
0000
0010
0100
1000
0001
1000
0010
0100
0010
1000
0100
0010
0001
0010
0001
,  // measure 35
1000
0010
1000
0100
1000
0100
0010
0100
1001
0000
0001
0010
0100
1000
0001
0010
,  // measure 36
0001
1000
0100
0010
0001
1000
0010
0100
0010
1000
0001
1000
0100
0010
0001
0100
,  // measure 37
0001
0000
0000
0010
0000
0000
0001
0000
0000
0100
0000
0000
0010
0000
0000
1000
0000
0000
0001
0000
0000
0010
0000
0000
0100
0000
0000
0010
0000
0000
0001
0000
0000
1000
0000
0000
0001
0000
0010
0000
0100
0000
1000
0000
0001
0000
0010
0000
,  // measure 38
0100
0010
0001
1000
0100
0010
0001
0100
0010
0100
0001
1000
0010
1000
0100
1000
,  // measure 39
0001
0010
0100
0010
0001
1000
0100
0010
0001
0010
0001
1000
0100
0010
0001
0010
,  // measure 40
0100
1000
0010
0100
0010
0100
0001
1000
0010
1000
0001
0010
0100
0010
0100
1000
,  // measure 41
0001
0100
0010
0100
0010
1000
0100
0010
0001
0010
0100
1000
0100
0010
0001
0010
,  // measure 42
2001
0000
0000
3000
0201
0000
0000
0300
0011
0100
1000
0001
1000
0010
1000
0100
,  // measure 43
0010
0001
0100
0010
0100
0001
1000
0100
1001
0000
0010
0100
1000
0001
0010
0100
,  // measure 44
1002
0000
0003
1020
0000
0030
1100
0010
0001
1000
0010
1000
0100
0010
0001
0100
,  // measure 45
0010
0000
0000
0100
0000
0000
0010
0000
0000
1000
0000
0000
0001
0000
0000
0100
0000
0000
1000
0000
0000
0100
0000
0000
0001
0000
0000
1000
0000
0000
0100
0000
0000
1000
0000
0000
0001
0000
0010
0000
0100
0000
1000
0000
0010
0000
0100
0000
,  // measure 46
2001
0000
3000
0102
0000
0003
1010
0100
0010
0100
1000
0001
1000
0001
0100
0001
,  // measure 47
1000
0010
1000
0100
0010
0100
0010
0100
0001
0010
0100
1000
0100
1000
0001
0010
,  // measure 48
0100
1000
0100
0010
0001
0010
0100
1000
0001
1000
0001
1000
0100
1000
0100
0010
,  // measure 49
0001
0010
0100
0010
0100
0010
0001
0100
0001
1000
0010
0100
0010
1000
0100
0010
,  // measure 50
0202
0000
0303
0220
0000
0330
0011
0100
1000
0001
0100
1000
0001
0010
1000
0100
,  // measure 51
0010
0001
1000
0100
0010
0001
0100
0001
0100
0001
0010
0100
1000
0100
0010
0100
,  // measure 52
2020
0000
3030
0220
0000
0330
1100
0010
0001
0010
0100
1000
0001
0010
0100
0010
,  // measure 53
0001
0010
0100
1000
0001
0010
0100
1000
0010
0100
0010
0100
1000
0010
1000
0100
,  // measure 54
1001
0100
0010
0001
1000
0100
0010
0001
0100
0010
0100
0010
0001
1000
0001
1000
,  // measure 55
0101
0010
0100
1000
0100
0010
0001
0010
0100
1000
0100
0010
0001
0010
0100
1000
,  // measure 56
0011
0100
0001
0100
0001
0010
0001
0010
0100
1000
0100
0010
0100
1000
0001
1000
,  // measure 57
0110
1000
0001
0010
0100
1000
0001
0010
0100
1000
0001
0010
0100
1000
0100
0010
,  // measure 58
1001
0010
0100
1010
0100
0010
0101
0010
0100
1000
0100
0010
0001
1000
0010
1000
,  // measure 59
0100
1000
0010
1000
0100
0010
0001
0010
0100
0010
0001
1000
0010
1000
0002
2003
,  // measure 60
3101
0010
0100
1010
0100
0010
1001
0100
0010
0001
1000
0100
0010
0100
0010
0100
,  // measure 61
0001
0010
0100
1000
0001
0010
0100
1000
0001
0010
0100
1000
0001
0010
2000
3200
,  // measure 62
0311
1000
0100
0010
0100
1000
0001
0010
0001
0010
0100
1000
0100
0010
0001
0010
,  // measure 63
0001
0010
0100
1000
0001
0010
0100
1000
0001
0010
0100
1000
0001
0010
0100
0010
,  // measure 64
1001
0010
0100
0001
0100
0010
0001
0010
0100
1000
0001
1000
0010
1000
0100
1000
,  // measure 65
0110
1000
0001
0010
0100
1000
0001
0010
0100
1000
0001
0010
0100
1000
0001
0010
,  // measure 66
1001
0000
0000
0000
;
