#TITLE:Winter White;
#SUBTITLE:;
#ARTIST:DJ Sharpnel;
#TITLETRANSLIT:;
#SUBTITLETRANSLIT:;
#ARTISTTRANSLIT:;
#CREDIT:;
#BANNER:winter white bn.png;
#BACKGROUND:winter white bg.png;
#LYRICSPATH:;
#CDTITLE:;
#MUSIC:12 Winter White.ogg;
#OFFSET:-0.016;
#SAMPLESTART:73.358;
#SAMPLELENGTH:21.333;
#SELECTABLE:YES;
#DISPLAYBPM:180.000;
#BPMS:0.000=180.000;
#STOPS:;
#BGCHANGES:;
// cache tags:
#FIRSTBEAT:16.000;
#LASTBEAT:298.000;
#SONGFILENAME:Songs/SHARPNELSTREAMZ v2/Winter White/winter white.sm;
#HASMUSIC:1;
#HASBANNER:1;
#MUSICLENGTH:104.045;
// end cache tags

//---------------dance-single - 13- (TYLR)----------------
#NOTES:
     dance-single:
     13- (TYLR):
     Challenge:
     13:
     1.000,1.000,0.615,0.673,1.000,747.000,64.000,70.000,0.000,0.000:
0000
0000
0000
0000
,
0000
0000
0000
0000
,
0000
0000
0000
0000
,
0000
0000
0000
0000
,
0001
0000
2000
3000
1100
0000
0000
0010
0001
0000
2000
3000
1100
0000
0100
0000
,
0010
0000
0002
0003
0101
0000
0000
0010
1000
0000
0002
0003
0101
0000
0100
0000
,
0010
0000
2000
3000
1100
0000
0000
0010
0001
0000
2000
3000
1100
0000
0100
0000
,
0010
0000
0002
0003
0101
0000
0000
0010
1000
0000
0002
0003
0101
0000
0100
0000
,
0001
0000
0020
0030
1100
0000
0000
1000
0001
0000
0020
0030
1100
0000
1000
0000
,
0001
0000
0200
0300
1010
0000
0000
1000
0001
0000
0200
0300
1010
0000
1000
0000
,
0100
0000
0020
0030
1001
0000
0000
0001
0010
0000
0200
0300
1001
0000
1000
0000
,
0010
0000
0200
0300
1001
0000
0000
0001
0010
0000
0200
0300
1001
0000
1000
0000
,
0001
0000
2000
3000
1010
0000
0000
0100
0001
0000
2000
3000
1100
0000
0100
0000
,
0010
0000
0002
0003
0101
0000
0000
0010
1000
0000
0002
0003
0011
0000
0010
0000
,
0100
0000
2000
3000
1010
0000
0000
0100
0001
0000
2000
3000
1100
0000
0100
0000
,
0010
0000
0002
0003
0101
0000
0000
0010
1000
0000
0002
0003
0011
0000
0010
0000
,
0001
0000
2000
3000
1010
0000
0000
0010
0100
0000
0002
0003
1001
0000
1000
0000
,
0100
0000
0020
0030
0011
0000
0000
0001
1000
0000
0020
0030
0110
0000
0100
0000
,
0001
0000
2000
3000
1001
0000
0000
0001
0010
0000
0200
0300
1001
0000
1000
0000
,
0010
0000
0200
0300
0101
0000
0000
0001
1000
0000
0200
0300
0110
0000
0010
0000
,
0001
0000
2000
3000
1010
0000
0000
0100
0001
0000
2000
3000
1010
0000
0010
0000
,
0100
0000
0002
0003
0011
0000
0000
0100
1000
0000
0002
0003
0011
0000
0010
0000
,
0100
0000
2000
3000
1010
0000
0000
0100
0001
0000
2000
3000
1010
0000
0010
0000
,
0100
0000
0002
0003
0011
0000
0000
0100
1000
0000
0002
0003
0011
0000
0010
0000
,
0001
0000
0200
0300
1010
0000
0000
1000
0001
0000
0200
0300
1010
0000
1000
0000
,
0001
0000
0020
0030
1100
0000
0000
1000
0001
0000
0020
0030
1100
0000
1000
0000
,
0010
0000
0200
0300
1001
0000
0000
0001
0100
0000
0020
0030
1001
0000
1000
0000
,
0100
0000
0020
0030
1001
0000
0000
0001
0100
0000
0020
0030
1001
0000
1000
0000
,
0001
0000
2000
3000
1100
0000
0000
0010
0001
0000
2000
3000
1010
0000
0010
0000
,
0100
0000
0002
0003
0011
0000
0000
0100
1000
0000
0002
0003
0101
0000
0100
0000
,
0010
0000
2000
3000
1100
0000
0000
0010
0001
0000
2000
3000
1010
0000
0010
0000
,
0100
0000
0002
0003
0011
0000
0000
0100
1000
0000
0002
0003
0011
0000
0010
0000
,
0000
0000
0000
1000
,
0010
0000
0200
0300
0101
0000
0000
0001
1000
0000
0200
0300
0110
0000
0010
0000
,
0001
0000
2000
3000
1010
0000
0000
0010
0100
0000
0002
0003
1001
0000
1000
0000
,
0100
0000
0020
0030
0011
0000
0000
0001
0100
0000
0020
0030
1010
0000
1000
0000
,
0001
0000
0020
0030
0110
0000
0000
0100
1000
0000
0002
0003
1000
0010
1000
0010
,
0100
0001
1000
0001
0100
0001
1000
0001
0010
0100
0010
0001
1000
0010
1000
0001
,
0010
0100
0010
0001
1000
0001
0100
0010
1000
0010
1000
0001
0010
0100
1000
0001
,
1000
0010
0100
0010
1000
0010
0100
0001
1000
0100
1000
0001
0010
0100
0010
0001
,
1000
0010
0100
0001
0100
0010
1000
0001
0010
0100
1000
0001
0010
0001
1000
0001
,
0100
0010
1000
0010
0100
0010
1000
0001
0100
0001
1000
0100
1000
0001
0010
0001
,
0100
0010
0100
0001
1000
0010
1000
0001
0010
0100
0010
0001
1000
0001
0010
0100
,
1000
0001
0100
0010
1000
0010
0100
0001
0100
0001
1000
0100
0010
0001
1000
0001
,
0100
0010
0100
0001
1000
0100
0010
0001
0010
0001
1000
0001
0010
0100
1000
0001
,
0010
0001
1000
0001
0010
0001
1000
0001
0100
0010
0100
0001
1000
0100
1000
0001
,
0100
0010
0100
0001
1000
0001
0010
0100
1000
0100
1000
0001
0100
0010
1000
0001
,
1000
0100
0010
0100
1000
0001
0100
0001
1000
0010
1000
0001
0010
0100
0010
0001
,
1000
0100
1000
0001
0100
0010
1000
0001
0010
0100
0010
0100
1000
0100
0010
0001
,
1000
0001
0100
0010
1000
0010
0100
0001
1000
0100
1000
0001
0010
0001
1000
0010
,
0100
0001
0100
0010
1000
0001
0010
0001
0100
0010
0100
0001
1000
0100
0010
0001
,
0200
0000
0000
0000
,
0000
0000
0000
0000
,
0302
0000
0000
0000
,
0203
0000
0000
0000
0320
1030
1001
0000
,
0001
0010
0100
1000
0001
0010
0100
1000
0001
0010
0100
1000
0001
0100
0001
0010
,
0100
0010
0001
1000
0001
0100
0010
1000
0001
1000
0010
0100
0001
1000
0100
0010
,
0001
1000
0001
0010
0100
0010
0001
1000
0001
0010
0100
1000
0010
0100
0010
1000
,
0001
0010
0100
1000
0001
0100
0001
1000
0100
0010
0100
0010
0001
0010
0100
1000
,
0001
0100
0010
1000
0001
1000
0010
0100
0001
1000
0010
1000
0001
0010
0001
1000
,
0010
0100
0001
0100
0010
1000
0001
1000
0100
0010
0100
1000
0010
0100
0001
0100
,
0010
1000
0001
0010
0100
1000
0001
0100
0001
1000
0010
0100
0001
1000
0001
0100
,
0010
1000
0001
1000
0100
0010
0100
1000
0001
0010
0001
0010
0100
1000
0001
0100
,
0001
0010
0100
1000
0001
0010
0100
1000
0001
0010
0100
1000
0001
0100
0001
0010
,
0100
0010
0001
1000
0001
0100
0010
1000
0001
1000
0010
0100
0001
1000
0100
1000
,
0001
0010
0100
1000
0001
1000
0100
0010
0001
0010
0100
1000
0010
0100
0001
1000
,
0100
0010
0100
1000
0001
0010
0001
1000
0001
0100
0001
0100
0010
1000
0001
0010
,
0100
1000
0100
0010
0001
1000
0001
0100
0010
1000
0010
1000
0100
0010
0001
1000
,
0001
0100
0010
1000
0001
1000
0010
0100
0001
1000
0001
1000
0100
0010
0001
1000
,
0001
0100
0001
1000
0100
0010
0100
1000
0001
0100
0001
0100
0010
1000
0100
0010
,
0001
1000
0001
0100
0010
0100
0001
1000
0100
0010
0100
0010
0001
1000
0010
0100
,
0002
0000
0000
2000
0000
0000
0000
0000
,
0000
0000
0000
0000
,
0000
0000
0000
0000
,
0000
0000
3003
0000
;

//---------------dance-single - 10 (TYLR)----------------
#NOTES:
     dance-single:
     10 (TYLR):
     Hard:
     10:
     0.917,0.823,0.077,0.673,0.596,590.000,8.000,70.000,0.000,0.000:
0000
0000
0000
0000
,
0000
0000
0000
0000
,
0000
0000
0000
0000
,
0000
0000
0000
0000
,
1001
0000
0002
0000
0103
0000
0000
0010
1000
0000
0002
0000
0103
0000
0010
0000
,
1000
0000
0002
0000
0013
0000
0000
0100
1000
0000
0002
0000
0013
0000
0100
0000
,
1000
0000
0002
0000
0103
0000
0000
0010
1000
0000
0002
0000
0103
0000
0010
0000
,
1000
0000
0002
0000
0013
0000
0000
0100
1000
0000
0002
0000
0013
0000
0001
0000
,
1001
0000
2000
0000
3010
0000
0000
0100
0001
0000
2000
0000
3010
0000
0100
0000
,
0001
0000
2000
0000
3100
0000
0000
0010
0001
0000
2000
0000
3100
0000
0010
0000
,
0001
0000
2000
0000
3010
0000
0000
0100
0001
0000
2000
0000
3010
0000
0100
0000
,
0001
0000
2000
0000
3100
0000
0000
0010
0001
0000
2000
0000
3100
0000
1000
0000
,
1001
0000
0002
0000
0103
0000
0000
0010
1000
0000
0002
0000
0013
0000
0100
0000
,
1000
0000
0002
0000
0103
0000
0000
0010
1000
0000
0002
0000
0013
0000
0100
0000
,
1000
0000
0020
0000
0130
0000
0000
0001
1000
0000
0200
0000
0310
0000
0001
0000
,
1000
0000
0020
0000
0130
0000
0000
0001
1000
0000
0200
0000
0310
0000
0001
0000
,
1001
0000
2000
0000
3010
0000
0000
0100
0001
0000
2000
0000
3100
0000
0010
0000
,
0001
0000
2000
0000
3010
0000
0000
0100
0001
0000
2000
0000
3100
0000
0010
0000
,
0001
0000
0200
0000
0310
0000
0000
1000
0001
0000
0020
0000
0130
0000
1000
0000
,
0001
0000
0200
0000
0310
0000
0000
1000
0001
0000
0020
0000
0130
0000
1000
0000
,
1001
0000
0002
0000
0103
0000
0000
0010
1000
0000
0002
0000
0103
0000
0010
0000
,
1000
0000
0002
0000
0013
0000
0000
0100
1000
0000
0002
0000
0013
0000
0100
0000
,
1000
0000
0002
0000
0103
0000
0000
0010
1000
0000
0002
0000
0103
0000
0010
0000
,
1000
0000
0002
0000
0013
0000
0000
0100
1000
0000
0002
0000
0013
0000
0001
0000
,
1001
0000
2000
0000
3010
0000
0000
0100
0001
0000
2000
0000
3010
0000
0100
0000
,
0001
0000
2000
0000
3100
0000
0000
0010
0001
0000
2000
0000
3100
0000
0010
0000
,
0001
0000
2000
0000
3010
0000
0000
0100
0001
0000
2000
0000
3010
0000
0100
0000
,
0001
0000
2000
0000
3100
0000
0000
0010
0001
0000
2000
0000
3100
0000
1000
0000
,
1001
0000
0002
0000
0103
0000
0000
0010
1000
0000
0002
0000
0013
0000
0100
0000
,
1000
0000
0002
0000
0103
0000
0000
0010
1000
0000
0002
0000
0013
0000
0100
0000
,
1000
0000
0020
0000
0130
0000
0000
0001
1000
0000
0200
0000
0310
0000
0001
0000
,
0100
0000
0020
0000
1030
0000
0000
0001
1000
0000
0200
0000
0310
0000
0001
0000
,
0000
0000
0000
1000
,
0001
0000
2000
0000
3010
0000
0000
0100
0001
0000
2000
0000
3100
0000
0010
0000
,
0001
0000
0200
0000
0310
0000
0000
1000
0001
0000
0020
0000
0130
0000
1000
0000
,
0001
0000
0200
0000
0310
0000
0000
1000
0001
0000
0020
0000
0130
0000
1000
0000
,
0001
0000
0200
0000
0310
0000
0000
1000
0001
0000
0020
0000
0130
1000
0100
1000
,
0001
0000
0100
0000
0010
0000
1000
0001
1000
0001
0010
0100
1000
0000
0000
0000
,
0010
0000
0100
0000
0001
0000
1000
0100
1000
0100
0010
0001
1000
0000
0010
0000
,
0100
0000
0001
0000
0010
0000
0100
1000
0100
1000
0001
0100
0010
0000
0000
0000
,
1000
0000
0001
0000
0010
0000
0100
1000
0100
1000
0001
0100
0010
0000
1000
0000
,
0100
0000
0010
0000
0001
0000
1000
0001
1000
0001
0100
0010
1000
0000
0000
0000
,
0100
0000
0010
0000
0001
0000
1000
0010
1000
0010
0100
0001
1000
0000
0100
0000
,
0010
0000
0001
0000
0100
0000
0010
1000
0010
1000
0001
0010
0100
0000
0000
0000
,
1000
0000
0001
0000
0100
0000
0010
1000
0010
1000
0001
0010
0100
0000
1000
0000
,
0001
0000
0100
0000
0010
0000
1000
0001
1000
0001
0010
0100
1000
0000
0000
0000
,
0010
0000
0100
0000
0001
0000
1000
0100
1000
0100
0010
0001
1000
0000
0010
0000
,
0100
0000
0001
0000
0010
0000
0100
1000
0100
1000
0001
0100
0010
0000
0000
0000
,
1000
0000
0001
0000
0010
0000
0100
1000
0100
1000
0001
0100
0010
0000
1000
0000
,
0100
0000
0010
0000
0001
0000
1000
0001
1000
0001
0100
0010
1000
0000
0000
0000
,
0100
0000
0010
0000
0001
0000
1000
0010
1000
0010
0100
0001
1000
0000
0100
0000
,
0020
0000
0000
0000
,
0000
0000
0000
0000
,
0032
0000
0000
0000
,
0203
0000
0000
0000
0320
1030
0001
0000
,
1001
0000
0001
0000
0010
0000
0100
1000
0100
1000
0001
0100
0010
0000
1000
0000
,
0100
0000
0010
0000
0001
0000
1000
0010
1000
0010
0100
0001
1000
0000
0100
0000
,
0010
0000
0001
0000
0100
0000
0010
1000
0010
1000
0001
0010
0100
0000
1000
0000
,
0001
0000
0100
0000
0010
0000
1000
0001
1000
0001
0010
0100
1000
0000
0001
0000
,
0100
0000
0010
0000
1000
0000
0001
0010
0001
0010
0100
1000
0001
0000
0100
0000
,
0010
0000
1000
0000
0100
0000
0010
0001
0010
0001
1000
0010
0100
0000
0001
0000
,
1000
0000
0100
0000
0010
0000
0001
1000
0001
1000
0010
0100
0001
0000
1000
0000
,
0100
0000
0010
0000
0001
0000
1000
0010
1000
0010
0100
0001
1000
0000
0100
0000
,
0010
0000
0001
0000
0100
0000
0010
1000
0010
1000
0001
0010
0100
0000
1000
0000
,
0001
0000
0100
0000
0010
0000
1000
0001
1000
0001
0010
0100
1000
0000
0001
0000
,
0100
0000
0010
0000
1000
0000
0001
0010
0001
0010
0100
1000
0001
0000
0100
0000
,
0001
0000
1000
0000
0100
0000
0010
0001
0010
0001
1000
0010
0100
0000
0001
0000
,
0010
0000
0100
0000
1000
0000
0001
1000
0001
1000
0010
0100
0001
0000
0010
0000
,
0100
0000
1000
0000
0010
0000
0100
0001
0100
0001
1000
0100
0010
0000
0001
0000
,
1000
0000
0010
0000
0100
0000
0001
1000
0001
1000
0100
0010
0001
0000
1000
0000
,
0001
0000
0100
0000
0010
0000
1000
0001
1000
0001
0010
0100
1000
0000
0001
0000
,
2000
0000
0000
0002
0000
0000
0000
0000
,
0000
0000
0000
0000
,
0000
0000
0000
0000
,
0000
0000
3003
0000
;
