#TITLE:Lost & Damned;
#SUBTITLE:Epica (2003);
#ARTIST:Kamelot;
#TITLETRANSLIT:;
#SUBTITLETRANSLIT:;
#ARTISTTRANSLIT:;
#CREDIT:;
#BANNER:Lost and Damned-banner.png;
#BACKGROUND:Lost and Damned-bg.png;
#LYRICSPATH:;
#CDTITLE:omega_cdtitle.png;
#MUSIC:Lost & Damned.mp3;
#OFFSET:1.717;
#SAMPLESTART:48.240;
#SAMPLELENGTH:12.000;
#SELECTABLE:YES;
#BPMS:0.000=60.000,42.000=120.000,98.000=60.000,130.000=120.000,170.000=60.000,202.000=120.000,306.000=60.000,326.000=120.000;
#STOPS:;
#BGCHANGES:;
// cache tags:
#FIRSTBEAT:5.250;
#LASTBEAT:460.500;
#SONGFILENAME:Songs/Astronomic Metal Collection 2/(OMEGAspike) Lost & Damned/Lost & Damned.sm;
#HASMUSIC:1;
#HASBANNER:1;
#MUSICLENGTH:295.398;
// end cache tags

//---------------dance-single - ----------------
#NOTES:
     dance-single:
     :
     Hard:
     10:
     0.936,0.955,1.000,0.186,1.000,1551.000,315.000,55.000,0.000,14.000:
0000
0000
0000
0000
,
0000
0000
0000
0000
0000
0000
0000
0000
0000
0000
0000
0000
0000
0000
0000
0000
0000
0000
0000
0000
0010
0100
0010
0100
0010
0000
0100
0000
0010
0000
0100
0000
0010
0000
0000
0000
0000
0000
0000
0000
0000
0000
0000
0000
0000
0000
0000
0000
0000
0000
0000
0000
0000
0000
0000
0000
0000
0000
0000
0000
0000
0000
0000
0000
,
0000
0000
0000
0000
0000
0000
0000
0000
0000
0000
0000
0000
0000
0000
0000
0000
0000
0000
0000
0000
0000
0000
0000
0000
0000
0000
0000
0000
0000
0000
0000
0000
0000
0000
0000
0000
0000
0000
0000
0000
0000
0000
0000
0000
0000
0000
0000
0000
0000
0000
0000
0000
0000
0000
0000
0000
0000
0000
0000
0000
0000
0000
0000
0000
0000
0000
1000
0000
0000
0000
0000
0000
0001
0000
0000
0000
0000
0000
0000
0000
0000
0000
0000
0000
1001
0000
0000
0000
0000
0000
0000
0000
0000
0000
0000
0000
1101
0000
0000
0000
0000
0000
0000
0000
0000
0000
0000
0000
0000
0000
0000
0000
0000
0000
0000
0000
0000
0000
0000
0000
0000
0000
0000
0000
0000
0000
0000
0000
0000
0000
0000
0000
0000
0000
0000
0000
0000
0000
0000
0000
0000
0000
0000
0000
1000
0000
0100
0000
0010
0000
0001
0000
0000
0000
0000
0000
0000
0000
0000
0000
0000
0000
0001
0000
0000
0000
0000
0000
0000
0000
0000
0000
0000
0000
0000
0000
0000
0000
0000
0000
0001
0000
0000
0000
0000
0000
0000
0000
0000
0000
0000
0000
,
0000
0000
0000
0000
0000
0000
0000
0000
1010
0000
0000
0000
0000
0000
0000
0000
0000
0000
0000
0000
0000
0000
0000
0000
0001
0000
0000
0000
0000
0000
0000
0000
0000
0000
0000
0000
0000
0000
0000
0000
0000
0000
0020
0000
0000
0000
0000
0000
0000
0000
0000
0000
0000
0000
0000
0000
0000
0000
0000
0000
0000
0000
0000
0000
0000
0000
0000
0000
0000
0000
0000
0000
0000
0000
0000
0000
0000
0000
0030
0000
0000
0000
0000
0000
0000
0000
0000
0000
1000
0000
0000
0000
0000
0000
0000
0000
0000
0000
0000
0000
0000
0000
0000
0000
1100
0000
0000
0000
0000
0000
0000
0000
0000
0000
0000
0000
0000
0000
0000
0000
1110
0000
0000
0000
0000
0000
0000
0000
0000
0000
0000
0000
0000
0000
0000
0000
1101
0000
0000
0000
0000
0000
0000
0000
0000
0000
0000
0000
0000
0000
0000
0000
1011
0000
0000
0000
0000
0000
0000
0000
0000
0000
0000
0000
0000
0000
0000
0000
0111
0000
0000
0000
0000
0000
0000
0000
0000
0000
0000
0000
0000
0000
0000
0000
0000
0000
0000
0000
0000
0000
0000
0000
,
0010
0000
0000
0000
0000
0000
0000
0000
0000
0000
0000
0000
0000
0000
0000
0000
0000
0000
0000
0000
0000
0000
0000
0000
0001
0000
0000
0000
0000
0000
0000
0000
0000
0000
0000
0000
0000
0000
0000
0000
0000
0000
0000
0000
0000
0000
0000
0000
1000
0000
0000
0000
0000
0000
0000
0000
0000
0000
0000
0000
0001
0000
0000
0000
0000
0000
1000
0000
0000
0000
0000
0000
0001
0000
0000
0000
0000
0000
0000
0000
0000
0000
0000
0000
1100
0000
0000
0000
0000
0000
0011
0000
0000
0000
0000
0000
1100
0000
0000
0010
0000
0000
0000
0000
0000
0000
0000
0000
0000
0000
0000
0000
0000
0000
0000
0000
0000
0000
0000
0000
0000
0000
0000
0000
0000
0000
0000
0000
0000
0000
0000
0000
0000
0000
0000
0000
0000
0000
0000
0000
1000
0000
0100
0000
0010
0000
0000
0000
0000
0000
0000
0000
0000
0000
0000
0000
0000
0000
0000
0000
0001
0000
0000
0000
0000
0000
0000
0000
0000
0000
0000
0000
0000
0000
0000
0000
0000
0000
0000
0000
0010
0000
0000
0000
0000
0000
0000
0000
0000
0000
0000
0000
,
0000
0000
0000
0000
1000
0000
0000
0000
0000
0000
0000
0000
0000
0000
0000
0000
0000
0000
0000
0000
0000
0000
0000
0000
0010
0000
0000
0000
0000
0000
0000
0000
0000
0000
0000
0000
0000
0000
0000
0000
0000
0000
0000
0100
0000
0000
0000
0000
0000
0000
0000
0000
0000
0000
0000
0000
0000
0000
0000
0000
0000
0000
0000
0000
0000
0000
0000
0000
0000
0000
0000
0000
0000
0000
0000
0000
0000
0000
0000
0000
0000
0000
0000
0000
0100
0000
0000
0000
0000
0000
0000
0000
0000
0000
0000
0000
1000
0000
0000
0000
0000
0000
0100
0000
0000
0000
0000
0000
0010
0000
0000
0000
0000
0000
0000
0000
0000
0000
0000
0000
0000
0000
0000
0000
0000
0000
0000
0000
0000
0000
0010
0000
0000
0000
0000
0000
0000
0000
0000
0000
0000
0000
0000
0000
0000
0000
0000
0000
0000
0000
0000
0000
0000
0000
0000
0000
0000
0000
0000
0000
0000
0000
0000
0000
0000
0000
0000
0000
0000
0000
0000
0000
0000
0000
0000
0000
0000
0000
0000
0000
1000
0000
0000
0000
0000
0000
0000
0000
0000
0000
0000
0000
,
0000
0100
0010
0000
0000
0000
0000
0000
0001
0000
0000
0000
0000
0000
0001
0000
0000
0000
0000
0000
0010
0000
0100
0000
0010
0000
0000
0000
1001
0000
0110
0000
1001
0000
0100
0000
0010
0000
0100
0000
0010
0000
0001
0000
0010
0000
0100
0000
0010
0000
0000
0000
0000
0000
0100
0000
0000
0000
0000
0000
1000
0000
0000
0000
,
0000
0000
0000
0000
0000
0000
0010
0000
0000
0000
0000
0000
0000
0000
0000
0000
0000
0000
0000
0000
0000
0000
0000
0000
0001
0000
0000
0000
0000
0000
0000
0000
0000
0000
0000
0000
0000
0000
0000
0000
0000
0000
0020
0000
0000
0000
0000
0000
0000
0000
0000
0000
0000
0000
0000
0000
0000
0000
0000
0000
0000
0000
0000
0000
0000
0000
0000
0000
0000
0000
0000
0000
0030
0000
0000
0000
0000
0000
0000
0000
0000
0000
0000
0000
0100
0000
0000
0000
0000
0000
0000
0000
0000
0000
0000
0000
0001
0000
0000
0000
0000
0000
0000
0000
0000
0000
0000
0000
0010
0000
0000
0000
0001
0000
0000
0000
0010
0000
0000
0000
0100
0000
0000
0000
0000
0000
0000
0000
0000
0000
0000
0000
1000
0000
0000
0000
0000
0000
0000
0000
0000
0000
0000
0000
0001
0000
0000
0000
0000
0000
0000
0000
0000
0000
0000
0000
0010
0000
0000
0000
0000
0000
0000
0000
0000
0000
0000
0000
0100
0000
0000
0000
0000
0000
0000
0000
0000
0000
0000
0000
1000
0000
0000
0000
0000
0000
0000
0000
0000
0000
0000
0000
,
0100
0000
0010
0000
0001
0000
0000
0000
0000
0000
0000
0000
0000
0000
0000
0000
0000
0000
0010
0000
0000
0000
0000
0000
0000
0000
0000
0000
0000
0000
0000
0000
0000
0000
0000
0000
0100
0000
0000
0000
0000
0000
0000
0000
0000
0000
0000
0000
0000
0000
0000
0000
0000
0000
0010
0000
0000
0000
0000
0000
0000
0000
0000
0000
0000
0000
0000
0000
0000
0000
0000
0000
0000
0000
0000
0000
0000
0000
0000
0000
0000
1000
0000
0000
0000
0000
0000
0000
0000
0000
0000
0000
0000
0000
0000
0000
1100
0000
0000
0000
0000
0000
0000
0000
0000
0000
0000
0000
0000
0000
0000
0000
0000
0000
0010
0000
0000
0000
0000
0000
0000
0000
0000
0000
0000
0000
0000
0000
0000
0000
0000
0000
0020
0000
0000
0000
0000
0000
0000
0000
0000
0000
0000
0000
0000
0000
0000
0000
0000
0000
0000
0000
0000
0000
0000
0000
0030
0000
0000
0000
0000
0000
0000
0000
0000
0000
0000
0000
0000
0000
0000
0000
0000
0000
0000
0000
0000
0000
0000
0000
0000
0000
0000
0000
0000
0000
0000
0000
0000
0000
0000
0000
,
0110
0000
0000
0001
0000
0000
0002
0000
0000
0000
0003
0010
0000
0000
0100
0000
1000
0000
0010
0000
0000
0010
0000
0000
1100
0000
1100
0000
0000
0000
0000
0000
,
1100
0001
0010
0001
0100
0010
0100
1000
1001
0000
0001
1000
1000
0010
1000
1000
,
0100
1000
1000
0010
1000
1000
0100
0010
1000
1000
0001
1000
1000
0010
1000
1000
,
0100
0000
1000
0000
1000
0000
0002
0000
0000
0000
0013
0100
2000
0000
3000
0000
1000
0000
1000
0000
0001
0000
1000
0000
1000
0000
0010
0000
1000
0000
1000
0000
,
0100
1000
1000
0010
1000
1000
0100
0010
1000
1000
0001
1000
1000
0010
1000
1000
,
0100
0000
1000
0000
1000
0100
0012
0000
0000
0000
0000
0000
0000
0000
0003
0000
0020
0000
0000
0000
0030
0000
0020
0000
0000
0000
0030
0000
0002
0000
0000
0000
,
0000
0000
0000
0000
0003
0000
0000
0000
0010
0001
0010
0000
0100
0000
1000
0000
0200
0000
0000
0000
0300
0000
0200
0000
0000
0000
0300
0000
0020
0000
0000
0000
,
0000
0000
0000
0000
0000
0000
0030
0000
0100
0010
0001
0100
0010
0001
0100
0010
,
1000
0010
0001
1000
0010
0001
0100
0010
1000
0100
0010
1000
0100
0010
2000
0000
,
0000
0000
0000
0000
0000
0000
0000
0000
0000
0000
3000
0000
0000
1000
0100
0010
0001
0000
0000
0000
0000
0000
0010
0000
0000
0000
0000
0000
0002
0000
0000
0000
,
0000
0000
0000
0003
0000
0000
1000
0000
0100
0000
0010
0000
0001
0000
0000
0010
0001
0010
0100
0000
0000
0010
0000
0000
,
0100
0000
0010
0000
0100
0000
1000
0000
0000
0100
0000
0000
0020
0000
0000
0000
0000
0000
0000
0000
0000
0030
0000
0000
0001
0000
0000
0010
0000
0000
0100
0000
0000
0001
0000
0000
0010
0000
0000
0100
0000
0000
0001
0000
0000
0100
0000
0000
,
0010
0100
1000
0010
0100
1000
0010
1000
0001
0010
0100
1000
0010
0001
0200
0000
,
0000
0000
0000
0000
0000
0000
0300
0000
0001
0010
0100
1000
0001
0010
0100
1000
,
0001
0010
0100
1000
0100
0010
0100
0010
0002
0000
0000
0000
0000
0000
0203
0000
,
0000
0000
0000
0000
0320
0000
0000
0000
0031
0000
0001
1100
0001
0000
1001
0000
,
1001
0000
0001
1100
0001
0000
1001
0000
1001
0000
0001
1100
0001
0000
1001
0000
,
1001
0000
0000
0000
0000
0000
0000
0000
0000
0000
0000
0000
0000
0000
0000
0000
0000
0000
0000
0000
0000
0000
0000
0000
0001
0000
0000
0000
0000
0000
0000
0000
0000
0000
0000
0000
1100
0000
0000
0000
0000
0000
0000
0000
0000
0000
0000
0000
0001
0000
0000
0000
0000
0000
0000
0000
0000
0000
0000
0000
0000
0000
0000
0000
0000
0000
0000
0000
0000
0000
0000
0000
1001
0000
0000
0000
0000
0000
0000
0000
0000
0000
0000
0000
0000
0000
0000
0000
0000
0000
0000
0000
0000
0000
0000
0000
1001
0000
0000
0000
0000
0000
0000
0000
0000
0000
0000
0000
0000
0000
0000
0000
0000
0000
0000
0000
0000
0000
0000
0000
0001
0000
0000
0000
0000
0000
0000
0000
0000
0000
0000
0000
1100
0000
0000
0000
0000
0000
0000
0000
0000
0000
0000
0000
1000
0000
0100
0000
0010
0000
0000
0000
0000
0000
0000
0000
0000
0000
0000
0000
0000
0000
0001
0000
0000
0000
0000
0000
0000
0000
0000
0000
0000
0000
0000
0000
0000
0000
0000
0000
0010
0000
0000
0000
0000
0000
0000
0000
0000
0000
0000
0000
,
0000
0000
0000
0100
0000
0000
0000
0000
0000
0000
0000
0000
0000
0000
0000
0000
0000
0000
0000
0000
0000
0000
0010
0000
0000
0000
0000
0000
0000
0000
0000
0000
0000
0000
0000
0000
0000
0000
0000
0000
0000
0000
0000
1000
0000
0000
0000
0000
0000
0000
0000
0000
0000
0000
0000
0000
0000
0000
0000
0000
0000
0000
0000
0000
0000
0000
0000
0000
0000
0000
0000
0000
0000
0000
0000
0000
0000
0000
0000
0000
0000
0000
0000
0000
0000
0000
0000
0000
0000
0000
0000
0000
0000
0000
0000
0000
1000
0000
0000
0000
0000
0000
0000
0000
0000
0000
0000
0000
1000
0000
0000
0000
0000
0000
0100
0000
0000
0000
0000
0000
0010
0000
0000
0000
0000
0000
0000
0000
0000
0000
0000
0000
0001
0000
0000
0000
0000
0000
0000
0000
0000
0000
0000
0000
0000
0000
0000
0000
0000
0000
0000
0000
0000
0000
0000
0000
0010
0000
0000
0000
0000
0000
0000
0000
0000
0000
0000
0000
0100
0000
0000
0000
0000
0000
0000
0000
0000
0000
0000
0000
1000
0000
0000
0000
0000
0000
0000
0000
0000
0000
0000
0000
,
0100
0000
0000
0000
0000
0000
0000
0000
0000
0000
0000
0000
0010
0000
0000
0000
0000
0000
0000
0000
0000
0000
0000
0000
0100
0000
0000
0000
0000
0000
0000
0000
0000
0000
0000
0000
0010
0000
0000
0000
0000
0000
0000
0000
0000
0000
0000
0000
0001
0000
0000
0000
0000
0000
0000
0000
0000
0000
0000
0000
0000
0000
0000
0000
0000
0000
0000
0000
0000
0000
0000
0000
0100
0000
0000
0000
0000
0000
0000
0000
0000
0000
0000
0000
0000
0000
0000
0000
0000
0000
0000
0000
0000
0000
0000
0000
0010
0000
0000
0000
0000
0000
0000
0000
0000
0000
0000
0000
0100
0000
0000
0000
0010
0000
0000
0000
0100
0000
0000
0000
0010
0000
0000
0000
0000
0000
0000
0000
0000
0000
0000
0000
0100
0000
0000
0000
0000
0000
0000
0000
0000
0000
0000
0000
0010
0000
0000
0000
0000
0000
0000
0000
0000
0000
0000
0000
0100
0000
0000
0000
0000
0000
0000
0000
0000
0000
0000
0000
0010
0000
0000
0000
0000
0000
0100
0000
0000
0000
0000
0000
0010
0000
0000
0000
0000
0000
0100
0000
0000
0000
0000
0000
,
0010
0000
0000
0000
0000
0000
0000
0000
0000
0000
0000
0000
0100
0000
0000
0000
0010
0000
0000
0000
0100
0000
0000
0000
0010
0000
0000
0000
0000
0000
0000
0000
0000
0000
0000
0000
0100
0000
0000
0000
0000
0000
0000
0000
0000
0000
0000
0000
0010
0000
0000
0000
0000
0000
0000
0000
0000
0000
0000
0000
0100
0000
0000
0000
0000
0000
0000
0000
0000
0000
0000
0000
0010
0000
0000
0000
0000
0000
0100
0000
0000
0000
0000
0000
0010
0000
0000
0000
0000
0000
0100
0000
0000
0000
0000
0000
0010
0000
0000
0000
0000
0000
0000
0000
0000
0000
0000
0000
0100
0000
0000
0000
0010
0000
0000
0000
0100
0000
0000
0000
0010
0000
0000
0000
0000
0000
0000
0000
0000
0000
0000
0000
0100
0000
0000
0000
0000
0000
0000
0000
0000
0000
0000
0000
0010
0000
0000
0000
0000
0000
0000
0000
0000
0000
0000
0000
0100
0000
0000
0000
0000
0000
0000
0000
0000
0000
0000
0000
0010
0000
0000
0000
0000
0000
0100
0000
0000
0000
0000
0000
0010
0000
0000
0000
0000
0000
0100
0000
0000
0000
0000
0000
,
0010
0000
0000
0000
0000
0000
0000
0000
0000
0000
0000
0000
0100
0000
0000
0000
0010
0000
0000
0000
0100
0000
0000
0000
0010
0000
0000
0000
0000
0000
0000
0000
0000
0000
0000
0000
0001
0000
0000
0000
0000
0000
0000
0000
0000
0000
0000
0000
0010
0000
0000
0000
0001
0000
0000
0000
0010
0000
0000
0000
0100
0000
0000
0000
0000
0000
0000
0000
0000
0000
0000
0000
0010
0000
0000
0000
0000
0000
0100
0000
0000
0000
0000
0000
0010
0000
0000
0000
0000
0000
0100
0000
0000
0000
0000
0000
0010
0000
0000
0000
0000
0000
0000
0000
0000
0000
0000
0000
0100
0000
0000
0000
0010
0000
0000
0000
0100
0000
0000
0000
0010
0000
0000
0000
0000
0000
0000
0000
0000
0000
0000
0000
0100
0000
0000
0000
0000
0000
0000
0000
0000
0000
0000
0000
0010
0000
0000
0000
0000
0000
0000
0000
0000
0000
0000
0000
0100
0000
0000
0000
0000
0000
0000
0000
0000
0000
0000
0000
0010
0000
0000
0000
0000
0000
0100
0000
0000
0000
0000
0000
0010
0000
0000
0000
0000
0000
0100
0000
0000
0000
0000
0000
,
0010
0000
0000
0100
0010
0100
0010
0000
0000
0100
0000
0000
0010
0000
0000
0100
0000
0000
0010
0000
0000
0100
0000
0000
0110
0000
0000
0000
0000
0000
0011
0000
0000
1000
0000
0000
0011
0000
0000
1000
0000
0000
0011
0000
0000
1000
0000
0000
,
1100
0000
0010
0001
0100
0000
0001
0010
1000
0001
0100
0010
0200
0000
0000
0300
1001
0000
0100
0000
1010
0000
0100
0000
0001
0000
1000
0000
0011
0000
0100
0000
,
0001
0000
1000
0000
0110
0000
1000
0000
0001
0000
0100
0000
1010
0000
0001
1000
0100
0000
0010
0000
1100
0000
0001
0000
1000
0000
0010
0000
0101
0000
1000
0000
,
0001
1000
0110
0001
1000
0010
0101
1000
0001
0100
1010
0001
1000
0001
1100
0010
,
0100
0000
0001
0000
1010
0000
0001
0000
1000
0000
0001
0000
0110
0001
1000
0001
0010
0000
0100
0000
0011
0000
1000
0000
0100
0000
0010
0000
1100
0000
0000
0000
,
0010
0100
1001
0100
0010
1000
0110
0001
0100
0010
1001
0100
0010
0100
0011
1000
,
0010
0000
1000
0000
0101
0000
1000
0000
0001
0000
0100
0000
1010
0000
0001
0010
0100
0000
1000
0000
0011
0000
0100
0000
1000
0000
0010
0000
1100
0000
0001
0000
,
0010
0100
1001
0010
0100
0001
1100
0001
0100
0010
1001
0100
0010
1000
0011
0100
,
0001
1000
0110
1000
0001
0100
0011
1000
0110
0000
0000
1001
0000
0000
0110
0000
,
0000
0000
0000
0001
0000
0000
1000
0000
0100
0000
0001
0000
1000
0000
0010
0000
0100
0000
0001
0000
1000
0000
0100
0000
0010
0000
0000
0100
0000
0000
0011
0000
0000
1000
0000
0000
0001
0000
0000
0100
0000
0000
1010
0000
0000
0001
0000
0000
,
1000
0001
1100
0001
0100
0010
1100
0010
1002
0000
0000
0000
0000
0000
0023
0000
,
0000
0000
0000
0000
0032
0000
0000
0000
0013
0000
0010
1001
0010
0000
1010
0000
,
1010
0000
0010
1001
2202
0000
0000
3303
0000
1000
0100
0010
0101
0000
0000
0000
,
0000
0000
0000
0000
0000
0000
0000
0000
0000
0000
0000
0000
0000
0000
0000
0000
0000
0000
0000
0000
0000
0000
0000
0000
0000
0000
0000
0000
0000
0000
0000
0000
0000
0000
0000
0000
1000
0000
0000
0000
0100
0000
0000
0000
0010
0000
0000
0000
0001
0000
0000
0000
0000
0000
0000
0000
0000
0000
0000
0000
0001
0000
0000
0000
0010
0000
0000
0000
0100
0000
0000
0000
2000
0000
0000
0000
0000
0000
0000
0000
0000
0000
0000
0000
0000
0000
0000
0000
0000
0000
0000
0000
0000
0000
0000
0000
3000
0000
0000
0000
0000
0000
0000
0000
0000
0000
0000
0000
0000
0000
0000
0000
0000
0000
0000
0000
0000
0000
0000
0000
0000
0000
0000
0000
0000
0000
0000
0000
0000
0000
0000
0000
0000
0000
0000
0000
0000
0000
0000
0000
0000
0000
0000
0000
0010
0000
0000
0000
0000
0000
0000
0000
0000
0000
0000
0000
0000
0000
0000
0000
0000
0000
0001
0000
0000
0000
0000
0000
0000
0000
0000
0000
0000
0000
0000
0000
0000
0000
0000
0000
0010
0000
0000
0000
0000
0000
0000
0000
0000
0000
0000
0000
,
0100
0000
0000
0000
0000
0000
0000
0000
0000
0000
0000
0000
0000
0000
0000
0000
0000
0000
0010
0000
0000
0000
0000
0000
0000
0000
0000
0000
0000
0000
0000
0000
0000
0000
0000
0000
1000
0000
0000
0000
0000
0000
0000
0000
0000
0000
0000
0000
0000
0000
0000
0000
0000
0000
0000
0000
0000
0000
0000
0000
0000
0000
0000
0000
0000
0000
0000
0000
0000
0000
0000
0000
1000
0000
0000
0000
0100
0000
0000
0000
0010
0000
0000
0000
1000
0000
0000
0000
0000
0000
0100
0000
0000
0000
0000
0000
0010
0000
0000
0000
0000
0000
0000
0000
0000
0000
0000
0000
0000
0000
0000
0000
0000
0000
0000
0000
0000
0000
0000
0000
0000
0000
0000
0000
0000
0000
0000
0000
0000
0000
0000
0000
0101
0000
0000
0000
0000
0000
0000
0000
0000
0000
0000
0000
0110
0000
0000
0000
0000
0000
0000
0000
0000
0000
0000
0000
0000
0000
0000
0000
0000
0000
0000
0000
0000
0000
0000
0000
1100
0000
0000
0000
0000
0000
0000
0000
0000
0000
0000
0000
0000
0000
0000
0000
0000
0000
0000
0000
0000
0000
0000
0000
,
0110
0000
0000
0000
0000
0000
0000
0000
0000
0000
0000
0000
0000
0000
0000
0000
0000
0000
0000
0000
0000
0000
0000
0000
0000
0000
0000
0000
0000
0000
0000
0000
0000
0000
0000
0000
0000
0000
0000
0000
0000
0000
0010
0000
0000
0000
0000
0000
0001
0000
0000
0000
0000
0000
0000
0000
0000
0000
0000
0000
0010
0000
0000
0000
0000
0000
0000
0000
0000
0000
0000
0000
0100
0000
0000
0000
0010
0000
0000
0000
0100
0000
0000
0000
1000
0000
0000
0000
0000
0000
0000
0000
0000
0000
0000
0000
0001
0000
0000
0000
0000
0000
0000
0000
0000
0000
0000
0000
1000
0000
0000
0000
0001
0000
0000
0000
1000
0000
0000
0000
0001
0000
0000
0000
0000
0000
0000
0000
0000
0000
0000
0000
1000
0000
0000
0000
0000
0000
0000
0000
0000
0000
0000
0000
0001
0000
0000
0000
0000
0000
0000
0000
0000
0000
0000
0000
1000
0000
0000
0000
0000
0000
0000
0000
0000
0000
0000
0000
0001
0000
0000
0000
0000
0000
1000
0000
0000
0000
0000
0000
0001
0000
0000
0000
0000
0000
1000
0000
0000
0000
0000
0000
,
0001
0000
0000
0000
0000
0000
0000
0000
0000
0000
0000
0000
1000
0000
0000
0000
0001
0000
0000
0000
1000
0000
0000
0000
0001
0000
0000
0000
0000
0000
0000
0000
0000
0000
0000
0000
1000
0000
0000
0000
0000
0000
0000
0000
0000
0000
0000
0000
0001
0000
0000
0000
0000
0000
0000
0000
0000
0000
0000
0000
1000
0000
0000
0000
0000
0000
0000
0000
0000
0000
0000
0000
0001
0000
0000
0000
0000
0000
1000
0000
0000
0000
0000
0000
0001
0000
0000
0000
0000
0000
1000
0000
0000
0000
0000
0000
0001
0000
0000
0000
0000
0000
0000
0000
0000
0000
0000
0000
1000
0000
0000
0000
0001
0000
0000
0000
1000
0000
0000
0000
0001
0000
0000
0000
0000
0000
0000
0000
0000
0000
0000
0000
1000
0000
0000
0000
0000
0000
0000
0000
0000
0000
0000
0000
0001
0000
0000
0000
0000
0000
0000
0000
0000
0000
0000
0000
1000
0000
0000
0000
0000
0000
0000
0000
0000
0000
0000
0000
0001
0000
0000
0000
0000
0000
1000
0000
0000
0000
0000
0000
0001
0000
0000
0000
0000
0000
1000
0000
0000
0000
0000
0000
,
0001
0000
0000
0000
0000
0000
0000
0000
0000
0000
0000
0000
1000
0000
0000
0000
0001
0000
0000
0000
1000
0000
0000
0000
0001
0000
0000
0000
0000
0000
0000
0000
0000
0000
0000
0000
0100
0000
0000
0000
0000
0000
0000
0000
0000
0000
0000
0000
0010
0000
0000
0000
0001
0000
0000
0000
0010
0000
0000
0000
0100
0000
0000
0000
0000
0000
0000
0000
0000
0000
0000
0000
0001
0000
0000
0000
0000
0000
1000
0000
0000
0000
0000
0000
0001
0000
0000
0000
0000
0000
1000
0000
0000
0000
0000
0000
0001
0000
0000
0000
0000
0000
0000
0000
0000
0000
0000
0000
1000
0000
0000
0000
0001
0000
0000
0000
1000
0000
0000
0000
0001
0000
0000
0000
0000
0000
0000
0000
0000
0000
0000
0000
1000
0000
0000
0000
0000
0000
0000
0000
0000
0000
0000
0000
0001
0000
0000
0000
0000
0000
0000
0000
0000
0000
0000
0000
1000
0000
0000
0000
0000
0000
0000
0000
0000
0000
0000
0000
0001
0000
0000
0000
0000
0000
1000
0000
0000
0000
0000
0000
0001
0000
0000
0000
0000
0000
1000
0000
0000
0000
0000
0000
,
0001
0000
0000
1000
0001
1000
0001
0000
0000
1000
0000
0000
0001
0000
0000
1000
0000
0000
0001
0000
0000
1000
0000
0000
1001
0000
0000
0000
0000
0000
1001
0000
0000
0010
0000
0000
1001
0000
0000
0010
0000
0000
1001
0000
0000
0010
0000
0000
,
0011
0000
0010
0100
1000
0000
0001
0000
0100
0000
0010
0000
0200
0000
0000
0300
1001
0000
0010
0000
1100
0000
0001
0000
0010
0000
0100
0000
1010
0000
0001
0000
,
1000
0000
0100
0000
0011
0000
1000
0000
0001
0000
0100
0000
1010
0000
0001
1000
0010
0000
0100
0000
1001
0000
0010
0000
0100
0000
0001
0000
1100
0000
0010
0000
,
1000
0001
0110
1000
0001
0010
1001
0100
0010
1000
0110
0001
1000
0001
1100
0001
,
0100
0000
0010
0000
1001
0000
0100
0000
0010
0000
0001
0000
1100
0000
0001
1000
0100
0000
0010
0000
1100
0000
0001
0000
0100
0000
0010
0000
1001
0000
0000
0000
,
0010
1000
0101
0010
1000
0001
1100
0010
0100
0001
0110
1000
0001
0100
1001
0010
,
0100
0000
0010
0000
1100
0000
0001
0000
0100
0000
0010
0000
1001
0000
0100
0010
1000
0000
0001
0000
0110
0000
1000
0000
0001
0000
0100
0000
1001
0000
0100
0000
,
0010
0001
1100
0001
1000
0010
0101
1000
0010
0100
0011
1000
0010
0100
1001
0010
,
0100
0000
0010
0000
1001
0000
0100
0000
0001
1000
0001
0000
0001
0000
0001
0000
1100
0000
0000
0000
0000
0000
0110
0000
0000
0000
0000
0000
0011
0000
0000
0000
,
0100
0001
0001
0000
0001
0001
0001
0001
1100
0010
0001
1000
0100
0001
1000
0100
,
0010
1000
0100
0001
1000
0100
0010
0001
1100
0010
0101
1000
0100
0001
1000
0100
,
0010
0000
1000
0000
0100
0000
0002
0000
0000
0000
0013
0100
2000
0000
0000
3000
1001
0000
0100
0000
1001
0000
0100
0000
0010
0000
0001
0000
1000
0000
0010
0000
,
0001
1000
0100
0001
1000
0100
0010
0001
1010
0100
1001
0100
0010
0001
1000
0010
,
0001
0000
1000
0000
0100
0000
0002
0000
0000
0000
0013
0100
2000
0000
0000
3000
1001
0000
0100
0000
0001
0000
1000
0000
1000
0000
0010
0000
1000
0000
1000
0000
,
0100
1000
1000
0010
1000
1000
0100
0010
1000
1000
0001
1000
1000
0010
1000
1000
,
0100
1000
1000
0012
0000
0000
0000
0003
1000
1000
0001
1000
1000
0010
1000
1000
,
0100
1000
1000
0010
1000
1000
0100
0010
1000
1000
0001
1000
1000
0010
1000
1000
,
0010
0100
0001
0001
0001
0001
0001
0001
2000
0000
0000
3020
0000
0000
0032
0000
,
0000
0000
0000
0003
0000
0000
0010
0000
0001
0000
0010
0000
0200
0000
0000
0000
0000
0000
0000
0000
0000
0300
0010
0000
0001
0000
0010
0000
0100
0000
1000
0000
0100
0000
0010
0000
0001
0000
0010
0000
0100
0000
1000
0000
0000
0100
0000
0000
,
0020
0000
0000
0000
0030
0000
0100
0010
0200
0000
0000
0000
0000
0000
0300
0000
0001
0010
0100
1000
0100
0010
0100
0010
0001
0010
0100
1000
0100
0010
0001
0010
,
0100
0000
0000
0000
0000
0000
1000
0000
0000
0000
0000
0000
0100
0000
0000
0000
0000
0000
0010
0000
0000
0000
0000
0000
0100
0000
0000
0000
0000
0000
0000
0000
0010
0000
0000
0000
0000
0000
0000
0000
0001
0000
0000
0000
0000
0000
0000
0000
0100
0000
0000
0000
0000
0000
0000
0000
0010
0000
0000
0000
0000
0000
0000
0000
0001
0000
0000
0000
0000
0000
0000
0000
0100
0000
0000
0000
0000
0000
0000
0000
0010
0000
0000
0000
0000
0000
0000
0000
0001
0000
0000
0000
0000
0000
0000
0000
1000
0000
0000
0000
0000
0000
0000
0000
0100
0000
0000
0000
0000
0000
0000
0000
0010
0000
0000
0000
0000
0000
0000
0000
0001
0000
0000
0000
0000
0000
0010
0000
0000
0000
0000
0000
0100
0000
0000
0000
0000
0000
0001
0000
0000
0000
0000
0000
0010
0000
0000
0000
0000
0000
0000
0000
0100
0000
0000
0000
0000
0000
0000
0000
0010
0000
0000
0000
0000
0000
0000
0000
0100
0000
0000
0000
0000
0000
0000
0000
1000
0000
0000
0000
0000
0000
0000
0000
0100
0000
0000
0000
0000
0000
0000
0000
,
0020
0000
0000
0000
0000
0030
0000
0000
1000
0100
0010
0001
0000
0000
1000
0010
,
0100
0001
0000
0000
1000
0100
0010
0002
0000
0013
0001
0100
0001
1000
0001
1000
,
0010
0100
2000
0000
0000
0000
0000
3000
0200
0000
0000
0000
0000
0000
0301
0000
,
0020
0000
0000
0000
0000
0100
0031
0100
1001
0000
0000
1010
0000
0000
1002
0000
,
0000
0010
0100
0003
0002
0100
0013
0100
1001
0100
0010
1100
0001
1000
0011
0100
,
1010
0001
0100
1010
0001
1000
0011
0100
1010
0100
0001
1100
0010
0001
1010
0100
,
0011
1000
0100
1001
0010
0100
1001
0100
0021
0000
0000
0000
0000
0000
0000
0000
,
0000
0000
0000
0000
0000
0000
0000
0000
1030
0100
0010
0001
1001
0100
0010
0001
,
1000
0100
0010
0001
0101
0100
0010
0001
1000
0100
0010
0001
1001
0010
0100
1000
,
1010
0100
0010
0001
1001
0100
0010
0001
1000
0100
0010
0001
1001
0010
0100
1000
,
1000
0100
0010
0001
1001
0010
0100
1000
1000
0100
0010
0001
0100
0010
0001
0010
,
0100
0000
1000
0000
0100
0000
0010
0000
0000
0010
0001
0000
0000
0000
0000
0000
1100
0000
1100
0000
1100
0000
0000
0000
0000
0000
0000
0000
1100
0000
0000
0000
,
0000
0000
0000
0000
0000
0000
0000
0000
1100
1100
1100
0000
0000
0000
1100
0000
,
0000
0000
0000
0000
1100
1100
1100
0000
1100
1100
1100
0000
0000
0000
1100
0000
,
0000
0000
1000
1000
1000
0000
0000
0000
1100
1100
1100
0000
0000
0000
1100
0000
,
0000
0000
1100
1100
1100
1100
1100
0000
1100
1100
1100
0000
0000
0000
1100
0000
,
0000
0000
0000
0000
0000
0000
0000
0000
1100
1100
1100
0000
0000
0000
1100
0000
,
0000
0000
0000
0000
1100
1100
1100
0000
1100
1100
1100
0000
0000
0000
1100
0000
,
0000
0000
1000
1000
1000
0000
0000
0000
1100
1100
1100
0000
0000
0000
1100
0000
,
0000
0000
1000
1000
0100
0100
0011
0011
1001
0000
1000
0100
1010
0000
1001
0000
,
1000
0000
1000
0100
1011
0000
1000
0100
1001
0000
1000
0100
1010
0000
1001
0000
,
1000
0000
1000
0100
1011
0000
1000
0100
1001
0000
1000
0100
1010
0000
1001
0000
,
1000
0000
1000
0100
1011
0000
1000
0100
1001
0000
1000
0100
1010
0000
1001
0000
,
1000
0000
1000
0100
1011
0100
1000
0100
1010
0000
0100
0100
1011
0000
0100
0100
,
1010
0000
0100
0100
1011
0000
0100
0100
0011
0000
0100
0100
1011
0000
0100
0100
,
0011
0000
0100
0100
1011
0000
0100
0100
0002
0003
1000
1000
0012
0003
1000
1000
,
0002
0000
0003
0000
1000
0000
1000
0000
0012
0000
0003
0000
1000
0000
1000
0100
0011
0000
0000
0000
0101
0000
0000
0000
1010
0000
0000
0000
0110
0000
0000
0000
,
1010
0000
0101
0000
0020
0000
0000
0030
0100
0010
1100
0001
0100
0010
1001
0100
,
0010
0000
1000
0000
0011
0000
0100
0000
0001
0000
1000
0000
0110
0000
0001
0010
1000
0000
0100
0000
0011
0000
0100
0000
0001
0000
1000
0000
0110
0000
0001
0000
,
1000
0010
0101
1000
0010
0100
1001
0010
0100
0010
1100
0001
0100
0010
1001
0100
,
0010
0000
1000
0000
0110
0000
0001
0000
0100
0000
0001
0000
1010
0001
0100
0010
1000
0000
0100
0000
0011
0000
0100
0000
0010
0000
1000
0000
0011
0000
0000
0000
,
1000
0001
1100
0001
0110
0110
0110
0110
1001
0100
1001
0010
0100
0001
1100
0001
,
0100
0000
0010
0000
1001
0000
0100
0000
0010
0000
0100
0000
0011
0000
0100
1000
0010
0000
1000
0000
0101
0000
0010
0000
0001
0000
1000
0000
0110
0000
0001
0000
,
1000
0001
0110
1000
0010
0100
0011
1000
0001
0100
1001
0010
0100
0010
1100
0001
,
0100
0010
1100
0010
0100
0001
0110
0100
0001
1000
0011
1000
0001
1100
0001
1000
,
0011
0000
0000
1000
0000
0000
0011
0000
0000
1000
0000
0000
0010
0000
0001
0000
0100
0000
0010
0000
1000
0000
0100
0000
1001
0000
0000
0010
0000
0000
0101
0000
0000
0010
0000
0000
1000
0000
0000
0100
0000
0000
1001
0000
0000
0010
0000
0000
,
0100
0000
0001
0000
1100
0000
0001
0000
0100
0000
0001
0000
1010
0000
0100
1000
0001
0000
1000
0000
0011
0000
0100
0000
0010
0000
1000
0000
0110
0000
0001
0000
,
0100
0010
1001
0100
0010
1000
0011
0100
0001
0010
1100
0010
1000
0001
0110
1000
,
0100
0000
0010
0000
1001
0000
0100
0000
0010
0000
1000
0000
0011
0100
0001
1000
0010
0000
0100
0000
1010
0000
0100
0000
0001
0000
1000
0000
0011
0000
0100
0000
,
0001
0100
1010
0100
0001
1000
0101
0010
1001
0100
0011
1000
0001
0010
1001
0100
,
0010
0000
1000
0000
0101
0000
0010
0000
1000
0000
0001
0000
1100
0000
0010
0001
1000
0000
0100
0000
0011
0000
1000
0000
0001
0000
0100
0000
1010
0000
0100
0000
,
0001
1000
0011
0100
0001
1000
0110
0001
1000
0100
1001
0010
0100
0001
1010
0100
,
0001
1000
0011
0100
1001
1001
1001
1001
1010
0000
0001
1010
0000
0001
1010
0000
,
1001
0000
0000
0000
0000
0000
1001
0000
0000
1001
0000
0000
0010
0000
0100
0000
1000
0000
0010
0000
0100
0000
1000
0000
0110
0000
0000
0000
0000
0000
0011
0000
0000
0000
0000
0000
0000
0000
0000
1010
0000
0000
0000
0000
0000
0000
0000
0000
,
0011
0100
1000
0011
0100
1000
0011
0100
1010
0000
0100
1010
0000
0100
0022
0000
,
0000
0033
0000
0000
0000
0000
0000
0000
;
