#TITLE:Knightrider of Doom;
#SUBTITLE:;
#ARTIST:Rhapsody;
#TITLETRANSLIT:;
#SUBTITLETRANSLIT:;
#ARTISTTRANSLIT:;
#CREDIT:;
#BANNER:../fallback-bn.png;
#BACKGROUND:../fallback-bg.png;
#LYRICSPATH:;
#CDTITLE:monst3rjoe - cdtitle.png;
#MUSIC:Knightrider of Doom.ogg;
#OFFSET:-0.723;
#SAMPLESTART:60.313;
#SAMPLELENGTH:12.000;
#SELECTABLE:YES;
#BPMS:0.000=185.000,67.000=92.500,71.000=185.000,149.000=184.800,157.000=185.000,177.000=184.000,189.000=185.000,209.000=185.000,217.000=190.000,220.000=185.000,291.000=92.500,295.000=185.000,351.000=184.800,359.000=185.000,379.000=184.000,391.000=185.000,419.000=190.000,423.000=185.000,563.000=184.900,587.000=185.000;
#STOPS:;
#BGCHANGES:;
// cache tags:
#FIRSTBEAT:9.000;
#LASTBEAT:718.000;
#SONGFILENAME:Songs/SSSC PACK/[Monst3rjoe] - Knightrider of Doom/Knightrider of Doom.sm;
#HASMUSIC:1;
#HASBANNER:1;
#MUSICLENGTH:240.024;
// end cache tags

//---------------dance-single - Monst3rjoe----------------
#NOTES:
     dance-single:
     Monst3rjoe:
     Challenge:
     14:
     1.000,1.000,0.308,0.700,1.000,1792.000,74.000,168.000,62.000,21.000:

0000
0000
0000
0000
,
0000
0000
0000
0000
,
0000
0000
0000
0000
0000
0000
0000
0000
0000
0000
0000
0000
2001
0000
0000
0000
0000
0000
0000
0000
0000
0000
0000
3000
1002
0000
0000
0000
0000
0000
0000
0000
0000
0000
0000
0000
1003
0000
0000
0000
0000
0000
0100
0000
0000
0000
0000
0000
,
0000
0100
0010
0001
0000
0100
0201
0000
,
1302
0000
0103
0010
1000
0000
0001
0010
,
0000
0010
0100
1000
0000
0010
0100
0001
,
0000
0100
0120
0000
2130
0000
3100
0010
,
0000
0000
0000
0010
0000
0000
0001
0000
0000
0100
0000
0000
0000
0000
0000
0010
0000
0000
0010
0000
1000
0000
0001
0000
,
1000
0010
1000
0200
0000
0000
0000
0000
0000
0000
0000
0000
,
0310
0001
0010
0001
0100
0010
1000
0100
1000
0010
0100
0001
0010
0001
0100
0010
,
1000
0010
0100
0001
1000
0100
0010
0100
1000
0001
0010
0001
0100
0010
0100
0001
,
1000
0100
0010
0100
1000
0001
0100
0010
1000
0010
0100
0001
0010
0001
0100
0010
,
1000
0100
0010
0100
2000
0000
0000
0000
3002
0000
0000
0000
1003
0000
0010
0000
,
0020
0000
0000
0000
0130
0001
1000
0001
0010
0001
1000
0100
1000
0001
0100
0010
,
1000
0010
0100
0001
0010
0100
1000
0010
0100
0001
0010
0001
0100
0010
0100
0001
,
1000
0100
0010
0100
1000
0001
0010
0100
0010
0001
0100
0010
0100
0001
1000
0100
,
0010
0000
0000
0001
0000
0000
0010
0000
0000
0100
0000
0000
1000
0000
0000
0000
0010
0000
0000
0000
0100
0000
0000
0000
0010
0000
0000
0000
0100
0000
0000
0000
0001
0000
0000
0000
0020
0000
0000
0000
0000
0000
0000
0000
0000
0000
0000
0000
,
0000
0400
0030
0300
2200
0000
0300
0004
0M00
0000
3000
0003
1000
0010
1000
0001
,
1000
0010
1000
0001
0100
0010
0100
0001
0100
0001
0010
0100
1000
0100
0010
0100
,
1000
0100
0010
0001
1000
0001
0100
0001
1000
0001
0010
0001
1000
0100
0010
0100
,
1000
0100
0010
0100
1000
0010
0100
0010
1000
0010
0100
0010
1010
0000
0110
0000
,
0101
0011
2004
0000
0000
0000
0000
0000
,
0000
0000
0000
0000
0000
0000
3000
M000
,
0103
0010
0100
0001
0010
0100
1000
0010
0100
0001
0010
0001
0100
0010
1000
0001
,
0100
0010
1000
0100
1000
0001
0010
0100
1000
0001
0010
0100
1000
0001
0010
0001
,
0100
0010
1000
0100
1000
0001
0100
0001
1000
0010
1000
0100
0010
0100
1000
0001
,
0100
0010
0100
0001
0010
0100
1000
0010
0100
0001
0010
0100
1000
0010
0100
0001
,
0010
0001
1000
0100
0010
0100
1000
0010
0100
0010
1000
0001
0100
0010
0100
0001
,
0010
0100
0010
0001
1000
0100
0010
0100
1000
0001
0100
0010
0100
0001
1000
0100
,
0010
0001
0100
0010
2000
0000
0000
0000
0000
0000
0020
0000
3000
0000
0000
0000
,
0200
0000
0330
0000
0102
0000
0000
0000
0100
0000
0103
0000
0000
0M00
0000
0000
,
1010
0000
0000
0000
0010
0100
0010
1000
0100
0010
0001
0100
0010
1000
0100
1000
,
0010
0100
0001
1000
0010
0100
0001
0010
0001
1000
0100
0010
0001
1000
0100
0010
,
0001
1000
0100
1000
0010
0100
0001
0010
0001
1000
0010
1000
0001
0100
0001
0010
,
0100
0010
0001
1000
0010
0100
0010
1000
0100
0010
0001
0100
0010
1000
0100
0010
,
0001
0100
0010
1000
0100
1000
0001
0010
0100
0010
0001
0100
0010
0100
0001
1000
,
0010
0100
0010
1000
0100
0010
0100
1000
0001
0010
0100
0010
0001
1000
0010
0100
,
0010
1000
0001
0010
0200
0000
0000
0000
0000
0000
2300
0000
0000
0000
0000
0000
,
3020
0030
0210
0000
0001
0301
000M
0000
,
1001
1111
M000
00M0
,
0M00
0000
0000
0000
0000
0000
0000
0000
11M1
0000
0000
0000
0000
0000
0000
0000
00M0
0000
0000
0000
0000
0000
0000
0000
0M00
M000
0M00
0000
0000
0000
0000
0000
,
00M0
0000
0001
0000
0000
0002
0000
0000
,
0013
0000
0020
0000
0000
0230
0000
0000
,
1300
0000
1000
0100
2000
0000
0000
0000
0000
0000
0000
0000
0000
0000
0000
0000
,
0000
0000
3000
0000
0020
0000
0000
0000
0000
0000
0000
0000
0030
0000
0100
0001
,
0100
0001
1000
0100
0020
0000
0000
0000
0032
0000
0000
0000
0023
0000
0030
0000
,
0201
0300
1020
0000
2030
0000
3020
0000
,
0130
0M00
1002
0000
0000
0013
0020
0000
,
0001
0031
0100
0M00
0210
0000
0000
0000
,
0310
1000
1000
M000
0002
0000
2003
0000
,
3100
0010
0020
0000
0002
0000
0030
0000
,
0200
0303
2010
0000
0200
3000
2300
0000
,
3100
0010
0020
0000
0032
0000
0203
0000
,
0310
1000
2100
0000
3100
0000
1200
0000
,
1300
0000
2002
0000
0000
3003
0000
0000
,
1000
0001
1000
0001
1000
0100
0010
0001
0100
0010
1000
0100
1000
0010
0100
0001
,
0010
0100
1000
0010
0100
0001
0010
0001
0100
0010
1000
0100
1000
0010
0100
0001
,
0010
0001
1000
0100
0010
0100
1000
0010
0100
0001
0100
0010
1000
0100
0010
0001
,
1000
0100
1000
0010
0100
0010
1000
0001
0100
0010
1000
0100
1000
0010
0100
0001
,
0010
0001
0100
0010
1000
0100
1000
0001
0010
0100
1000
0001
0010
0001
0100
0010
,
1000
0001
0100
0010
1000
0100
1000
0001
0010
0100
1000
0001
0010
0001
0100
0010
,
1000
0100
1000
0010
0100
0001
0010
0100
1000
0010
0100
0001
0010
0001
0100
0010
,
1000
0100
1000
0001
0100
0010
0100
0001
1000
0010
0100
0010
1000
0100
0010
0100
,
1000
0000
0001
1000
1MM2
0000
0000
0000
0000
0000
0003
0000
M2M1
0000
0000
0000
,
0000
0300
MM21
0000
0000
0000
0000
0000
,
0130
0000
0100
0000
1000
0100
1000
0100
0010
0001
0010
0001
0100
0010
1000
0100
,
1000
0010
0100
0001
1000
0100
1000
0100
0010
0001
0010
0001
0100
0010
0100
0001
,
0010
0100
1000
0010
0100
0001
0100
0001
1000
0001
1000
0001
0010
0100
1000
0010
,
0100
0001
0010
0001
0200
0000
0000
0000
0320
0000
0000
0000
1030
0000
0100
0000
,
0200
0000
0000
0000
1300
0010
0100
0010
1000
0001
1000
0001
0010
0100
1000
0010
,
0100
0001
1000
0100
1000
0001
1000
0001
0100
0010
0100
0010
1000
0100
0010
0001
,
0100
0010
1000
0001
0100
0010
0100
0010
1000
0100
1000
0100
0010
0001
0100
0010
,
1000
0000
0000
0100
0000
0000
1000
0000
0000
0001
0000
0000
0100
0000
0000
0000
0010
0000
0000
0000
0100
0000
0000
0000
0010
0000
0000
0000
0100
0000
0000
0000
0001
0000
0000
0000
2000
0000
0000
0000
0000
0000
0000
0000
0000
0000
0000
0000
,
0000
0000
0000
0040
0000
0000
0000
0000
3000
0000
0000
0000
4030
0000
0000
0000
0000
0000
0000
0000
0000
0000
0000
0000
3400
0000
0000
0000
0000
0000
0310
0000
0000
0000
0000
0000
00M1
0000
0000
0100
0000
0000
0010
0000
0000
1000
0000
0000
,
0100
0010
0001
0100
0010
1000
0100
1000
0010
0100
0001
1000
0010
0100
0001
0010
,
0001
1000
0100
0010
0001
1000
0100
0010
0001
1000
0100
1000
0010
0100
0001
0010
,
0001
1000
0010
1000
0001
0100
0001
0010
0100
0010
0001
1000
0010
0100
0010
1000
,
0100
0010
0001
0100
0010
1000
0100
0010
0001
0100
0010
1000
0100
1000
0001
0010
,
0100
0010
0001
0100
0010
0100
0001
1000
0010
0100
0010
1000
0100
0010
0100
1000
,
0001
0010
0100
0010
0001
1000
0010
0100
0010
1000
0001
0010
0002
0000
0000
0000
,
0000
0200
0003
0000
0020
0330
2010
0000
,
0001
0000
3001
0000
000M
0000
0100
0001
0100
0001
0010
0100
1000
0010
0100
0001
,
0010
0100
1000
0010
0100
0001
0010
0001
0100
0010
1000
0001
0100
0010
1000
0100
,
1000
0001
0010
0100
1000
0001
0010
0100
1000
0001
0010
0001
0100
0010
1000
0100
,
1000
0001
0100
0001
1000
0010
1000
0100
0010
0100
1000
0001
0100
0010
0100
0001
,
0010
0100
1000
0010
0100
0001
0010
0100
1000
0010
0100
0001
0010
0001
1000
0100
,
0010
0100
1000
0010
0100
0010
1000
0001
0100
0010
0100
0001
0010
0100
0010
0001
,
1000
0100
0010
0100
1000
0001
0100
0010
0100
0001
1000
0100
0020
0000
0000
0000
,
0000
0032
0000
0000
0203
0300
0120
0000
,
1000
1030
M000
0000
1001
0000
1111
0000
,
000M
0M00
00M0
1M11
,
0M00
0000
0000
0000
0000
0000
0000
0000
00M0
000M
00M0
0000
0000
0000
0000
0000
0M01
0000
0000
0000
0001
0000
0000
0000
1000
0000
0000
0000
0000
0000
0000
0000
,
0000
2000
0000
0000
3100
0000
0200
0000
,
0000
0320
0000
0000
0031
0000
0002
0000
,
0000
0000
0000
0000
0000
0003
0200
0000
,
0000
0000
0300
0001
0001
0010
0200
0000
,
2300
0000
3200
0300
1020
0030
0201
0000
,
0302
0000
0203
0000
0310
00M0
2001
0000
,
0000
3100
0200
0000
1000
1300
0010
00M0
,
0120
0000
0000
0000
0130
0001
0001
000M
,
2000
0000
3002
0000
0013
0100
0200
0000
,
2000
0000
0300
0000
0020
3030
0102
0000
,
0020
0003
0032
0000
0013
0100
0200
0000
,
2300
0000
3020
0000
0130
0001
0012
0000
,
0013
0021
0031
2002
,
0000
0000
3003
0000
0000
0000
0000
0000
0000
0000
0000
0000
0010
1000
0100
0010
,
0001
0100
0001
0010
0001
0100
0010
1000
0100
0010
0001
0100
0010
1000
0100
1000
,
0010
0100
0001
0010
0001
0100
0010
1000
0100
1000
0001
0010
0100
0010
0001
0100
,
0010
1000
0010
0100
0001
0010
0100
1000
0001
0010
0001
0100
0010
0100
0001
1000
,
0010
0100
0001
0010
0001
0100
0010
1000
0100
1000
0010
0100
0001
0010
0001
1000
,
0100
0010
0001
1000
0100
1000
0010
0100
0001
1000
0010
0100
0001
0010
0001
1000
,
0100
0010
0001
1000
0100
1000
0010
0100
0001
0010
0001
0100
0010
1000
0100
0010
,
0001
0100
0010
1000
0100
1000
0010
0100
0001
0010
0001
1000
0010
0100
0010
1000
,
0001
0100
0010
0100
0001
0010
0100
0010
0001
0000
1000
0001
2MM1
0000
0000
0000
,
0000
3000
1M2M
0000
0000
0030
12MM
0000
,
0000
0000
0310
00M2
,
0103
0010
0020
0000
1030
0100
0200
0000
,
0320
0230
2300
3020
,
0130
0001
0002
0000
0013
0000
0110
0000
,
1100
1002
0103
0200
,
0310
1000
2000
0000
3100
0010
0020
0000
,
0032
0203
0320
0230
,
0301
0010
0020
0000
0130
0000
1100
0000
,
1001
0000
0101
0001
0101
0100
0101
1000
,
0100
0100
0012
0000
0000
0000
0213
0000
,
0000
1320
0000
1230
,
0000
0312
0000
0213
,
0000
1320
0000
2130
,
0000
3012
0000
0213
,
0000
1302
0000
1203
,
0000
0321
0000
1032
,
0000
0000
0213
0000
0000
0000
1320
1030
,
01M0
0000
0010
0000
0001
0000
0000
0000
0400
0000
0000
0000
0310
1000
0010
1000
,
0010
0100
0010
0100
0001
0010
0001
0010
0001
0010
0100
0010
0100
1000
0010
1000
,
0010
0000
0000
0000
0000
0000
0000
0000
0000
0000
0000
0000
1000
0000
0000
0000
0000
0000
0000
0000
0000
0000
0000
0000
0010
0000
0000
0000
0000
0000
0000
0000
0000
0000
0000
0000
1000
0000
0000
0000
0000
0000
0000
0000
0000
0000
0000
0000
0001
0000
0000
0000
0000
0000
0000
0000
0000
0000
0000
0000
0010
0000
0000
0000
0000
0000
0000
0000
0000
0000
0000
0000
0001
0000
0000
0000
0000
0000
0000
0000
0000
0000
0000
0000
0010
0000
0000
0000
0000
0000
0000
0000
0000
0000
0000
0000
0001
0000
0000
0000
0000
0000
0000
0000
0000
0000
0000
0000
0010
0000
0000
0000
0000
0000
0000
0000
0000
0000
0000
0000
0001
0000
0000
0000
0000
0000
0000
0000
0000
0000
0000
0000
0100
0000
0000
0000
0000
0000
0000
0000
0000
0000
0000
0000
0010
0000
0000
0000
0000
0000
0000
0000
0000
0000
0000
0000
0000
0000
0000
0000
0000
0000
0000
0000
0000
0000
0000
0000
0000
0000
0000
0000
0000
0000
0000
0000
0000
0000
0000
0010
1000
0000
0000
0000
0000
0000
0000
0000
0000
0000
0000
0000
,
0000
0000
0000
0000
0000
0000
0000
0000
0000
0000
0000
0000
0000
0000
0000
0000
0000
0000
0000
0000
0000
0000
0000
1000
0001
0000
0000
0000
0000
0000
0000
0000
0000
0000
0000
0000
0000
0000
0000
0000
0000
0000
0000
0000
0000
0000
0000
0010
0100
0000
0000
0000
0000
0000
0000
0000
0000
0000
0000
0000
0000
0000
0000
0000
0000
0000
0000
0000
0000
0000
0000
0000
0000
0000
0000
0000
0000
0000
0000
0000
0000
0000
0000
0100
1000
0000
0000
0000
0000
0000
0000
0000
0000
0000
0000
0000
0000
0000
0000
0000
0000
0000
0000
0000
0000
0000
0000
0000
0000
0000
0000
0000
0000
0000
0000
0000
0000
0000
0000
0010
0100
0000
0000
0000
0000
0000
0000
0000
0000
0000
0000
0000
0000
0000
0000
0000
0000
0000
0000
0000
0000
0000
0000
0100
0001
0000
0000
0000
0000
0000
0000
0000
0000
0000
0000
0000
0000
0000
0000
0000
0000
0000
0000
0000
0000
0000
0000
0000
0000
0000
0000
0000
0000
0000
0000
0000
0000
0000
0000
0010
0100
0000
0000
0000
0000
0000
0000
0000
0000
0000
0000
0000
,
0000
0000
0000
0000
0000
0000
0000
0000
0000
0000
0000
0000
0000
0000
0000
0000
0000
0000
0000
0000
0000
0000
0000
0100
1000
0000
0000
0000
0000
0000
0000
0000
0000
0000
0000
0000
0000
0000
0000
0000
0000
0000
0000
0000
0000
0000
0000
0000
1000
0000
0000
0000
0000
0000
0000
0000
0000
0000
0000
0000
0000
0000
0000
0000
0000
0000
0000
0000
0000
0000
0000
0000
0000
0000
0000
0000
0000
0000
0000
0000
0000
0000
0000
0000
0001
0000
0000
0000
0000
0000
0000
0000
0000
0000
0000
0000
0000
0000
0000
0000
0000
0000
0000
0000
0000
0000
0000
0000
0000
0000
0000
0000
0000
0000
0000
0000
0000
0000
0000
0000
0001
0000
0000
0000
0000
0000
0000
0000
0000
0000
0000
0000
0000
0000
0000
0000
0000
0000
0000
0000
0000
0000
0000
0000
0100
0000
0000
0000
0000
0000
0000
0000
0010
0000
0000
0000
0000
0000
0000
0000
0100
0000
0000
0000
0000
0000
0000
0000
0000
0000
0000
0000
0000
0000
0000
0000
0010
0000
0000
0000
0000
0000
0000
0000
0000
0000
0000
0000
0000
0000
0000
0000
,
1000
0000
0100
0000
1000
0000
0001
0010
0001
0000
0100
0000
0010
0000
1000
0000
0100
0000
0010
0100
0010
0000
0001
0000
,
1000
0000
0100
0000
1000
0000
0010
1000
0010
0000
0100
0000
0001
0000
0010
0000
0001
0000
0010
0001
0010
0000
0001
0000
,
0100
0010
0100
0000
0010
0000
1000
0001
1000
0000
0100
0000
0010
0001
0010
0000
0001
0000
0100
0001
0100
0000
0010
0000
,
1000
0000
0001
0000
1000
0000
0000
0000
0100
0000
0000
0000
0010
0000
0000
0000
0001
0000
0000
0000
0100
0000
0000
0000
0001
0000
0000
0010
0000
0000
0001
0000
0000
0010
0000
0000
M200
0000
0000
0000
0000
0000
0302
0000
0000
0000
0000
0000
,
0203
2300
3M20
0032
0M23
1030
0100
0001
,
1000
0010
00M2
0203
2300
3200
M302
0023
,
1M30
0001
0100
1000
0001
0010
02M0
0302
,
0203
2300
3M20
0032
0M23
1030
0100
0001
,
1000
0010
M002
0203
2300
3200
03M2
0023
,
M130
0000
1000
0000
1100
0000
1000
0000
0010
0000
0010
0000
0100
0001
0100
0010
,
0100
0001
0100
0010
1000
0100
1000
0001
1000
0100
1000
0001
0010
0100
0010
0001
,
0010
0000
0000
0100
0000
0000
0010
0000
0000
0001
0000
0000
0100
0000
0000
0010
0000
0000
0100
0000
0000
0001
0000
0000
0100
0000
0000
0010
0000
0000
0100
0000
0000
0001
0000
0000
1000
0000
0100
0000
1000
0000
0000
0000
0100
0000
0000
0000
,
0010
0000
0001
0000
0010
0000
0000
0000
0001
0000
0000
0000
0100
0000
0001
0000
0100
0000
0000
0000
0010
0000
0000
0000
1000
0000
0010
0000
1000
0000
0000
0000
0010
0000
0000
0000
0200
0000
0000
0000
0000
0000
0000
0000
0000
0002
0000
0000
,
0300
0000
0013
0100
1000
0000
M010
0100
0010
0100
0010
0100
0001
0010
0100
1000
,
0010
0100
0001
0010
0001
0100
0010
1000
0100
0010
0001
0100
0010
1000
0100
1000
,
0010
0100
0001
0010
0001
0100
0010
1000
0100
1000
0001
0010
0100
0010
0001
0100
,
0010
1000
0010
0100
0001
0010
0100
1000
0001
0010
0001
0100
0010
0100
0001
1000
,
0010
0100
0001
0010
0001
0100
0010
1000
0100
1000
0010
0100
0001
0010
0001
1000
,
0100
0010
0001
1000
0100
1000
0010
0100
0001
1000
0010
0100
0001
0010
0001
1000
,
0100
0010
0001
1000
0100
1000
0010
0100
0001
0010
0001
0100
0010
1000
0100
0010
,
0001
0100
0010
1000
0100
1000
0010
0100
0001
0010
0001
1000
0010
0100
0010
1000
,
0001
0100
0010
0100
0001
0010
0100
0010
0001
0000
1000
0001
0200
0000
0000
0000
,
0010
00M0
0320
0000
1000
M030
2001
0000
,
0000
0000
0000
0000
0000
0000
0000
0000
0000
0000
3000
0000
0001
0010
0100
1000
,
0010
0100
0001
0010
0001
0100
0010
1000
0100
0010
0001
0100
0010
1000
0100
1000
,
0010
0100
0001
0010
0001
0100
0010
1000
0100
1000
0001
0010
0100
0010
0001
0100
,
0010
1000
0010
0100
0001
0010
0100
1000
0001
0010
0001
0100
0010
0100
0001
1000
,
0010
0100
0001
0010
0001
0100
0010
1000
0100
1000
0010
0100
0001
0010
0001
1000
,
0100
0010
0001
1000
0100
1000
0010
0100
0001
1000
0010
0100
0001
0010
0001
1000
,
0100
0010
0001
1000
0100
1000
0010
0100
0001
0010
0001
0100
0010
1000
0100
0010
,
0001
0100
0010
1000
0100
1000
0010
0100
0001
0010
0001
1000
0010
0100
0010
1000
,
0001
0100
0010
0100
0001
0010
0100
0010
0001
0000
1000
0001
2000
0000
0000
0000
,
3100
0010
0002
0000
0013
0100
2000
0000
,
0000
0000
3000
0000
0000
0000
0001
0000
0100
0000
0100
0000
0001
0010
0001
0010
,
0100
1000
0100
1000
0010
0100
0001
0010
0001
0100
0010
1000
0001
0010
0001
0010
,
0100
1000
0100
1000
0010
0100
0010
1000
0100
0010
0001
0100
0010
1000
0010
1000
,
0001
1000
0001
1000
0100
0010
0001
0100
0010
1000
0100
1000
0100
0010
0001
0100
,
0010
1000
0100
1000
0010
0100
0001
0010
0001
0100
0010
1000
0001
0100
0010
0100
,
0001
1000
0001
1000
0100
0010
0001
0100
0010
1000
0001
0010
0001
1000
0001
1000
,
0010
0100
0010
0100
0001
0010
0100
1000
0010
0100
0001
1000
0010
0100
0010
0100
,
0001
0000
0000
0010
0000
0000
0001
0000
0000
0010
0000
0000
0100
0000
0000
1000
0000
0000
0010
0000
0000
0100
0000
0000
0001
0000
0000
0010
0000
0000
0001
0000
0000
1000
0000
0000
0010
0000
0000
0000
0100
0000
0000
0000
0010
0000
0000
0000
,
0100
0000
0000
0000
0010
0000
0000
0000
1000
0000
0000
0000
0002
0000
0000
0000
0000
0000
0000
0000
0000
0000
0000
0000
0000
0000
0000
0000
0000
0000
0000
0000
0003
0000
0000
0000
0100
0000
0000
0001
0000
0000
1000
0000
0000
0001
0000
0000
,
0100
0001
1000
0001
0101
0000
0000
0000
0M0M
0000
0000
0000
0000
0000
0000
0000
;
