#TITLE:Can You Feel The Music;
#SUBTITLE:;
#ARTIST:Toby Emerson;
#TITLETRANSLIT:;
#SUBTITLETRANSLIT:;
#ARTISTTRANSLIT:;
#CREDIT:;
#BANNER:;
#BACKGROUND:;
#LYRICSPATH:;
#CDTITLE:;
#MUSIC:Can you Feel the Music - Toby Emerson.mp3;
#OFFSET:0.000;
#SAMPLESTART:46.097;
#SAMPLELENGTH:12.000;
#SELECTABLE:YES;
#BPMS:0.000=130.160;
#STOPS:63.750=0.040
,130.000=0.020
;
#BGCHANGES:;
// cache tags:
#FIRSTBEAT:4.000;
#LASTBEAT:195.250;
#SONGFILENAME:Songs/new cedric/Can You Feel the Music - Toby Emerson/Can you Feel the Music - Toby Emerson.sm;
#HASMUSIC:1;
#HASBANNER:0;
#MUSICLENGTH:90.122;
// end cache tags

//---------------dance-single - Beginner----------------
#NOTES:
     dance-single:
     Beginner:
     Beginner:
     1:
     0.154,0.189,0.000,0.044,0.000,93.000,0.000,4.000,0.000,0.000:
0000
0000
0000
0000
,
1000
0000
0100
0000
,
1000
0000
0001
0000
,
0100
0000
0010
0000
,
0100
0000
0001
0000
,
1000
0000
0001
0000
,
0100
0000
0010
0000
,
1000
0000
0001
0000
,
0100
0000
0001
0000
,
0010
0000
0100
0000
,
0010
0000
1000
0000
,
0001
0000
0100
0000
,
0010
0000
1000
0000
,
0100
0000
1000
0000
,
0001
0000
0100
0000
,
0010
0000
0001
0000
,
0200
0000
0301
0001
,
1000
0000
0100
0000
,
0001
0000
0100
0000
,
0010
0000
1000
0000
,
0001
0000
0100
0000
,
0010
0000
1000
0000
,
0001
0000
0100
0000
,
0010
0000
1000
0000
,
0001
0000
0100
0000
,
0010
0000
1000
0000
,
0001
0000
0100
0000
,
0010
0000
0100
0000
,
0001
0000
2000
0000
,
0000
0000
0000
0000
,
3002
0000
0000
0000
,
0000
0000
0203
0000
,
0000
0000
0310
0100
,
0000
0010
0000
0001
,
0000
1000
0000
0010
,
0000
0100
0000
0001
,
0000
1000
0000
0001
,
0000
0100
0000
0010
,
0000
0001
0000
1000
,
0000
0010
0000
0100
,
0000
0001
0000
0100
,
0000
0010
0000
1000
,
0000
0001
0000
0100
,
0000
0010
0000
1000
,
0000
0001
0000
0100
,
0000
0010
0000
1000
,
0000
0001
0000
0100
,
0000
0010
0000
1000
,
0000
0001
0000
0100
;

//---------------dance-single - Light----------------
#NOTES:
     dance-single:
     Light:
     Easy:
     2:
     0.247,0.298,0.266,0.067,0.000,126.000,24.000,6.000,0.000,1.000:
0000
0000
0000
0000
,
1000
1000
1000
0000
,
0001
0001
0001
0000
,
0100
0100
0010
0000
,
0100
0100
0100
0000
,
0010
0010
0010
0000
,
0100
0001
0010
0000
,
1000
1000
0001
0000
,
0100
0010
0001
0000
,
0001
1000
0100
0000
,
0001
0100
1000
0000
,
1000
0100
0100
0000
,
0010
0100
0020
0100
,
0100
1000
1000
0001
,
0001
0100
0100
0130
,
0010
0000
0002
0000
,
0200
1003
0301
1001
,
1001
0000
0100
0010
,
0001
1000
0100
1000
,
0010
0100
1000
0010
,
0001
1000
0100
0001
,
0001
1000
1000
0001
,
0001
0100
0100
0001
,
0010
0100
1000
0100
,
0001
0010
0100
1001
,
0000
0011
0000
1100
,
0000
0011
0000
0110
,
0000
1100
0000
1100
,
0000
1000
2000
0000
,
0000
0000
0000
0000
,
3002
0000
0000
0000
,
0000
0000
0203
0000
,
0000
0000
0310
0100
,
0000
0011
0000
0001
,
0000
1001
0000
0010
,
0000
0101
0000
0001
,
0000
1100
0000
0001
,
0000
0101
0000
0010
,
0000
1001
0000
1000
,
0000
0110
0000
0100
,
0000
1001
0000
0100
,
0000
0011
0000
1000
,
0000
0101
0000
0100
,
0000
1010
0000
1000
,
0000
0101
0000
0100
,
0000
0011
0000
1000
,
0000
1001
0000
0100
,
0000
0011
0000
1000
,
0000
0001
0000
0100
;

//---------------dance-single - Medium----------------
#NOTES:
     dance-single:
     Medium:
     Medium:
     6:
     0.436,0.406,0.133,0.111,0.011,253.000,12.000,10.000,0.000,0.000:
0000
0000
0000
0000
,
1000
0000
0011
0000
0100
0010
0100
0010
,
1000
0000
1100
0000
1000
0001
1000
0001
,
1000
0000
0110
0000
0010
0001
1000
0001
,
0010
0000
0110
0000
0001
0100
0010
0100
,
1000
0000
0101
0000
0001
1000
0001
1000
,
0100
0000
1001
0000
0010
0100
0010
0001
,
1000
0000
0110
0000
0001
1000
0001
1000
,
0100
0000
0110
0000
0001
1000
0100
0001
,
0010
0000
0101
0000
0100
1000
0001
0100
,
0010
0000
1010
0000
0100
0010
1000
0100
,
0001
0000
0011
0000
0100
1000
0100
0001
,
0010
0101
2000
0100
,
0100
0000
0100
0000
3010
0100
0020
0000
,
0001
0000
0001
0000
0100
0000
0100
0030
,
0010
0100
0010
1000
0002
0000
0100
0100
,
0100
0000
0000
0100
0003
0000
0100
0000
0001
0000
0000
0000
0001
0000
0010
0000
,
1000
0100
0001
1000
0100
0000
0100
0010
,
0001
1000
0001
1000
0100
0000
0001
1000
,
0010
0001
0100
0000
1000
0000
0100
1000
,
0001
0000
0001
1000
0100
0000
0010
0100
,
0010
0000
1000
0100
1000
0000
0001
0100
,
0001
0000
0100
1000
0100
0000
0010
0001
,
0010
0000
0100
0010
1000
0000
0100
0010
,
0001
0000
0100
0100
0100
0000
0010
0010
,
0010
0000
1000
1000
1000
0000
0001
0001
,
0001
0000
0001
1000
0100
0000
0010
1000
,
0010
0000
0100
0001
0100
0000
0010
0100
,
0001
0000
1000
0100
0020
0000
0000
0000
,
0000
0000
0000
0000
,
0000
0032
0000
0203
0000
0320
0000
0230
,
0000
2300
0000
3010
0200
0000
0000
0000
,
0000
0000
0000
0000
0310
0001
0100
0000
,
0010
0100
0010
0000
0001
0100
0001
0000
,
1000
0100
1000
0000
0010
0100
0010
0000
,
0100
0010
0100
0000
0001
0100
0001
0000
,
1000
0100
1000
0000
0010
0100
0001
0000
,
0100
0010
0100
0000
0100
0001
0010
0000
,
0100
0010
0001
0000
0010
0100
1000
0000
,
0010
0100
0010
0000
1000
0010
0100
0000
,
0001
0100
0001
0000
0000
0100
0100
0000
,
0000
0000
0010
0010
0000
0000
1000
1000
,
0000
0000
0001
0001
0000
0000
0100
0100
,
0000
0000
0010
0010
0000
0000
1000
1000
,
0000
0000
0001
0001
0000
0000
0100
0100
,
0000
0000
0010
0010
0000
0000
1000
1000
,
0000
0000
0001
0001
0000
0000
0100
0100
,
0000
0000
0010
0010
0000
0000
1000
1000
,
0000
0000
0000
0000
0001
0000
0001
0000
0000
0000
0100
0000
0000
0100
0000
0000
;

//---------------dance-single - Heavy----------------
#NOTES:
     dance-single:
     Heavy:
     Hard:
     9:
     0.590,0.569,0.466,0.055,0.316,325.000,42.000,5.000,0.000,0.000:
0000
0000
0000
0000
,
1000
0010
0000
0100
0001
0000
0100
0000
0100
0000
0100
0000
0010
0100
0000
0010
,
1000
0000
1000
0100
0000
0000
0001
0000
0001
0000
0001
0000
1000
0010
0000
1000
,
0100
0000
1000
0100
0000
1000
0100
0000
0010
0000
0100
0000
0010
0001
0000
1000
,
0100
0000
1000
0100
0000
1000
0100
0000
0001
0000
0001
0000
1000
0001
0000
0001
,
1000
0000
0001
1000
0000
1000
0001
0000
0100
0000
0010
0000
0100
0001
0000
1000
,
0100
0000
0010
0001
0000
1000
0100
0000
0010
0000
0100
0000
0001
1000
0000
0001
,
1000
0000
0001
0000
1000
0000
1000
0001
0000
0000
1000
0000
0001
1000
0000
0010
,
1000
0000
1000
0100
0000
0100
0000
0100
0001
0000
1000
0000
0001
1000
0000
0001
,
0010
0000
0100
0000
0000
0000
0010
0000
0100
0000
0010
0000
1000
0001
0000
1000
,
0001
0000
0001
1000
0000
0000
1000
0000
0100
0000
1010
0000
0100
0001
0000
0100
,
0001
0000
0010
0000
0010
0000
0000
0000
0100
0000
0010
0000
0100
0010
0000
0100
,
0010
0000
0100
0001
0000
0001
0000
0100
1000
0000
0100
0000
1000
0100
0000
1000
,
0100
0000
0010
0001
0000
0010
0001
0000
1000
0000
0100
0000
1000
0001
0000
1000
,
0001
0000
1000
0001
0000
1000
0001
0000
0100
0000
0001
0000
0000
1000
0000
0000
,
0010
0000
0010
0100
0000
0010
0100
0000
0001
0000
1000
0000
0100
0000
0000
0000
,
1100
0000
0000
0110
0000
0000
0001
0000
0010
0000
0001
0000
0100
0000
0010
0000
,
1000
0100
0000
1000
0100
0000
1010
0000
,
0101
0000
1010
0000
0101
0000
0010
0100
,
0010
0110
1001
0000
,
0001
1000
0001
1000
0100
0000
0110
0000
,
0010
0011
0000
1000
1100
0000
1100
0000
,
0011
0000
1100
0000
0010
0011
0000
0010
,
0011
1100
1010
0000
,
0001
1000
0001
1000
0100
1010
0000
0010
,
0010
1100
1010
0101
,
1000
0001
0000
0011
0000
1100
0000
0000
,
0020
0000
0100
0000
0130
1000
0010
0000
,
0001
1000
0100
0010
2000
0000
3100
0000
,
1100
0010
0200
0000
0320
0000
0000
0000
,
0032
0100
0000
0010
0000
1000
0000
0100
,
0000
1000
0000
0100
0000
1000
0000
0010
,
0000
0100
0000
1000
0013
0000
1100
0000
,
0110
0011
0110
1001
,
1100
0011
1100
0011
,
1100
0110
0110
1001
,
0100
0000
1100
0000
0001
0100
0001
1000
,
0001
1000
1100
0000
0010
0100
0010
1000
,
0100
0010
0001
0000
1000
0100
1000
0001
,
0100
0001
0010
0000
0100
1000
0100
0010
,
0100
0000
0010
0000
1001
0000
0000
0000
0100
0010
0000
0010
0100
0000
0010
0000
,
0001
0100
0010
0000
1000
0100
1000
0010
,
0100
0010
0001
0000
1000
0100
0100
0010
,
1000
0001
0010
0000
0100
0010
1000
0100
,
1000
0100
0001
0000
0100
1000
0100
0010
,
0001
0100
0010
0000
0100
0010
1000
0100
,
0010
0100
0001
0000
0100
1000
0100
0010
,
0001
0100
0010
0000
1000
0100
1000
0100
,
1000
0000
0100
0000
0001
0000
0010
0000
1000
0000
0001
1000
0000
0100
0000
0000
;
