#TITLE:Mad Blast;
#SUBTITLE:;
#ARTIST:The Infection;
#TITLETRANSLIT:;
#SUBTITLETRANSLIT:;
#ARTISTTRANSLIT:;
#CREDIT:;
#BANNER:MAD BLAST.png;
#BACKGROUND:MAD BLAST-bg.png;
#LYRICSPATH:;
#CDTITLE:;
#MUSIC:MAD BLAST.mp3;
#OFFSET:-0.050;
#SAMPLESTART:33.343;
#SAMPLELENGTH:12.000;
#SELECTABLE:YES;
#BPMS:0.000=180.000,164.000=90.000,172.000=180.000,174.000=360.000,270.000=180.000,286.000=720.000;
#STOPS:;
#BGCHANGES:;
// cache tags:
#FIRSTBEAT:8.000;
#LASTBEAT:392.000;
#SONGFILENAME:Songs/Ace Megapack/MAD BLAST/madblast.sm;
#HASMUSIC:1;
#HASBANNER:1;
#MUSICLENGTH:92.899;
// end cache tags

//---------------dance-single - ----------------
#NOTES:
     dance-single:
     :
     Hard:
     10:
     0.870,1.000,0.140,0.140,0.522,540.000,13.000,13.000,0.000,8.000:
0000
0000
0000
0000
,
0000
0000
0000
0000
,
1000
0000
1000
0100
0000
0100
0010
0000
0010
0001
0000
0001
,
0100
0000
0000
0000
0000
0000
0000
0000
0100
0000
0000
0000
0010
0000
0000
0000
0000
0000
0000
0000
0010
0000
0000
0000
1000
0000
0000
0100
0000
0000
1000
0000
0000
0100
0000
0000
1000
0000
0000
0000
0000
0000
0000
0000
0000
0000
0000
0000
,
1000
0000
0100
0000
0010
0000
0001
0000
0100
0000
0000
0010
0000
0000
0100
0000
,
0001
0000
1000
0000
0010
0000
0100
0000
0001
0000
0000
1000
0000
0000
0001
0000
,
0010
0000
0100
0000
1000
0000
0010
0000
0100
0000
0000
0001
0000
0000
0010
0000
,
0001
0000
0100
0000
1000
0000
0100
0000
0001
0000
0000
0010
0000
0000
0100
0000
,
1000
0000
0010
0000
0100
0000
0001
0000
0010
0000
0000
0100
0000
0000
1000
0000
,
1000
0000
0100
0000
1000
0000
0001
0000
0100
0000
0000
0010
0000
0000
0100
0000
,
0100
0000
0001
0000
0010
0000
0100
0000
1000
0000
0000
0001
0000
0000
0010
0000
,
0010
0000
0001
0000
0100
0000
1000
0000
0100
0000
0000
0001
0000
0000
0100
0000
,
0010
0000
0010
1000
0000
1000
0100
0000
0100
0010
0000
0010
,
0001
0000
0001
0100
0000
0100
0010
0000
0010
1000
0000
1000
,
0001
0000
0001
0010
0000
0010
0100
0000
0100
1000
0000
1000
,
0010
0000
0000
0000
0000
0000
0000
0000
0010
0000
0000
0000
0001
0000
0000
0000
0000
0000
0000
0000
0001
0000
0000
0000
0010
0000
0000
0100
0000
0000
0010
0000
0000
0100
0000
0000
0010
0000
0000
0000
0000
0000
0000
0000
0000
0000
0000
0000
,
1000
0000
0001
0000
0010
0000
0001
0000
0100
0000
0000
0010
0000
0000
0100
0000
,
0100
0000
0001
0000
0010
0000
0100
0000
1000
0000
0000
0010
0000
0000
0001
0000
,
0001
0000
0010
0000
1000
0000
0010
0000
0100
0000
0000
0001
0000
0000
0010
0000
,
0010
0000
0100
0000
1000
0000
0010
0000
0100
0000
0000
0001
0000
0000
0010
0000
,
0100
0000
1000
0000
0010
0000
0100
0000
0001
0000
0010
0100
0000
1000
0100
0000
,
0010
0000
0001
0000
0100
0000
0010
0000
1000
0000
0100
0010
0000
0001
0010
0000
,
0100
0000
0001
0000
0100
0000
1000
0000
0010
0000
0100
0001
0000
0010
0100
0000
,
1000
0000
0010
0000
0100
0000
0001
0000
0010
0000
0100
1000
0000
0010
0100
0000
,
0010
0000
0010
1000
0000
1000
0100
0000
0100
0010
0000
0010
,
0100
0000
0100
0001
0000
0001
0100
0000
0100
0010
0000
0010
,
0001
0000
0001
0100
0000
0100
0010
0000
0010
1000
0000
1000
,
0100
0000
0000
0000
0000
0000
0000
0000
0100
0000
0000
0000
0010
0000
0000
0000
0000
0000
0000
0000
0010
0000
0000
0000
0001
0000
0000
0000
0000
0000
0000
0000
0001
0000
0000
0000
0010
0000
0000
0100
0000
0000
0010
0000
0000
0100
0000
0000
,
1000
0000
1000
0000
1000
0000
1000
0000
0001
0000
0000
1001
0000
0000
0000
0000
,
0001
0000
0001
0000
0001
0000
0001
0000
1000
0000
0000
1001
0000
0000
0000
0000
,
1000
0000
1000
0000
1000
0000
1000
0000
0001
0000
0000
1001
0000
0000
0000
0000
,
0001
0000
0001
0000
0001
0000
0001
0000
1000
0000
0000
1001
0000
0000
0000
0000
,
1000
0100
1000
0100
1000
0000
0000
0000
0001
0100
0001
0100
0001
0000
0000
0000
,
1000
0000
0100
0010
0000
0001
0100
0000
0010
1000
0000
0100
,
0010
0000
0001
0010
0000
0001
0100
0000
1000
0100
0000
0001
,
0010
0000
0100
1000
0000
0010
0100
0000
0001
0010
0000
0001
,
1000
0000
0100
0010
0000
0001
0010
0000
1000
0010
0000
0001
,
0100
0000
0010
1000
0000
0001
1000
0000
0100
0010
0000
0001
,
0100
0000
0010
1000
0000
0100
0010
0000
0001
0100
0000
0010
,
1000
1100
0001
0101
,
1000
0001
0101
0001
1000
0100
1100
1000
,
0200
0000
0000
0020
0302
0000
0230
0000
0000
0023
0000
0000
2300
0000
0230
0000
,
3020
0000
0302
0000
0030
0200
0000
0023
0000
0300
1030
0000
1100
0000
0101
0000
,
1000
0001
1001
0000
1000
0100
1000
0100
,
1000
0100
1000
0100
1000
0100
1000
0100
,
1000
0100
1000
0100
0010
0001
0010
0001
,
0010
0001
0010
0001
0010
0001
0010
0001
,
0010
0001
0010
0001
0100
0010
0100
0010
,
0100
0010
0100
0010
0100
0010
0100
0010
,
0100
0010
0100
0010
1000
0001
1000
0001
,
1000
0001
1000
0001
1000
0001
1000
0001
,
1000
0001
1000
0001
0010
0001
0010
0001
,
0010
0001
0010
0001
1000
0100
1000
0100
,
1000
0100
1000
0100
0010
0100
0010
0100
,
0010
0100
0010
0100
1000
0001
1000
0001
,
1000
0001
1000
0001
1000
0100
1000
0100
,
0010
0001
0010
0001
1000
0100
1000
0100
,
0010
0001
0010
0001
0100
0001
0100
0001
,
1000
0010
1000
0010
0100
0001
0100
0001
,
1000
0010
1000
0010
0100
0000
0000
0000
,
0000
0000
1000
0100
0000
0000
0010
0001
,
0000
0000
0000
0000
1000
0010
0000
1000
,
0000
0100
0010
0000
0001
1000
0001
0000
,
0000
1001
0000
1000
,
0100
0000
0010
0000
0001
0100
0000
0010
,
1000
0100
0010
0001
,
0000
0000
0000
0000
1000
0000
0000
0001
,
0000
1000
1001
1000
,
1000
1000
0001
0001
,
0001
0001
0010
0010
,
0010
0010
0100
0100
,
0100
0100
1000
0100
,
1000
0100
1000
0000
,
0001
0100
0001
0100
,
0001
0000
1000
0100
,
1000
0100
1000
0000
,
0001
0100
0001
0100
,
0001
0000
1000
0001
,
1000
0001
1000
0000
,
0010
0100
0010
0100
,
0010
0100
0010
0000
,
1000
0010
1000
0010
,
1000
0000
0001
0010
,
0001
0010
0001
0000
,
1000
0001
1000
0001
,
1000
0000
0010
0100
,
0010
0100
0010
0000
,
2000
0000
0000
0000
,
0000
0000
0000
0000
,
0000
0000
0000
0000
,
0000
0000
0000
0000
,
0002
0000
0000
0000
,
0000
0000
0000
0000
,
0000
0000
0000
0000
,
0000
0000
0000
0000
,
0000
0000
0000
0000
,
0000
0000
0000
0000
,
0000
0000
0000
0000
,
3003
0000
0000
0000
;

//---------------dance-single - ----------------
#NOTES:
     dance-single:
     :
     Medium:
     7:
     0.541,0.897,0.344,0.108,0.022,310.000,32.000,10.000,0.000,0.000:
0000
0000
0000
0000
,
0000
0000
0000
0000
,
1000
1000
0001
0001
,
1000
0000
1000
0000
0100
1000
0100
0000
,
1000
0100
0010
0000
0001
0000
0011
0000
,
0001
0100
0010
0000
1000
0000
1100
0000
,
0001
1000
0010
0000
0100
0000
0011
0000
,
1000
0001
0100
0000
0010
0000
1100
0000
,
0001
1000
0100
0000
1000
0000
1001
0000
,
0001
0100
0010
0000
0001
0000
0101
0000
,
0010
0100
1000
0000
0010
0000
0110
0000
,
1000
0010
0001
0000
0100
0000
1001
0000
,
1000
0000
1000
0000
,
0001
0000
0001
0000
,
0010
0000
0010
0000
,
0100
0000
0000
0000
0100
0010
0001
0000
,
1100
0000
0101
0000
1000
0100
0010
0000
,
0101
0000
1100
0000
0001
0010
0100
0000
,
0011
0000
1100
0000
0001
0100
0010
0000
,
1100
0000
0011
0000
0100
0010
0001
0010
,
0100
0000
0000
0000
1100
0000
0000
0000
1000
0000
0000
1000
0000
0000
1000
0000
,
0001
0000
0000
0000
0101
0000
0000
0000
0001
0000
0000
0001
0000
0000
0001
0000
,
0100
0000
0000
0000
0110
0000
0000
0000
0010
0000
0000
0010
0000
0000
0010
0000
,
1000
0000
0000
0000
1100
0000
0000
0000
0001
0000
0000
0010
0000
0000
0100
0000
,
1000
0000
0100
0000
,
0001
0000
0010
0000
,
0001
0000
0100
0000
,
1000
0010
0100
0001
,
0010
0001
0010
0001
0100
0000
0101
0000
,
0010
1000
0010
1000
0100
0000
1100
0000
,
0100
0001
0100
0001
0010
0000
0011
0000
,
0100
1000
0100
1000
0010
0000
1010
0000
,
1000
0000
1000
0000
,
1000
0100
0001
0010
,
1000
0100
0001
0010
,
0001
0100
1000
0010
,
0001
0100
1000
0010
,
0100
0100
0001
0001
,
0010
0010
1000
1000
,
1100
0101
1100
0101
,
0001
0100
0001
0100
1000
0100
1000
0100
,
0002
2003
3200
2300
,
3020
0032
0023
2030
,
3100
1000
0001
0000
1000
0000
0100
0000
,
1000
0100
1000
0100
,
1000
0100
0010
0001
,
0010
0001
0010
0001
,
0010
0001
0100
0001
,
0100
0001
0100
0001
,
0100
0001
1000
0010
,
1000
0010
1000
0010
,
1000
0010
0100
0010
,
0100
0010
1000
0001
,
1000
0001
0100
0010
,
0100
0010
1000
0001
,
1000
0001
1000
0100
,
0010
0001
1000
0100
,
0010
0001
0100
0010
,
1000
0001
0100
0010
,
1000
0001
0100
0000
,
0000
1010
0000
1010
,
0000
0000
0000
0000
1000
0000
0000
1000
,
0000
0000
1000
0000
0001
1000
0000
0000
,
0000
1001
0000
1000
,
0100
0000
1000
0000
0100
1000
0000
0100
,
1000
0100
0010
0001
,
0000
0000
0000
0000
1000
0000
0000
0001
,
0000
1000
1001
1000
,
1000
1000
0100
0100
,
0100
0100
0010
0010
,
0010
0010
0001
0001
,
0001
0001
1000
0000
,
0000
0100
0000
0000
,
0010
0000
0000
0001
,
0000
0000
0100
0000
,
0000
0010
0000
0000
,
1000
0000
0000
0100
,
0000
0000
0001
0000
,
0000
0100
0000
0000
,
1000
0000
0010
0000
,
0100
0000
0001
0000
,
0100
0000
0000
0010
,
0000
0000
1000
0000
,
0000
0010
0000
0000
,
0100
0000
0000
0001
,
0000
0000
1000
0000
,
0100
0000
0010
0000
,
0002
0000
0000
0000
,
0000
0000
0000
0000
,
0000
0000
0000
0000
,
0000
0000
0000
0000
,
2000
0000
0000
0000
,
0000
0000
0000
0000
,
0000
0000
0000
0000
,
0000
0000
0000
0000
,
0000
0000
0000
0000
,
0000
0000
0000
0000
,
0000
0000
0000
0000
,
3003
0000
0000
0000
;

//---------------dance-single - ----------------
#NOTES:
     dance-single:
     :
     Easy:
     5:
     0.360,0.686,0.054,0.065,0.000,223.000,5.000,6.000,0.000,0.000:
0000
0000
0000
0000
,
0000
0000
0000
0000
,
1000
1000
0100
0100
,
0010
0010
0001
0000
,
1000
1000
0010
0100
,
0001
0001
0010
0100
,
1000
1000
0010
0100
,
0001
0001
0010
0001
,
0100
0100
0010
1000
,
0100
0100
0010
0001
,
0100
0100
0010
1000
,
0001
0001
0010
0100
,
1000
0000
1000
0000
,
0001
0000
0001
0000
,
0100
0000
0100
0000
,
0010
0000
0010
0000
,
0001
0001
0100
0010
,
1000
1000
0100
0010
,
0001
0001
0100
0010
,
1000
1000
0100
1000
,
0010
0010
0100
0001
,
0010
0010
0100
1000
,
0010
0010
0100
0001
,
1000
1000
0100
0010
,
0001
0000
0001
0000
,
1000
0000
1000
0000
,
0010
0000
0010
0000
,
0100
0000
0100
0000
,
1000
0010
0100
0000
,
0001
0100
0010
0000
,
1000
0100
0010
0000
,
0001
0010
0100
0000
,
1001
0000
1001
0000
,
1000
1000
0001
0001
,
1000
1000
0001
0001
,
0100
0100
0010
0010
,
0100
0100
0010
0010
,
1000
0100
0010
0001
,
1000
0100
0010
0001
,
0100
0010
1000
0001
,
1000
0001
1000
0001
0100
0010
0100
0010
,
2000
3000
0200
0300
,
0020
0030
0002
0003
,
1000
0100
1000
0000
1000
0000
0000
0000
,
0001
0000
0100
0000
,
0010
0000
1000
0000
,
0001
0000
0100
0000
,
0010
0000
1000
0000
,
0100
0000
0010
0000
,
0001
0000
1000
0000
,
0100
0000
0010
0000
,
0001
0000
1000
0000
,
0001
0000
0010
0000
,
0100
0000
1000
0000
,
0001
0000
0010
0000
,
0100
0000
1000
0000
,
0010
0000
0100
0000
,
0001
0000
0010
0000
,
0100
0000
1000
0000
,
0010
0000
0100
0000
,
0000
1000
0000
1000
,
0000
0000
0000
0000
0001
0000
0000
0001
,
0000
0001
1000
0000
,
0000
1001
0000
0001
,
0010
0000
0100
0000
0000
1000
0000
0000
,
0100
0010
0000
1001
,
0000
0000
0000
0000
1000
0000
0000
0001
,
0000
1000
1001
1000
,
1000
1000
0001
0001
,
0001
0001
0100
0100
,
0100
0100
0010
0010
,
0010
0010
1000
0000
,
0000
0000
0000
0000
,
0100
0000
0000
0000
,
0000
0000
0010
0000
,
0000
0000
0000
0000
,
0001
0000
0000
0000
,
0000
0000
0100
0000
,
0000
0000
0000
0000
,
1000
0000
0000
0000
,
0100
0000
0000
0000
,
0010
0000
0000
0000
,
0000
0000
0001
0000
,
0000
0000
0000
0000
,
1000
0000
0000
0000
,
0000
0000
0010
0000
,
0000
0000
0000
0000
,
2000
0000
0000
0000
,
0000
0000
0000
0000
,
0000
0000
0000
0000
,
0000
0000
0000
0000
,
0002
0000
0000
0000
,
0000
0000
0000
0000
,
0000
0000
0000
0000
,
0000
0000
0000
0000
,
0000
0000
0000
0000
,
0000
0000
0000
0000
,
0000
0000
0000
0000
,
3003
0000
0000
0000
;
