#TITLE:We Fucking Hate You;
#SUBTITLE:(For The Enemies);
#ARTIST:Bonehead and Prince Ov Darkness;
#TITLETRANSLIT:;
#SUBTITLETRANSLIT:;
#ARTISTTRANSLIT:;
#CREDIT:Aoreo;
#BANNER:we fucking hate banners.png;
#BACKGROUND:we fucking hate wallpaper.png;
#LYRICSPATH:;
#CDTITLE:;
#MUSIC:We Fucking Hate You (For The Enemies).ogg;
#OFFSET:-0.026;
#SAMPLESTART:25.940;
#SAMPLELENGTH:13.000;
#SELECTABLE:YES;
#DISPLAYBPM:220.000;
#BPMS:0.000=220.000;
#STOPS:;
#BGCHANGES:;
// cache tags:
#FIRSTBEAT:16.000;
#LASTBEAT:641.000;
#SONGFILENAME:Songs/SPEEEDCOOOORE 2/We Fucking Hate You (For The Enemies) - [Aoreo]/We Fucking Hate You (For The Enemies).sm;
#HASMUSIC:1;
#HASBANNER:1;
#MUSICLENGTH:183.080;
// end cache tags

//---------------dance-single - J. Nero----------------
#NOTES:
     dance-single:
     J. Nero:
     Challenge:
     18:
     1.000,1.000,0.115,0.071,1.000,2074.000,21.000,13.000,1.000,0.000:
0000
0000
0000
0000
,
0000
0000
0000
0000
,
0000
0000
0000
0000
,
0000
0000
0000
0000
,
0001
0100
0001
0100
0010
1000
0001
0100
0010
1000
0100
0010
0001
1000
0001
1000
,
0010
0100
0001
1000
0100
1000
0001
0100
,
0001
1000
0001
1000
0100
0010
0001
1000
0001
0010
0100
1000
0001
1000
0010
0100
,
0001
0000
0100
0000
0001
0000
0010
0000
0100
0000
1000
0000
0001
0100
0001
0000
,
1000
0010
1000
0010
0100
0001
0100
0010
1000
0001
0010
0100
1000
0001
1000
0010
,
0100
0001
1000
0100
1000
0010
0100
0001
,
1000
0100
1000
0001
0100
0010
1000
0001
0010
0100
1000
0001
1000
0100
0010
0001
,
1000
0000
0010
0000
0100
0000
0001
0000
1000
0100
1000
0010
0100
0001
0010
0100
,
1000
0001
0400
0300
,
0040
0030
1000
0000
0400
0300
1000
0000
,
1001
0001
0010
0100
1000
0000
0000
0000
,
0100
1000
0001
0100
0110
0000
0010
1000
,
0002
0003
2000
3000
0200
0300
0000
1000
,
0001
0100
0010
0100
0001
1000
0100
0000
,
1100
0000
0000
0000
1001
0000
0000
0001
,
0101
0000
0100
0000
0010
1000
0001
1000
,
0100
1000
0001
1000
0001
0100
0010
0100
0001
0000
1000
0000
0001
0100
0001
0000
,
1000
0010
1000
0001
0100
0010
1000
0010
0100
0001
1000
0010
1000
0010
0100
0000
,
0001
0100
0001
0100
0010
1000
0001
1000
0002
0000
0000
0000
1003
0000
0100
0000
,
1000
0001
0100
0001
0100
0010
1000
0001
1000
0001
0010
0000
0200
0000
2300
0000
,
3001
0000
0100
0000
0010
0000
1000
0000
0001
0000
0100
0001
0100
0000
0010
0000
,
1000
0000
0001
0000
0001
0000
0100
0000
0010
0000
0010
0000
1000
0100
1000
0000
,
00M1
0000
0000
0000
0000
0000
0000
0000
0000
0000
0000
0000
0000
0000
0000
0000
0202
0303
0000
0000
0000
0000
0000
0000
0000
0000
0000
0000
0000
0000
0000
0000
,
2020
3030
0000
0000
0000
0000
0000
0000
1000
0000
0000
0000
0000
0000
0000
0000
0001
0000
0000
0000
0000
0000
0100
0000
0000
0000
0000
0000
0010
0000
0000
0000
,
1000
0010
1000
0010
0100
0001
0100
0010
1000
0001
1000
0001
0010
0100
1000
0001
,
1000
0100
1000
0100
0010
0001
1000
0001
0100
0010
0100
0001
1000
0001
0100
0010
,
0100
0001
1000
0001
0010
0100
1000
0001
1000
0001
0100
0010
0100
0001
1000
0001
,
1000
0010
0100
0001
0100
0010
1000
0001
0100
0001
1000
0100
0010
0001
1000
0100
,
0010
0100
0010
0001
1000
0001
1000
0100
0010
0001
1000
0001
0100
0010
0100
0001
,
1000
0001
0100
0010
0100
0001
1000
0001
0010
0100
1000
0001
0010
0100
0010
0100
,
1000
0001
1000
0100
0010
0100
0010
0001
1000
0001
0010
0100
1000
0001
0100
0010
,
0100
0001
1000
0010
0100
0001
0100
0010
1000
0001
0010
0100
1000
0001
1000
0010
,
0100
0001
0100
0010
0100
0001
1000
0100
1000
0000
0000
0000
0001
0100
0001
0100
,
0010
1000
0010
1000
0001
0100
0001
0100
0010
0000
0000
0000
1000
0000
0000
0000
,
0001
0100
0001
0100
0001
0010
0100
1000
0001
1000
0100
0010
0001
1000
0001
0100
,
0010
0100
0001
1000
0100
1000
0001
0100
0010
0100
0001
0010
0100
1000
0010
0100
,
0001
0010
0100
1000
0010
0100
0010
1000
0001
0000
0000
0000
1000
0100
1000
0001
,
0100
0001
0100
0010
1000
0001
0100
0001
1000
0000
0000
0000
0001
0000
0000
0000
,
1000
0100
1000
0001
0100
0010
0100
0001
1000
0001
1000
0100
0010
0001
1000
0001
,
1000
1001
1001
1001
,
0001
0100
0001
0100
0010
1000
0001
1000
0001
0010
0100
1000
0001
0000
0000
0000
,
1000
0100
1000
0100
0010
0001
1000
0001
1000
0010
0100
0001
0100
0000
0001
0000
,
1000
0100
1000
0001
0100
0001
0100
0010
1000
0001
1000
0001
0100
0000
0000
0000
,
0001
0100
0001
0100
0010
1000
0010
0100
0001
1000
0001
1000
0010
0000
0100
0000
,
0001
0100
0001
0100
0010
1000
0001
0100
0001
1000
0100
1000
0001
0000
0100
0000
,
0001
1000
0100
1000
0001
0100
0010
1000
0001
1000
0100
0010
0001
1000
0100
1000
,
0001
0100
0001
1000
0001
0100
0001
1000
0001
0000
0100
0000
0001
0100
0001
0000
,
1000
0100
0010
0100
0010
0001
1000
0001
1000
0010
0100
0001
2000
0000
0000
0000
,
3001
0100
0010
1000
1000
0001
0100
0100
,
0001
0000
1000
0100
1000
0000
0001
0100
0001
0000
1000
0000
0000
0000
0001
0000
,
0001
0000
0000
0000
1001
0000
1000
0000
0010
0000
0100
0001
0010
0000
0100
0000
,
1100
0000
1000
0000
0001
0000
0101
0000
0100
0000
0010
0000
1000
0100
1000
0001
,
0100
0010
1000
0100
0100
0100
1000
1000
,
0010
0000
0100
0000
0001
0000
1000
0010
1000
0000
0001
0000
0100
0000
0001
0000
,
0100
0000
0000
0000
0100
0000
0000
0000
0100
0000
0001
0100
0010
0100
0001
0000
,
1000
0000
0100
0000
0100
0000
1000
0000
0001
0000
1000
0100
1000
0001
0100
0000
,
0001
0100
0001
0100
0010
1000
0001
1000
0010
0100
0001
1000
0001
0010
0100
1000
,
0001
1000
0100
0010
0100
1000
0001
1000
0010
0100
0001
0100
0010
1000
0001
0010
,
0100
1000
0001
1000
0100
0010
0100
1000
0001
1000
0010
0100
0001
0100
0010
1000
,
0001
1000
0001
0010
0100
1000
0001
1000
0010
0100
0001
0010
0100
1000
0010
0100
,
0001
0100
0010
1000
0001
1000
0001
0010
0100
1000
0001
1000
0100
0010
0100
0010
,
0001
1000
0001
0100
0010
0100
0001
1000
0001
1000
0100
0010
0100
0010
0001
1000
,
0001
1000
0100
1000
0001
0100
0001
1000
0010
0100
0001
1000
0100
1000
0010
0100
,
0001
0000
1001
0000
1000
0010
0100
0000
,
0001
0100
0010
0100
0001
1000
0001
0010
0100
1000
0001
1000
0001
0100
0010
0100
,
0001
1000
0001
0010
0100
1000
0001
1000
0010
0100
0001
0100
0010
1000
0001
0010
,
0100
1000
0001
1000
0100
0010
0001
1000
0001
1000
0100
0010
0100
0010
0001
1000
,
0001
1000
0010
0100
0001
0100
0001
1000
0010
0100
0001
0010
0100
1000
0010
0100
,
0001
0100
0001
1000
0100
0010
0100
0010
0001
1000
0001
1000
0010
0100
0001
0100
,
0010
1000
0010
0100
0001
1000
0100
0010
0001
1000
0001
0100
0010
0100
0001
1000
,
0001
1000
0100
0010
0001
1000
0001
0010
0100
1000
0001
1000
0010
0100
0001
1000
,
0001
0000
1000
0010
0110
0000
0000
0000
,
0101
0001
0010
0100
0100
0100
1000
1000
,
0001
0000
0100
0001
0100
0000
0001
1000
0001
0000
1000
0000
0010
0000
0100
0000
,
0001
0000
1000
0000
0100
0000
1000
0000
0001
0000
0010
0001
0100
0000
0010
0000
,
1000
0000
0001
1000
0000
0000
0000
0000
,
1001
0001
1000
1100
0100
1000
0001
0100
,
0101
0000
0001
0000
1000
0000
0001
0100
0010
0000
0100
0000
0001
0000
1000
0000
,
1100
0000
0100
0000
0010
0000
0001
0000
1001
0000
1000
0000
0001
0100
0001
0000
,
1000
0100
1000
0100
0010
0001
0010
0001
1000
0100
1000
0001
0100
0001
0100
0010
,
1000
0001
0100
0010
0100
0001
1000
0001
0010
0100
0010
0100
1000
0001
1000
0100
,
0010
0100
1000
0001
0100
0010
0100
0001
1000
0001
0010
0100
1000
0001
1000
0100
,
0010
0100
1000
0001
1000
0010
0100
0001
0100
0010
1000
0001
1000
0100
0010
0100
,
0010
0001
1000
0001
0010
0100
1000
0001
1000
0100
0010
0100
0010
0001
1000
0001
,
1000
0010
0100
0001
0100
0010
1000
0001
0100
0010
0100
0001
1000
0001
1000
0010
,
0100
0010
1000
0001
0010
0100
1000
0001
1000
0100
0010
0001
1000
0001
0100
0010
,
0100
0001
1000
0001
0010
0100
1000
0001
1000
0100
1000
0001
0100
0010
0100
0001
,
1000
0001
0010
0100
1000
0001
1000
0001
0100
0000
0000
0000
0001
0000
0000
0000
,
1000
0100
1000
0001
0100
0001
1000
0010
0100
0001
1000
0100
0010
0100
0010
0001
,
1000
0001
1000
0010
0100
0001
0100
0010
1000
0001
0010
0100
1000
0001
1000
0100
,
0010
0001
1000
0010
0100
0001
0100
0010
1000
0100
0010
0100
1000
0001
0100
0010
,
0100
0001
1000
0001
0010
0100
1000
0001
1000
0100
1000
0010
0100
0001
0010
0100
,
1000
0001
1000
0010
0100
0001
0100
0010
1000
0001
0010
0100
1000
0001
1000
0010
,
0100
0001
0100
0010
1000
0001
1000
0100
0010
0001
1000
0001
0010
0100
1000
0001
,
1000
0010
0100
0001
0100
0010
1000
0001
0100
0001
0010
0100
1000
0001
0100
0010
,
0100
0000
0000
0000
0001
0000
0000
0000
1000
0000
0001
0100
0001
0000
0000
0000
,
1000
0010
1000
0010
0100
0001
0100
0010
1000
0001
0010
0100
1000
0001
1000
0100
,
1000
0001
0100
0010
0100
0001
1000
0010
0100
0001
0100
0010
1000
0001
1000
0100
,
0010
0100
0010
0001
1000
0001
0100
0010
0100
0001
1000
0001
0010
0100
1000
0001
,
1000
0010
0100
0010
0100
0001
1000
0010
0100
0001
1000
0100
0010
0100
1000
0001
,
1000
0010
0100
0001
0100
0010
1000
0001
1000
0100
0010
0001
1000
0001
0010
0100
,
1000
0001
0100
0001
1000
0010
0100
0010
1000
0001
0100
0001
1000
0100
0010
0001
,
1000
0100
0010
0100
0010
0001
1000
0001
1000
0010
0100
0001
0100
0010
1000
0001
,
0010
0100
1000
0001
1000
0001
0100
0010
1000
0000
0000
0000
0001
0000
0000
0000
,
0100
0001
0100
0010
1000
0010
0100
0001
1000
0001
0010
0100
1000
0001
1000
0100
,
0010
0100
1000
0001
0100
0010
0100
0001
1000
0001
0010
0100
1000
0001
1000
0100
,
0010
0100
1000
0001
0100
0010
0100
0001
1000
0100
1000
0001
0100
0010
0100
0001
,
1000
0001
0100
0010
1000
0001
0100
0010
0100
0001
0010
0100
1000
0010
0100
0001
,
1000
0010
1000
0001
0100
0010
0100
0001
1000
0100
0010
0001
1000
0100
1000
0001
,
0100
0010
0100
0001
1000
0001
0010
0100
1000
0001
1000
0001
0100
0010
0100
0001
,
1000
0001
0010
0100
1000
0001
1000
0100
1000
0001
0100
0010
0100
0001
1000
0010
,
0100
0001
0100
0010
1000
0100
1000
0010
0100
0001
0010
0001
0100
0010
1000
0001
,
1000
0000
0000
0000
,
0000
0000
0000
0000
,
0001
0100
0001
0100
0001
1000
0001
1000
0002
0000
0000
0000
0003
0000
0000
0000
,
1000
0001
1000
0001
0100
0001
0100
0010
1000
0010
1000
0001
1000
0001
0100
0001
,
0100
0010
1000
0001
0100
0010
0100
0001
1000
0001
0010
0100
1000
0001
1000
0001
,
0100
0010
0100
0001
1000
0001
0010
0100
0010
0100
1000
0001
1000
0010
0100
0010
,
0100
0001
1000
0001
0010
0100
0010
0100
1000
0001
1000
0010
0100
0010
0100
0001
,
1000
0001
0010
0100
1000
0001
1000
0010
0100
0001
0100
0010
1000
0001
1000
0001
,
0100
0010
0100
0001
1000
0001
0010
0100
1000
0001
1000
0100
0010
0100
1000
0001
,
1000
0010
0100
0001
0100
0010
1000
0001
1000
0001
0010
0100
1000
0001
1000
0100
,
0010
0001
0100
0010
0100
0001
1000
0010
0100
0001
0100
0010
1000
0001
0010
0100
,
1000
0010
0100
0001
0010
0100
1000
0010
0100
0001
0100
0010
,
1000
0010
0100
0010
1000
0001
0010
0100
1000
0010
0100
0001
1000
0100
1000
0010
,
0100
0001
0010
0100
1000
0001
0100
0010
0100
0001
1000
0010
0100
0001
1000
0100
,
0010
0100
1000
0001
0100
0010
0100
0001
1000
0010
0100
0001
0100
0010
1000
0001
,
1000
0100
0010
0001
1000
0001
0010
0100
1000
0010
0100
0001
0100
0010
1000
0001
,
0010
0100
1000
0010
0100
0001
0100
0010
1000
0100
0010
0001
0100
0010
1000
0100
,
1000
0001
0100
0010
1000
0100
1000
0001
0100
0010
0100
0001
0010
0100
1000
0001
,
1000
0100
0010
0100
1000
0001
0100
0010
0100
0001
1000
0010
0100
0001
1000
0001
,
0010
0100
1000
0001
1000
0100
0010
0100
1000
0001
0100
0010
0100
0001
0010
0100
,
1000
0010
0100
0001
0100
0010
1000
0100
1000
0001
0100
0001
0010
0100
1000
0001
,
1000
0100
0010
0100
1000
0010
0100
0001
0100
0010
1000
0100
0010
0001
1000
0001
,
0100
0010
0100
0001
1000
0001
0010
0100
1000
0001
1000
0010
0100
0001
0100
0010
,
1000
0001
0010
0100
1000
0010
0100
0001
0100
0010
1000
0100
1000
0001
0100
0010
,
0100
0001
1000
0100
0010
0100
1000
0010
0100
0001
0100
0010
1000
0100
1000
0001
,
0010
0001
0100
0010
1000
0100
1000
0001
0100
0010
0100
0001
1000
0001
0010
0100
,
1000
0001
1000
0100
0010
0001
1000
0100
1000
0010
0100
0001
1000
0010
0100
0001
,
1000
0010
0100
0001
0100
0010
1000
0001
0010
0100
1000
0001
,
1000
0100
0010
0100
1000
0001
0100
0010
0100
0001
1000
0001
0010
0100
1000
0001
,
1000
0100
0010
0100
1000
0001
0100
0010
0100
0001
1000
0001
0010
0100
1000
0001
,
1000
0100
0010
0100
1000
0001
0100
0010
0100
0001
1000
0001
0010
0100
1000
0001
,
1000
0100
0010
0100
1000
0001
0100
0010
0100
0001
1000
0100
0010
0001
0100
0010
,
1000
0100
0010
0001
1000
0010
0100
0001
0100
0010
1000
0001
0010
0100
1000
0010
,
0100
0001
0100
0010
1000
0100
1000
0001
0100
0010
0100
0001
0010
0001
0100
0010
,
1000
0100
1000
0010
0100
0001
0010
0100
1000
0001
1000
0100
0010
0001
1000
0100
,
1000
0010
0100
0001
0100
0010
1000
0100
0010
0001
1000
0001
0010
0100
1000
0010
,
0100
0001
0100
0010
1000
0001
0010
0100
0010
0001
1000
0001
0100
0010
0100
0001
,
0010
0100
1000
0001
1000
0100
0010
0100
1000
0001
0100
0010
0100
0001
1000
0001
,
0010
0100
1000
0001
1000
0100
0010
0100
1000
0001
0100
0010
0100
0001
1000
0001
,
0100
0010
0100
0001
1000
0100
0010
0001
1000
0001
0100
0010
0100
0001
1000
0001
,
0010
0100
1000
0001
1000
0100
0010
0100
1000
0001
0100
0010
0100
0001
1000
0100
,
1000
0001
0100
0010
0100
0001
1000
0100
0010
0100
1000
0001
0100
0010
0100
0001
,
1000
0001
0010
0100
1000
0001
1000
0100
0010
0001
1000
0100
1000
0001
0100
0001
,
1000
0010
0100
0010
1000
0001
0010
0100
1000
0010
0100
0001
1000
0100
0010
0100
,
2000
3000
0000
0000
;
