#TITLE:Troops In Gathering;
#SUBTITLE:Metal Gear Solid 3 Snake Eater (2004);
#ARTIST:Harry Gregson-Williams;
#TITLETRANSLIT:;
#SUBTITLETRANSLIT:;
#ARTISTTRANSLIT:;
#CREDIT:;
#BANNER:Troops In Gathering.png;
#BACKGROUND:Troops In Gathering-bg.png;
#LYRICSPATH:;
#CDTITLE:!djossa.png;
#MUSIC:Troops In Gathering.mp3;
#OFFSET:0.976;
#SAMPLESTART:68.240;
#SAMPLELENGTH:12.000;
#SELECTABLE:YES;
#BPMS:0.000=163.000,152.000=326.000,160.000=163.000;
#STOPS:;
#BGCHANGES:;
// cache tags:
#FIRSTBEAT:12.000;
#LASTBEAT:292.000;
#SONGFILENAME:Songs/VGMP 3/Troops In Gathering (Dj_Ossa)/Troops In Gathering.sm;
#HASMUSIC:1;
#HASBANNER:1;
#MUSICLENGTH:116.062;
// end cache tags

//---------------dance-single - Blank----------------
#NOTES:
     dance-single:
     Blank:
     Challenge:
     13:
     1.000,1.000,1.000,1.000,1.000,640.000,176.000,176.000,21.000,65.000:




0000
0000
0000
0000
,
0000
0000
0000
0000
,
0000
0000
0000
0000
,
1001
0000
0100
0010
0000
0100
0010
0000
0010
0001
0010
0100
,
1000
0000
0100
0010
0000
0010
0100
1000
0100
0010
0010
0010
,
1001
0000
0100
0010
0000
0100
0010
0000
0010
0001
0010
0100
,
1000
0000
0100
0010
0000
0100
0010
1000
0100
0010
0010
0010
,
1001
0000
0100
0010
0000
0100
0010
0000
0010
0001
0010
0100
,
1000
0000
0000
0000
0100
0000
0010
0000
0001
0000
0010
0000
1000
0100
0010
0000
0010
0000
0010
0000
0010
0000
0010
0000
,
1001
0000
0100
0010
0000
0100
0001
0000
0010
0001
0010
0100
,
2010
0001
3210
0001
1320
0001
1230
0010
,
1311
0000
1100
0001
0010
0100
0010
0000
0010
0001
0010
0001
,
1110
0000
1100
0001
0010
0001
0110
1000
0100
0010
0010
0010
,
1101
0000
1100
0001
0010
0100
0010
0000
0010
0001
0010
1000
,
0201
0000
0000
0000
0000
0000
0000
0000
1000
0300
0000
0000
0110
0000
0000
0000
0000
0000
0000
0000
0100
0000
0000
0000
0010
0000
0000
0000
1000
0000
0000
0000
0110
0000
0000
0000
0100
0000
0000
0000
0100
0000
0000
0000
0100
0000
0000
0000
,
1011
0000
1100
0001
0010
0100
0010
0000
0010
0001
0010
1000
,
0111
0000
0000
0000
1100
0000
0010
0000
0101
0000
0010
0000
1001
0100
0010
0000
0010
0000
0010
0000
0010
0000
0010
0000
,
1101
0000
1100
0001
0010
0100
0001
0000
0010
0001
0010
0100
,
1001
0000
0000
0000
1010
0000
0001
0000
0010
0000
0100
0000
1010
0100
0010
0000
0100
0000
1000
0100
0010
0001
0100
0010
,
1001
0000
1000
1000
1000
0100
0010
0000
0010
0010
1000
0100
,
0010
0000
0010
0000
0001
0010
1000
0000
0100
0000
1000
0100
,
0001
0000
0001
0000
0010
0001
0010
0000
0100
0000
1000
0100
,
0010
0000
0000
0000
0000
0000
0000
0000
0010
0000
0000
0000
0000
0000
0000
0000
0100
0000
0000
0000
1000
0000
0000
0000
0100
0010
0000
0000
0000
0000
0000
0000
0100
0000
0000
0000
0000
0000
0000
0000
0001
0000
0000
0000
0010
0000
0000
0000
,
0100
0000
0100
0000
0100
0010
0001
0000
0010
0000
0100
0010
,
0001
0000
0000
0000
0001
0000
0000
0000
1000
0000
0010
0000
0100
0000
0000
0000
0010
0000
0000
0000
2000
3000
0200
0300
,
0002
0003
0000
0000
0002
0003
0000
0000
0020
0030
0002
0003
0020
0030
0000
0000
0200
0300
0000
0000
0020
0030
0002
0003
,
2210
3000
0000
0001
2000
3000
0320
0000
0002
0103
2000
3000
0232
0300
0000
1000
0200
0300
0023
0000
2000
3001
0200
0300
,
1032
0003
0000
0000
0012
0003
0100
0000
2000
3000
0000
0000
0000
0000
0000
0000
0000
0000
0100
0000
0000
0000
0000
0000
,
0112
0003
0000
0000
0002
0003
0100
0000
0120
0030
0100
0000
1010
0000
0000
0000
1000
0000
0010
0000
1000
0000
0000
0000
,
0002
0003
0000
0000
0002
0003
0100
0000
2000
3000
0000
0000
0000
0000
0000
0000
0000
0000
0010
0000
0000
0000
0000
0000
,
0210
0300
0210
0300
0210
0300
0211
0300
0000
0000
0100
0000
1021
0030
0000
0000
1021
0030
0100
0000
1000
0000
0000
0000
,
0002
0003
0000
0000
0002
0003
0010
0000
2000
3000
0000
0000
0000
0000
0000
0000
0000
0000
0100
0000
0000
0000
0000
0000
,
0012
0003
0000
0000
0012
0003
1000
0000
0020
0030
0000
0000
0100
0000
0000
0000
0100
0000
0010
0000
0000
0000
0000
0000
,
0102
0003
0000
0000
0102
0003
0010
0000
2000
3000
0000
0000
0100
0000
0000
0000
0100
0000
0010
0000
0000
0000
0000
0000
,
2200
0300
0000
0000
0200
0300
3002
0000
0000
0000
0000
0000
2023
0030
0000
0000
0020
0030
3200
0000
0000
0000
0000
0000
,
1301
0000
0100
0010
0000
0100
0010
0000
0010
0001
0010
0100
,
1000
0000
0000
0000
0100
0000
0010
0000
0001
0000
0010
0000
1000
0100
0010
0000
0010
0000
0010
0000
0010
0000
0010
0000
,
1001
0000
0100
0010
0000
0100
0001
0000
0010
0001
0010
0100
,
102M
0M00
M000
000M
0M00
M000
000M
0M00
,
M000
0000
0000
0000
0000
0000
0000
0000
0M00
0000
0000
0000
0000
0000
0000
0000
000M
0000
0000
0000
0000
0000
0000
0000
M000
0000
0000
0000
0000
0000
0000
0000
0M00
0000
0000
0000
0000
0000
0000
0000
000M
0000
0000
0000
0000
0000
0000
0000
M000
0000
0000
0000
0000
0000
0000
0000
0M00
0000
0000
0000
0000
0000
0000
0030
,
11M1
0000
0100
0010
0100
1000
0010
0000
0110
1000
0011
0100
,
1000
0000
0000
0000
1100
0000
0010
0000
0100
0000
1000
0000
0120
0000
1000
0030
0001
0000
0210
0000
0010
0300
0010
0000
,
1101
0000
1100
0101
0010
0100
0010
0000
0110
0011
1001
0100
,
0010
0000
0000
0000
1100
0000
0001
0000
1010
0000
0100
0000
0012
0000
1000
0003
0100
0000
0120
0000
0100
0030
0100
0000
,
1011
0000
1010
0100
0001
0100
0010
0000
0101
0010
1100
0010
,
1000
0000
0000
0000
1100
0000
0010
0000
0101
0000
0010
0000
2001
0100
0010
3000
0010
0000
0012
0000
0010
0003
0010
0000
,
1101
0000
0000
0000
1200
0300
0201
0300
0020
0030
0100
0000
0001
0000
0000
0000
0120
0030
0021
0030
0102
0003
1000
0000
,
0100
0000
0000
0000
0000
0000
0000
0000
0000
0000
0000
0000
0000
0000
0000
0000
0000
0000
0000
0000
0000
0000
0000
0000
0000
0000
0000
0000
0000
0000
0000
0000
0012
0000
0000
0000
0000
0000
0000
0000
0003
0000
0000
0000
0000
0000
0000
0000
0102
0000
0000
0000
0000
0000
0000
0000
0003
0000
0000
0000
0000
0000
0000
0000
2010
0000
0000
0000
0000
0000
0000
0000
3000
0000
0000
0000
0000
0000
0000
0000
0100
0000
0000
0000
0000
0000
0000
0000
0000
0000
0000
0000
0000
0000
0000
0000
1012
0000
0000
0000
0000
0000
0000
0000
0000
0000
0000
0000
0000
0000
0000
0000
0100
0000
0000
0000
0000
0000
0000
0000
0000
0000
0000
0000
0000
0000
0000
0000
2000
0000
0000
0000
0000
0000
0000
0000
3000
0000
0000
0000
0000
0000
0000
0000
2000
0000
0000
0000
0000
0000
0000
0000
3000
0000
0000
0000
0000
0000
0000
0000
0200
0000
0000
0000
0000
0000
0000
0000
0300
0000
0000
0000
0000
0000
0000
0000
0010
0000
0000
0000
0000
0000
0000
0000
0000
0000
0000
0000
0000
0003
0000
0000
,
11M1
0000
1100
0010
1000
0100
0010
0000
0110
1000
0011
0100
,
1000
0000
0000
0000
1100
0000
0010
0000
0100
0000
1000
0000
0120
0030
1002
0003
0100
0000
0120
0030
2100
3000
0100
0000
,
1011
0000
1100
0001
0010
0100
0010
0000
0110
1000
0011
0100
,
1000
0000
0000
0000
1001
0000
0010
0000
1001
0000
0100
0000
2010
3000
0102
0003
1000
0000
0021
0030
0201
0300
0001
0000
,
1110
0000
0000
0000
0000
0000
0000
0000
0000
0000
0000
0000
0000
0000
0000
0000
0000
0000
0000
0000
0000
0000
0000
0000
0000
0000
0000
0000
0000
0000
0000
0000
1020
0000
0000
0000
0000
0000
0030
0000
0000
0000
0000
0000
0000
0000
0000
0000
0100
0000
0000
0000
0000
0000
0000
0000
0000
0000
0000
0000
0000
0000
0000
0000
0002
0000
0000
0000
0000
0000
0003
0000
0000
0000
0000
0000
0000
0000
0000
0000
0100
0000
0000
0000
0000
0000
0000
0000
0000
0000
0000
0000
0000
0000
0000
0000
0010
0000
0000
0000
0000
0000
0000
0000
0000
0000
0000
0000
0000
0000
0000
0000
0000
0000
0000
0000
0000
0000
0000
0000
0000
0000
0000
0000
0000
0000
0000
0000
0012
0000
0000
0000
0000
0000
0000
0000
0003
0000
0000
0000
0000
0000
0000
0000
0100
0000
0000
0000
0000
0000
0000
0000
0000
0000
0000
0000
0000
0000
0000
0000
2010
0000
0000
0000
0000
0000
0000
0000
3000
0000
0000
0000
0000
0000
0000
0000
0100
0000
0000
0000
0000
0000
0000
0000
0000
0000
0000
0000
0000
0000
0000
0000
,
1000
0000
0000
0000
0000
0000
0000
0000
0000
0000
0000
0000
0000
0000
0000
0000
0000
0000
0000
0000
0000
0000
0000
0000
0000
0000
0000
0000
0000
0000
0000
0000
2010
0000
0000
0000
0000
0000
0000
0000
0000
3000
0000
0000
0000
0000
0000
0000
0100
0000
0000
0000
0000
0000
0000
0000
0000
0000
0000
0000
0000
0000
0000
0000
1021
0000
0000
0000
0000
0000
0000
0000
0000
0030
0000
0000
0000
0000
0000
0000
0100
0000
0000
0000
0000
0000
0000
0000
0000
0000
0000
0000
0000
0000
0000
0000
1000
0000
0000
0000
0000
0000
0000
0000
0100
0000
0000
0000
0000
0000
0000
0000
0010
0000
0000
0000
0000
0000
0000
0000
0000
0000
0000
0000
0000
0000
0000
0000
1210
0000
0000
0000
0000
0000
0000
0000
0000
0000
0300
0000
0000
0000
0000
0000
0010
0000
0000
0000
0000
0000
0000
0000
0000
0000
0000
0000
0000
0000
0000
0000
1012
0000
0000
0000
0000
0000
0000
0000
0000
0000
0003
0000
0000
0000
0000
0000
0010
0000
0000
0000
0000
0000
0000
0000
0000
0000
0000
0000
0000
0000
0000
0000
,
1000
0000
0000
0000
0000
0000
0000
0000
0000
0000
0000
0000
0000
0000
0000
0000
0000
0000
0000
0000
0000
0000
0000
0000
0000
0000
0000
0000
0000
0000
0000
0000
2201
0000
0000
0000
0000
0000
0000
0000
0000
0000
0000
0000
3300
0000
0000
0000
0010
0000
0000
0000
0000
0000
0000
0000
0000
0000
0000
0000
0000
0000
0000
0000
1202
0000
0000
0000
0000
0000
0000
0000
0000
0000
0000
0000
0303
0000
0000
0000
0010
0000
0000
0000
0000
0000
0000
0000
0000
0000
0000
0000
0000
0000
0000
0000
1000
0000
0000
0000
0000
0000
0000
0000
0000
0000
0000
0000
0000
0000
0000
0000
0000
0000
0000
0000
0000
0000
0000
0000
0000
0000
0000
0000
0000
0000
0000
0000
2210
0000
0000
0000
0000
0000
0000
0000
0000
0000
0000
0000
0000
0000
3300
0000
0001
0000
0000
0000
0000
0000
0000
0000
0000
0000
0000
0000
0000
0000
0000
0000
1022
0000
0000
0000
0000
0000
0000
0000
0000
0000
0000
0000
0000
0000
0000
0033
0100
0000
0000
0000
0000
0000
0000
0000
0000
0000
0000
0000
0000
0000
0000
0000
,
1000
0000
0000
0000
0000
0000
0000
0000
0000
0000
0000
0000
0000
0000
0000
0000
0000
0000
0000
0000
0000
0000
0000
0000
0000
0000
0000
0000
0000
0000
0000
0000
2220
0000
0000
0000
0000
0000
0000
0000
0000
0000
0000
0000
0000
0000
0000
3330
0000
0000
2220
0000
0000
0000
0000
0000
0000
0000
0000
0000
0000
0000
0000
0000
0000
0000
3330
0000
2222
0000
0000
0000
0000
0000
0000
0000
0000
0000
0000
0000
3333
0000
0000
0000
0000
0000
0000
0000
0000
0000
0000
0000
0000
0000
0000
0000
1MM1
0000
0000
0000
0000
0000
0000
0000
0000
0000
0000
0000
0000
0000
0000
0000
0000
0000
0000
0000
0000
0000
0000
0000
0000
0000
0000
0000
0000
0000
0000
0000
0010
0000
0000
0000
0000
0000
0000
0000
0000
0000
0000
0000
0000
0000
0000
0000
1000
0000
0000
0000
0000
0000
0000
0000
0000
0000
0000
0000
0000
0000
0000
0000
0000
0000
0000
0000
0000
0000
0000
0000
0000
0000
0000
0000
0000
0000
0000
0000
0010
0000
0000
0000
0000
0000
0000
0000
0000
0000
0000
0000
0000
0000
0000
0000
,
1000
0000
0100
1000
0000
0100
1000
0000
0010
1000
0000
0010
,
1102
0003
0000
0000
0102
0003
0010
0000
2000
3000
0000
0000
2000
0000
0000
0200
3000
0000
0010
0000
0000
0000
0000
0000
,
1012
0003
0000
0000
0002
0003
1010
0000
1020
0030
1000
0000
0011
0000
0000
0000
0010
0000
0301
0000
0010
0000
2000
0000
,
3022
0003
0000
0000
0002
0003
0100
0000
2000
3000
0000
0000
0000
0000
0000
0000
0000
0000
0100
0000
0000
0000
0000
0000
,
1200
0000
0300
0000
1200
0000
0300
0000
1200
0000
0300
0000
1201
0000
0300
0000
0000
0000
0000
0000
1000
0000
0000
0000
1201
0000
0300
0000
0000
0000
0000
0000
1201
0000
0300
0000
1000
0000
0000
0030
2001
0000
0000
0000
0000
0000
0000
0000
,
3202
0003
0000
0000
0002
0003
0010
0000
2000
3000
0000
0000
0000
0000
0000
0000
0000
0000
0010
0000
0000
0000
0000
0000
,
1002
0003
0000
0000
1002
0003
1000
0000
0020
0030
0000
0000
1000
0000
0000
0000
1000
0000
0010
0000
0000
0000
0000
0000
,
1002
0003
0000
0000
1002
0003
0010
0000
2000
3000
0000
0000
1000
0000
0000
0000
1000
0000
0010
0000
0000
0300
0000
0000
,
2200
3000
0000
0000
2000
3000
0302
0000
0000
0000
0000
0000
2023
0030
0000
0000
0020
0030
3200
0000
0000
0000
0000
0000
,
1312
0003
0000
0000
0000
0000
0000
0000
0100
0000
0000
0000
0010
0000
0000
0000
0000
0000
0000
0000
0100
0000
0000
0000
0012
0003
0000
0000
0000
0000
0000
0000
0010
0000
0000
0000
2001
3000
0000
0000
0010
0000
0000
0000
2100
3000
0000
0000
,
0012
0003
0000
0000
0000
0000
0000
0000
0102
0003
0000
0000
2010
3000
0000
0000
0000
0000
0000
0000
0010
0000
0000
0000
0102
0003
0000
0000
1000
0000
0000
0000
0100
0000
0000
0000
2010
3000
0000
0000
0010
0000
0000
0000
2010
3000
0000
0000
,
0112
0003
0000
0000
0000
0000
0000
0000
0102
0003
0000
0000
2010
3000
0000
0000
0000
0000
0000
0000
0100
0000
0000
0000
0012
0003
0000
0000
0000
0000
0000
0000
0010
0000
0000
0000
2001
3000
0000
0000
0010
0000
0000
0000
2100
3000
0000
0000
,
0012
0003
0000
0000
0000
0000
0000
0000
0102
0003
0000
0000
2010
3000
0000
0000
0000
0000
0000
0000
0100
0000
0000
0000
0022
0003
0000
0000
1000
0000
0000
0000
0100
0000
0000
0000
2031
0000
0000
0000
0001
0000
0000
0000
0001
0000
0000
0000
,
3111
1000
0101
0010
1000
0100
1010
0001
1100
0010
0100
0001
,
1010
0000
0100
0000
1001
0000
0100
0000
1000
0000
0010
0000
1001
0100
0010
0000
0010
0000
0010
0000
0010
0000
0010
0000
,
1101
0010
1100
0010
1000
0100
1010
0001
1100
0010
0102
0010
,
1000
0000
0000
0000
0000
0000
0000
0000
0000
0000
0000
0000
0000
0000
0000
0000
0100
0000
0000
0000
0000
0000
0000
0000
0000
0000
0000
0000
0000
0000
0000
0000
1000
0000
0000
0000
0000
0000
0000
0000
0000
0000
0000
0000
0000
0000
0000
0000
0010
0000
0000
0000
0000
0000
0000
0000
0000
0000
0000
0000
0000
0000
0000
0000
1000
0000
0000
0000
0000
0000
0000
0000
0000
0000
0000
0000
0000
0000
0000
0000
0010
0000
0000
0000
0000
0000
0000
0000
0000
0000
0000
0000
0000
0000
0000
0000
0100
0000
0000
0000
0000
0000
0000
0000
0000
0000
0000
0000
0000
0000
0000
0000
0020
0000
0000
0000
0000
0000
0000
0000
0000
0000
0000
0000
0000
0000
0000
0000
0100
0000
0000
0000
0000
0000
0000
0000
0000
0000
0000
0000
0000
0000
0000
0000
1030
0000
0000
0000
0000
0000
0000
0000
0000
0000
0000
0000
0000
0000
0000
0000
0200
0000
0000
0000
0000
0000
0000
0000
0000
0000
0000
0000
0000
0000
0000
0000
0010
0000
0000
0000
0000
0000
0000
0000
0000
0000
0000
0000
0000
0000
0003
0000
,
13M1
0000
0000
0000
;

//---------------dance-single - Blank----------------
#NOTES:
     dance-single:
     Blank:
     Hard:
     12:
     1.000,1.000,1.000,1.000,1.000,637.000,145.000,172.000,17.000,18.000:

0000
0000
0000
0000
,
0000
0000
0000
0000
,
0000
0000
0000
0000
,
1001
0000
0100
0010
0000
0100
0010
0000
0010
0001
0010
0100
,
1000
0000
0100
0010
0000
0010
0100
1000
0100
0010
0010
0010
,
1001
0000
0100
0010
0000
0100
0010
0000
0010
0001
0010
0100
,
1000
0000
0100
0010
0000
0100
0010
1000
0100
0010
0010
0010
,
1001
0000
0100
0010
0000
0100
0010
0000
0010
0001
0010
0100
,
1000
0000
0000
0000
0100
0000
0010
0000
0001
0000
0010
0000
1000
0100
0010
0000
0010
0000
0010
0000
0010
0000
0010
0000
,
1001
0000
0100
0010
0000
0100
0001
0000
0010
0001
0010
0100
,
2010
0001
3200
0001
0320
0001
0230
0010
,
1301
0000
1100
0001
0010
0100
0010
0000
0010
0001
0010
0001
,
1010
0000
1100
0001
0010
0001
0110
1000
0100
0010
0010
0010
,
1001
0000
1100
0001
0010
0100
0010
0000
0010
0001
0010
1000
,
0201
0000
0000
0000
0000
0000
0000
0000
1000
0300
0000
0000
0110
0000
0000
0000
0000
0000
0000
0000
0100
0000
0000
0000
0010
0000
0000
0000
1000
0000
0000
0000
0110
0000
0000
0000
0100
0000
0000
0000
0100
0000
0000
0000
0100
0000
0000
0000
,
1001
0000
1100
0001
0010
0100
0010
0000
0010
0001
0010
1000
,
0101
0000
0000
0000
1100
0000
0010
0000
0101
0000
0010
0000
1001
0100
0010
0000
0010
0000
0010
0000
0010
0000
0010
0000
,
1001
0000
1100
0001
0010
0100
0001
0000
0010
0001
0010
0100
,
1001
0000
0000
0000
1010
0000
0001
0000
0010
0000
0100
0000
1010
0100
0010
0000
0100
0000
1000
0100
0010
0001
0100
0010
,
1001
0000
1000
1000
1000
0100
0010
0000
0010
0010
1000
0100
,
0010
0000
0010
0000
0001
0010
1000
0000
0100
0000
1000
0100
,
0001
0000
0001
0000
0010
0001
0010
0000
0100
0000
1000
0100
,
0010
0000
0000
0000
0000
0000
0000
0000
0010
0000
0000
0000
0000
0000
0000
0000
0100
0000
0000
0000
1000
0000
0000
0000
0100
0010
0000
0000
0000
0000
0000
0000
0100
0000
0000
0000
0000
0000
0000
0000
0001
0000
0000
0000
0010
0000
0000
0000
,
0100
0000
0100
0000
0100
0010
0001
0000
0010
0000
0100
0010
,
0001
0000
0000
0000
0001
0000
0000
0000
1000
0000
0010
0000
0100
0000
0000
0000
0010
0000
0000
0000
2000
3000
0200
0300
,
0002
0003
0000
0000
0002
0003
0000
0000
0020
0030
0002
0003
0020
0030
0000
0000
0200
0300
0000
0000
0020
0030
0002
0003
,
2200
3000
0000
0001
2000
3000
0320
0000
0002
0103
2000
3000
0232
0300
0000
1000
0200
0300
0023
0000
2000
3001
0200
0300
,
1032
0003
0000
0000
0012
0003
0100
0000
2000
3000
0000
0000
0000
0000
0000
0000
0000
0000
0100
0000
0000
0000
0000
0000
,
0102
0003
0000
0000
0002
0003
0100
0000
0120
0030
0100
0000
1010
0000
0000
0000
1000
0000
0010
0000
1000
0000
0000
0000
,
0002
0003
0000
0000
0002
0003
0100
0000
2000
3000
0000
0000
0000
0000
0000
0000
0000
0000
0010
0000
0000
0000
0000
0000
,
0210
0300
0210
0300
0210
0300
0210
0300
0000
0000
0100
0000
1020
0030
0000
0000
1020
0030
0100
0000
1000
0000
0000
0000
,
0002
0003
0000
0000
0002
0003
0010
0000
2000
3000
0000
0000
0000
0000
0000
0000
0000
0000
0100
0000
0000
0000
0000
0000
,
0012
0003
0000
0000
0012
0003
1000
0000
0020
0030
0000
0000
0100
0000
0000
0000
0100
0000
0010
0000
0000
0000
0000
0000
,
0102
0003
0000
0000
0102
0003
0010
0000
2000
3000
0000
0000
0100
0000
0000
0000
0100
0000
0010
0000
0000
0000
0000
0000
,
2200
0300
0000
0000
0200
0300
3002
0000
0000
0000
0000
0000
2023
0030
0000
0000
0020
0030
3200
0000
0000
0000
0000
0000
,
1301
0000
0100
0010
0000
0100
0010
0000
0010
0001
0010
0100
,
1000
0000
0000
0000
0100
0000
0010
0000
0001
0000
0010
0000
1000
0100
0010
0000
0010
0000
0010
0000
0010
0000
0010
0000
,
1001
0000
0100
0010
0000
0100
0001
0000
0010
0001
0010
0100
,
102M
M000
000M
M000
000M
M000
000M
M000
,
000M
M000
000M
M000
000M
M000
000M
M000
,
1M31
0000
0100
0010
1000
0100
0011
0000
0010
0001
0010
0100
,
1010
0000
0000
0000
0100
0000
0010
0000
1000
0000
0001
0000
0120
0000
1000
0030
0001
0000
0210
0000
0010
0300
0010
0000
,
1001
0000
0100
0100
0010
0100
0011
0000
0010
0010
0001
0100
,
1010
0000
0000
0000
0100
0000
0010
0000
1000
0000
0100
0000
0012
0000
1000
0003
0100
0000
0120
0000
0100
0030
0100
0000
,
1001
0000
0100
0010
0001
0100
0011
0000
0010
0001
0010
0100
,
1010
0000
0000
0000
0100
0000
0010
0000
0001
0000
0010
0000
2000
0100
0010
3000
0010
0000
0012
0000
0010
0003
0010
0000
,
1001
0000
0000
0000
1200
0300
0201
0300
0020
0030
0100
0000
0011
0000
0000
0000
0120
0030
0021
0030
0102
0003
1000
0000
,
0110
0000
0000
0000
0000
0000
0000
0000
0000
0000
0000
0000
0000
0000
0000
0000
0000
0000
0000
0000
0000
0000
0000
0000
0000
0000
0000
0000
0000
0000
0000
0000
0012
0000
0000
0000
0000
0000
0000
0000
0003
0000
0000
0000
0000
0000
0000
0000
0102
0000
0000
0000
0000
0000
0000
0000
0003
0000
0000
0000
0000
0000
0000
0000
2010
0000
0000
0000
0000
0000
0000
0000
3000
0000
0000
0000
0000
0000
0000
0000
0100
0000
0000
0000
0000
0000
0000
0000
0000
0000
0000
0000
0000
0000
0000
0000
0012
0000
0000
0000
0000
0000
0000
0000
0000
0000
0000
0000
0000
0000
0000
0000
0000
0000
0000
0000
0000
0000
0000
0000
0000
0000
0000
0000
0000
0000
0000
0000
2000
0000
0000
0000
0000
0000
0000
0000
3000
0000
0000
0000
0000
0000
0000
0000
2000
0000
0000
0000
0000
0000
0000
0000
3000
0000
0000
0000
0000
0000
0000
0000
0200
0000
0000
0000
0000
0000
0000
0000
0300
0000
0000
0000
0000
0000
0000
0000
0000
0000
0000
0000
0000
0000
0000
0000
0000
0000
0000
0000
0000
0003
0000
0000
,
1001
0000
0100
0010
1000
0100
1010
0000
0010
0001
0010
0100
,
1001
0000
0000
0000
0100
0000
0010
0000
1000
0000
0001
0000
0120
0030
1002
0003
0100
0000
0120
0030
2100
3000
0100
0000
,
1001
0000
0100
0010
0001
0100
1010
0000
0010
0001
0010
0100
,
1001
0000
0000
0000
0100
0000
0010
0000
0001
0000
0100
0000
2010
3000
0102
0003
1000
0000
0021
0030
0201
0300
0001
0000
,
1001
0000
0000
0000
0000
0000
0000
0000
0000
0000
0000
0000
0000
0000
0000
0000
0000
0000
0000
0000
0000
0000
0000
0000
0000
0000
0000
0000
0000
0000
0000
0000
0020
0000
0000
0000
0000
0000
0030
0000
0000
0000
0000
0000
0000
0000
0000
0000
0100
0000
0000
0000
0000
0000
0000
0000
0000
0000
0000
0000
0000
0000
0000
0000
0002
0000
0000
0000
0000
0000
0003
0000
0000
0000
0000
0000
0000
0000
0000
0000
0100
0000
0000
0000
0000
0000
0000
0000
0000
0000
0000
0000
0000
0000
0000
0000
1010
0000
0000
0000
0000
0000
0000
0000
0000
0000
0000
0000
0000
0000
0000
0000
0000
0000
0000
0000
0000
0000
0000
0000
0000
0000
0000
0000
0000
0000
0000
0000
0002
0000
0000
0000
0000
0000
0000
0000
0003
0000
0000
0000
0000
0000
0000
0000
0100
0000
0000
0000
0000
0000
0000
0000
0000
0000
0000
0000
0000
0000
0000
0000
2000
0000
0000
0000
0000
0000
0000
0000
3000
0000
0000
0000
0000
0000
0000
0000
0100
0000
0000
0000
0000
0000
0000
0000
0000
0000
0000
0000
0000
0000
0000
0000
,
1001
0000
0000
0000
0000
0000
0000
0000
0000
0000
0000
0000
0000
0000
0000
0000
0000
0000
0000
0000
0000
0000
0000
0000
0000
0000
0000
0000
0000
0000
0000
0000
2000
0000
0000
0000
0000
0000
0000
0000
0000
3000
0000
0000
0000
0000
0000
0000
0100
0000
0000
0000
0000
0000
0000
0000
0000
0000
0000
0000
0000
0000
0000
0000
0020
0000
0000
0000
0000
0000
0000
0000
0000
0030
0000
0000
0000
0000
0000
0000
0100
0000
0000
0000
0000
0000
0000
0000
0000
0000
0000
0000
0000
0000
0000
0000
1001
0000
0000
0000
0000
0000
0000
0000
0100
0000
0000
0000
0000
0000
0000
0000
0010
0000
0000
0000
0000
0000
0000
0000
0000
0000
0000
0000
0000
0000
0000
0000
0200
0000
0000
0000
0000
0000
0000
0000
0000
0000
0300
0000
0000
0000
0000
0000
0010
0000
0000
0000
0000
0000
0000
0000
0000
0000
0000
0000
0000
0000
0000
0000
0002
0000
0000
0000
0000
0000
0000
0000
0000
0000
0003
0000
0000
0000
0000
0000
0010
0000
0000
0000
0000
0000
0000
0000
0000
0000
0000
0000
0000
0000
0000
0000
,
1100
0000
0000
0000
0000
0000
0000
0000
0000
0000
0000
0000
0000
0000
0000
0000
0000
0000
0000
0000
0000
0000
0000
0000
0000
0000
0000
0000
0000
0000
0000
0000
2200
0000
0000
0000
0000
0000
0000
0000
0000
0000
0000
0000
3300
0000
0000
0000
0010
0000
0000
0000
0000
0000
0000
0000
0000
0000
0000
0000
0000
0000
0000
0000
0202
0000
0000
0000
0000
0000
0000
0000
0000
0000
0000
0000
0303
0000
0000
0000
0010
0000
0000
0000
0000
0000
0000
0000
0000
0000
0000
0000
0000
0000
0000
0000
1100
0000
0000
0000
0000
0000
0000
0000
0000
0000
0000
0000
0000
0000
0000
0000
0000
0000
0000
0000
0000
0000
0000
0000
0000
0000
0000
0000
0000
0000
0000
0000
2200
0000
0000
0000
0000
0000
0000
0000
0000
0000
0000
0000
0000
0000
3300
0000
0010
0000
0000
0000
0000
0000
0000
0000
0000
0000
0000
0000
0000
0000
0000
0000
0202
0000
0000
0000
0000
0000
0000
0000
0000
0000
0000
0000
0000
0000
0000
0303
0000
0000
0000
0000
0000
0000
0000
0000
0000
0000
0000
0000
0000
0000
0000
0000
,
1100
0000
0000
0000
0000
0000
0000
0000
0000
0000
0000
0000
0000
0000
0000
0000
0000
0000
0000
0000
0000
0000
0000
0000
0000
0000
0000
0000
0000
0000
0000
0000
2200
0000
0000
0000
0000
0000
0000
0000
0000
0000
0000
0000
0000
0000
0000
3300
0000
0000
2200
0000
0000
0000
0000
0000
0000
0000
0000
0000
0000
0000
0000
0000
0000
0000
3300
0000
0022
0000
0000
0000
0000
0000
0000
0000
0000
0000
0000
0000
0033
0000
0000
0000
0000
0000
0000
0000
0000
0000
0000
0000
0000
0000
0000
0000
1001
0000
0000
0000
0000
0000
0000
0000
0000
0000
0000
0000
0000
0000
0000
0000
0000
0000
0000
0000
0000
0000
0000
0000
0000
0000
0000
0000
0000
0000
0000
0000
0010
0000
0000
0000
0000
0000
0000
0000
0000
0000
0000
0000
0000
0000
0000
0000
1000
0000
0000
0000
0000
0000
0000
0000
0000
0000
0000
0000
0000
0000
0000
0000
0000
0000
0000
0000
0000
0000
0000
0000
0000
0000
0000
0000
0000
0000
0000
0000
0010
0000
0000
0000
0000
0000
0000
0000
0000
0000
0000
0000
0000
0000
0000
0000
,
1000
0000
0100
1000
0000
0100
1000
0000
0010
1000
0000
0010
,
0102
0003
0000
0000
0102
0003
0010
0000
2000
3000
0000
0000
2000
0000
0000
0200
3000
0000
0010
0000
0000
0000
0000
0000
,
0002
0003
0000
0000
0002
0003
1000
0000
0020
0030
1000
0000
0001
0000
0000
0000
0010
0000
0301
0000
0010
0000
2000
0000
,
3022
0003
0000
0000
0002
0003
0100
0000
2000
3000
0000
0000
0000
0000
0000
0000
0000
0000
0100
0000
0000
0000
0000
0000
,
2000
0000
3000
0000
2000
0000
3000
0000
2000
0000
3000
0000
2000
0000
3000
0000
0000
0000
0000
0000
0001
0000
0000
0000
0200
0000
0300
0000
0000
0000
0000
0000
0200
0000
0300
0000
1000
0000
0000
0030
2001
0000
0000
0000
0000
0000
0000
0000
,
3202
0003
0000
0000
0002
0003
0010
0000
2000
3000
0000
0000
0000
0000
0000
0000
0000
0000
0010
0000
0000
0000
0000
0000
,
0002
0003
0000
0000
0002
0003
1000
0000
0020
0030
0000
0000
1000
0000
0000
0000
1000
0000
0010
0000
0000
0000
0000
0000
,
0002
0003
0000
0000
0002
0003
0010
0000
2000
3000
0000
0000
1000
0000
0000
0000
1000
0000
0010
0000
0000
0300
0000
0000
,
2200
3000
0000
0000
2000
3000
0302
0000
0000
0000
0000
0000
2023
0030
0000
0000
0020
0030
3200
0000
0000
0000
0000
0000
,
1302
0003
0000
0000
0000
0000
0000
0000
0100
0000
0000
0000
0010
0000
0000
0000
0000
0000
0000
0000
0100
0000
0000
0000
0012
0003
0000
0000
0000
0000
0000
0000
0010
0000
0000
0000
2001
3000
0000
0000
0010
0000
0000
0000
2100
3000
0000
0000
,
0012
0003
0000
0000
0000
0000
0000
0000
0102
0003
0000
0000
2010
3000
0000
0000
0000
0000
0000
0000
0010
0000
0000
0000
0102
0003
0000
0000
1000
0000
0000
0000
0100
0000
0000
0000
2010
3000
0000
0000
0010
0000
0000
0000
2010
3000
0000
0000
,
0102
0003
0000
0000
0000
0000
0000
0000
0102
0003
0000
0000
2010
3000
0000
0000
0000
0000
0000
0000
0100
0000
0000
0000
0012
0003
0000
0000
0000
0000
0000
0000
0010
0000
0000
0000
2001
3000
0000
0000
0010
0000
0000
0000
2100
3000
0000
0000
,
0012
0003
0000
0000
0000
0000
0000
0000
0102
0003
0000
0000
2010
3000
0000
0000
0000
0000
0000
0000
0100
0000
0000
0000
0022
0003
0000
0000
1000
0000
0000
0000
0100
0000
0000
0000
2031
0000
0000
0000
0001
0000
0000
0000
0001
0000
0000
0000
,
3110
1000
0101
0010
1000
0100
1010
0001
1100
0010
0100
0001
,
1010
0000
0100
0000
1001
0000
0010
0000
1000
0000
0010
0000
1001
0100
0010
0000
0010
0000
0010
0000
0010
0000
0010
0000
,
1100
0010
1001
0010
1000
0100
1010
0001
1100
0010
0102
0010
,
1000
0000
0000
0000
0000
0000
0000
0000
0000
0000
0000
0000
0000
0000
0000
0000
0100
0000
0000
0000
0000
0000
0000
0000
0000
0000
0000
0000
0000
0000
0000
0000
1000
0000
0000
0000
0000
0000
0000
0000
0000
0000
0000
0000
0000
0000
0000
0000
0010
0000
0000
0000
0000
0000
0000
0000
0000
0000
0000
0000
0000
0000
0000
0000
1000
0000
0000
0000
0000
0000
0000
0000
0000
0000
0000
0000
0000
0000
0000
0000
0010
0000
0000
0000
0000
0000
0000
0000
0000
0000
0000
0000
0000
0000
0000
0000
0100
0000
0000
0000
0000
0000
0000
0000
0000
0000
0000
0000
0000
0000
0000
0000
0020
0000
0000
0000
0000
0000
0000
0000
0000
0000
0000
0000
0000
0000
0000
0000
0100
0000
0000
0000
0000
0000
0000
0000
0000
0000
0000
0000
0000
0000
0000
0000
1030
0000
0000
0000
0000
0000
0000
0000
0000
0000
0000
0000
0000
0000
0000
0000
0200
0000
0000
0000
0000
0000
0000
0000
0000
0000
0000
0000
0000
0000
0000
0000
0010
0000
0000
0000
0000
0000
0000
0000
0000
0000
0000
0000
0000
0000
0003
0000
,
1301
0000
0000
0000
;

//---------------dance-single - Blank----------------
#NOTES:
     dance-single:
     Blank:
     Edit:
     14:
     0.000,0.000,0.000,0.000,0.000,0.000,0.000,0.000,0.000,0.000:

;
