#TITLE:Aerodynamic;
#SUBTITLE:(Deire);
#ARTIST:Daft Punk;
#TITLETRANSLIT:;
#SUBTITLETRANSLIT:;
#ARTISTTRANSLIT:;
#CREDIT:Deire;
#BANNER:aero banner.png;
#BACKGROUND:aero background.png;
#LYRICSPATH:;
#CDTITLE:;
#MUSIC:Aerodynamic.mp3;
#OFFSET:0.000;
#SAMPLESTART:48.740;
#SAMPLELENGTH:12.000;
#SELECTABLE:YES;
#BPMS:0.000=122.860,272.000=61.980;
#STOPS:;
#BGCHANGES:;
// cache tags:
#FIRSTBEAT:16.000;
#LASTBEAT:277.500;
#SONGFILENAME:Songs/toune 8/Aerodynamic/Aerodynamic.sm;
#HASMUSIC:1;
#HASBANNER:1;
#MUSICLENGTH:138.274;
// end cache tags

//---------------dance-single - ----------------
#NOTES:
     dance-single:
     :
     Hard:
     8:
     0.537,0.502,0.542,0.014,0.188,443.000,75.000,2.000,0.000,0.000:

0000
0000
0000
0000
,
0000
0000
0000
0000
,
0000
0000
0000
0000
,
0000
0000
0000
0000
,
1001
0000
1001
0000
0000
0000
0000
0000
0010
0100
0010
0000
0000
0000
0000
0000
,
0110
0000
0110
0000
0000
0000
0000
0000
0001
1000
0001
0000
0000
0000
0000
0000
,
1100
0000
1100
0000
0000
0000
0000
0000
0001
0100
0001
0000
0000
0000
0000
0000
,
1001
0000
1000
0001
0000
0001
1000
0000
0001
0100
0001
0000
0000
0000
0000
0000
,
0101
0000
0101
0000
0000
0000
0000
0000
0010
1000
0010
0000
0000
0000
0000
0000
,
1010
0000
1010
0000
0000
0000
0000
0000
0100
0001
0100
0000
0000
0000
0000
0000
,
1001
0000
1001
0000
0000
0000
0000
0000
0001
1000
0001
0000
0000
0000
0000
0000
,
0110
0000
0100
0010
0000
0010
0100
0000
0001
1000
0001
0000
0000
0000
0000
0000
,
1100
0000
0011
0000
0000
0000
0000
0000
0001
1000
0100
0000
0010
0000
0000
0000
,
1001
0000
0110
0000
0000
0000
0000
0000
1000
0100
0001
0000
1000
0000
0000
0000
,
0101
0000
1010
0000
0000
0000
0000
0000
0001
0100
0010
0000
1000
0000
0000
0000
,
0101
0000
0010
0001
0000
0001
0010
0000
1000
0100
0010
0000
0100
0000
0000
0000
,
1001
0000
1010
0000
0000
0000
0000
0000
0001
0100
0010
0000
1000
0000
0000
0000
,
0110
0000
1100
0000
0000
0000
0000
0000
0001
0100
0010
0000
0100
0000
0000
0000
,
1001
0000
0101
0000
0000
0000
0000
0000
1000
0001
0100
0000
0100
0000
0000
0000
,
1001
0000
1000
0001
0000
0001
0100
0000
0001
0100
0001
0000
1000
0000
0000
0000
,
0101
0000
0011
0000
0000
0000
0000
0000
1000
0001
0100
0000
0010
0000
0000
0000
,
1010
0000
1100
0000
0000
0000
0000
0000
1000
0100
0001
0000
0010
0000
0000
0000
,
0011
0000
1100
0000
0000
0000
0000
0000
0001
0100
0010
0000
0001
0000
0000
0000
,
1001
0000
0100
0010
0000
0010
0100
0000
1000
0010
1000
0000
0001
0000
0000
0000
,
1001
0000
0110
0000
0000
0000
0000
0000
0001
0100
0010
0000
0100
0000
0000
0000
,
0101
0000
0101
0000
0000
0000
0000
0000
0010
0100
1000
0000
0100
0000
0000
0000
,
1001
0000
0101
0000
0000
0000
0000
0000
0001
0100
0010
0000
1000
0000
0000
0000
,
0110
0000
1000
0001
0000
1000
0001
0000
0100
0010
0100
0000
0010
0000
0000
0000
,
1000
0100
0001
0100
1000
0100
0001
0100
,
1000
0010
0001
0010
1000
0010
0001
0010
,
1000
0100
0001
0100
1000
0010
0001
0010
,
1000
0100
0010
0001
0010
0100
1000
0001
,
0100
0010
1000
0010
0100
0001
0100
0010
,
1000
0100
0010
0001
1000
0100
0010
0001
,
0010
0100
1000
0001
0010
0100
1000
0001
,
1000
0010
0100
0001
1000
0010
0100
0001
,
0100
0010
1000
0001
0100
0010
1000
0001
,
1000
0100
0010
0100
1000
0010
0100
0001
,
0010
0100
0010
0001
0100
0010
1000
0010
,
0100
0001
0100
0010
0100
0001
0100
0010
,
1000
0100
0010
0100
1000
0100
0010
0001
,
0010
0100
0010
0001
0010
0100
0010
0001
,
0100
0010
1000
0010
0100
0001
0010
0100
,
1000
0001
0100
0010
0100
0001
0010
0100
,
1000
0010
0100
0001
0010
0100
1000
0010
,
0100
0010
1000
0100
0010
0001
0010
0100
,
1000
0001
0010
0100
1000
0100
0010
0001
,
1000
0010
0100
0001
0100
0010
1000
0010
,
0100
0001
0010
0100
0100
0010
0010
0001
,
0001
0100
0100
0010
0010
1000
1000
0100
,
0100
0010
0010
0001
0010
0100
1000
0010
,
0100
0001
0010
0100
1000
0001
1000
0010
,
1001
0000
1001
0000
0000
0000
0000
0000
0001
1000
0001
0000
1000
0000
0000
0000
,
0101
0000
0101
0000
0000
0000
0000
0000
1000
0100
0010
0000
0100
0000
0000
0000
,
1100
0000
1100
0000
0000
0000
0000
0000
0001
0010
0100
0000
0001
0000
0000
0000
,
1001
0000
0110
0000
0000
0000
0000
0000
0001
1000
0001
0000
0100
0000
0000
0000
,
0101
0000
0101
0000
0000
0000
0000
0000
1000
0010
0100
0000
0010
0000
0000
0000
,
1010
0000
1010
0000
0000
0000
0000
0000
0001
0100
0010
0000
0100
0000
0000
0000
,
1001
0000
0101
0000
0000
0000
0000
0000
0001
0100
0001
0000
0100
0000
0000
0000
,
1100
0000
0011
0000
0000
0000
0000
0000
1000
0100
1000
0000
0100
0000
0000
0000
,
0101
0000
1010
0000
0000
0000
0000
0000
0100
0001
0100
0000
0001
0000
0000
0000
,
0110
0000
1001
0000
0000
0000
0000
0000
0010
0100
0010
0000
0100
0000
0000
0000
,
0101
0000
0101
0000
0000
0000
0000
0000
1000
0001
0100
0000
0010
0000
0000
0000
,
0110
0000
0101
0000
0000
0000
0000
0000
0001
1000
0010
0000
1000
0000
0000
0000
,
0110
0000
1001
0000
0000
0000
0000
0000
1000
0001
0100
0000
0100
0000
0000
0000
,
1001
0000
0110
0000
0000
0000
0000
0000
0001
1000
0100
0000
0010
0000
0000
0000
,
0101
0000
1010
0000
0000
0000
0000
0000
0001
0100
1000
0000
0100
0000
0000
0000
,
1001
0000
1001
0000
0000
0000
0000
0000
1000
0001
0100
0000
0010
0000
0000
0000
,
2002
0000
0000
0000
,
0000
0000
0000
3003
0000
0000
0000
0000
;

//---------------dance-single - Flying High----------------
#NOTES:
     dance-single:
     Flying High:
     Challenge:
     11:
     0.994,0.903,1.000,0.014,1.000,800.000,160.000,2.000,0.000,0.000:

0000
0000
0000
0000
,
0000
0000
0000
0000
,
0000
0000
0000
0000
,
0000
0000
0000
0000
,
1001
0000
0101
0100
0001
0000
1000
0100
0010
0001
1000
0000
1001
0000
0001
0000
,
0101
0000
1010
1000
0100
0000
0010
0001
0010
0100
1000
0000
1001
0000
0100
0000
,
0101
0000
1010
1000
0100
0010
0100
1000
0001
0100
0010
0000
1010
0000
1000
0000
,
1100
0000
0100
1000
0000
1000
1100
0000
0101
0001
0100
0000
1100
0000
0110
0000
,
0101
0000
0001
0100
1010
0000
1100
0000
0010
0001
0010
0000
1100
0000
1000
0000
,
0101
0000
0010
0100
0101
0000
0010
1000
0010
0100
0001
0000
0011
0000
0001
0000
,
1100
0000
0100
1000
0101
0000
0010
0000
1000
0010
1000
0000
0101
0000
1000
0000
,
1100
0000
0001
0100
0000
0001
1100
0000
0100
0010
0100
0000
1001
0000
0100
0000
,
0101
0000
0001
0100
0101
0000
0010
0000
1010
0010
0100
0000
0101
0000
0001
0000
,
1100
0100
0010
0000
0001
0000
0010
0000
0110
0100
1000
0000
0110
0000
0100
0000
,
1001
1000
0100
0010
0001
0000
1001
0000
0101
0100
0010
0000
1000
0000
0010
0000
,
0110
0100
0000
0001
1001
0000
1000
0100
1100
1000
0100
0010
0001
0000
1000
0000
,
1010
0010
0100
0001
1000
0000
0011
0001
0010
0100
1000
0000
1010
0000
0101
0000
,
1001
1000
0010
0100
0001
0100
0010
1000
0001
0100
0001
0000
0100
0000
0110
0000
,
1010
1000
0010
0100
0001
0000
0010
0100
1000
0001
0100
0000
0110
0000
1010
0000
,
1001
0001
0010
0000
1000
0001
0100
0000
0010
1000
0001
0000
0010
0000
0110
0000
,
1100
0100
0000
1000
1100
0000
0100
0110
0000
0010
0011
0000
1001
0000
0001
0000
,
0101
0100
0000
0100
0110
0000
0010
1010
0000
1000
1001
0000
0011
0000
0110
0000
,
1100
0100
0010
0000
0001
0000
1000
0000
0010
0000
0100
0000
0001
0000
0010
0000
,
0110
0100
1000
0000
0001
0000
0100
0000
0010
0000
1000
0000
0001
0000
0100
0000
,
1010
0010
0100
0000
0001
0000
1000
0000
0100
0000
0010
0000
0100
0000
1000
0000
,
1001
0001
0100
0010
1000
0010
0100
0001
0010
0100
1000
0001
0100
0010
1000
0010
,
0101
0101
0110
1010
1100
0011
0101
0110
,
0101
1001
1100
0110
1100
0101
0110
0101
,
1000
0100
0001
0100
1000
0100
0001
0100
1000
0100
0001
0100
1000
0100
0001
0100
,
1000
0010
0001
0010
1000
0010
0001
0010
1000
0010
0001
0010
1000
0010
0001
0010
,
1000
0100
0001
0100
1000
0010
0001
0010
1000
0100
0001
0100
1000
0010
0001
0010
,
0001
0010
1000
0100
0001
0100
1000
0010
0001
0010
1000
0100
0001
0100
1000
0001
,
0100
0010
1000
0010
0100
0010
1000
0010
0100
0010
1000
0010
0100
0010
1000
0010
,
0100
0001
0100
0010
0100
0001
0100
0010
0100
0001
1000
0001
0100
0010
0100
0001
,
1000
0100
0010
0100
1000
0100
0010
0001
0010
0100
0010
0100
1000
0010
0100
0001
,
0010
0100
1000
0001
0010
0100
1000
0001
0010
0100
1000
0001
0010
0100
1000
0100
,
1000
0100
0010
0001
0010
0100
1000
0100
0010
0001
0010
0100
1000
0100
0010
0001
,
1000
0010
0100
0001
0100
0010
0100
0001
1000
0010
0100
0010
1000
0001
0100
0010
,
1000
0100
0010
0001
0100
0010
0100
0001
0010
0100
1000
0100
0010
1000
0010
0100
,
1000
0010
0100
0010
1000
0010
0100
0010
1000
0010
0100
0010
1000
0010
0100
0010
,
1000
0100
0010
0001
0010
0100
1000
0100
0010
0001
0100
0010
1000
0010
0100
0001
,
0100
0010
1000
0010
0100
0010
1000
0010
0100
0001
0100
0010
0100
0001
0100
0010
,
1000
0001
0010
0100
1000
0001
0010
0100
1000
0001
0010
0100
1000
0001
0010
0100
,
1000
0010
0100
0001
1000
0010
0100
0001
1000
0010
0100
0001
1000
0010
0100
0001
,
1001
0000
0110
0000
0011
0000
0110
0000
1010
0010
0100
0001
0010
0100
1000
0001
,
0101
0000
0110
0000
1010
0000
1001
0000
1100
0100
0010
0001
1000
0010
0100
0001
,
1001
0000
1100
0000
0101
0000
0011
0000
1010
0010
0100
0001
0010
0100
1000
0001
,
0101
0000
0110
0000
1010
0000
1001
0000
1100
0100
0010
0001
0010
0100
1000
0001
,
1001
0000
0101
0000
0110
0000
1010
0000
1100
0100
0010
0001
0100
0010
1000
0001
,
1001
0000
0101
0000
1001
0000
1100
0000
0110
0010
0001
0010
0100
1000
0001
0100
,
1010
0000
0110
0000
0101
0000
1001
0000
0011
0010
0100
1000
0001
0010
0100
1000
,
0011
0000
0011
0000
0011
0000
0011
0000
0011
1000
0100
0010
0001
1000
0100
0010
,
1100
1100
1100
1100
0001
0100
0010
0100
,
0101
0101
0101
0101
1000
0010
0100
0001
,
1001
1001
1001
1001
0010
0100
0001
1000
,
0110
0110
0110
0110
0100
1000
0010
0100
,
0101
1010
0101
1010
0001
0001
0001
0001
,
0011
1100
0011
1100
0010
0010
0010
0010
,
1100
0110
0011
0101
0001
0001
0001
0001
,
0101
0110
1010
1100
1010
0110
0101
1001
,
0110
0010
0100
0010
0100
0010
0100
0010
0100
0010
0100
0010
0100
0010
0100
0010
,
0100
1000
0100
1000
0100
1000
0100
1000
0100
1000
0100
1000
0100
1000
0100
1000
,
0001
0100
0001
0100
0001
0100
0001
0100
0001
0100
0001
0100
0001
0100
0001
0100
,
0010
1000
0010
1000
0010
1000
0010
0100
0010
1000
0010
0100
0010
1000
0010
0100
,
0001
0100
0010
0100
0001
0100
0010
1000
0001
0100
0010
1000
0010
0100
0001
0100
,
0010
1000
0010
0100
0001
0100
0010
0100
0001
1000
0010
0100
0001
0010
0100
1000
,
0001
0100
0001
0100
0001
0100
0001
0010
0001
0100
0010
0100
0001
0010
0001
0100
,
0010
1000
0010
0100
0010
1000
0010
0100
0010
0100
0001
0100
0010
0100
0001
0100
,
2002
0000
0000
0000
,
0000
0000
0000
3003
0000
0000
0000
0000
;
