#TITLE:2;
#SUBTITLE:;
#ARTIST:AVTechNO!;
#TITLETRANSLIT:;
#SUBTITLETRANSLIT:;
#ARTISTTRANSLIT:;
#CREDIT:M.L-INS;
#BANNER:../Tachyon DIVA.png;
#BACKGROUND:../Tachyon DIVA-bg.png;
#LYRICSPATH:;
#CDTITLE:;
#MUSIC:2.ogg;
#OFFSET:-0.940;
#SAMPLESTART:100.000;
#SAMPLELENGTH:12.000;
#SELECTABLE:YES;
#DISPLAYBPM:182.000;
#BPMS:0.000=183.004,32.000=182.004,194.000=72.495,196.000=182.004,324.000=363.997,328.000=182.004;
#STOPS:327.500=0.340
;
#BGCHANGES:;
// cache tags:
#FIRSTBEAT:32.000;
#LASTBEAT:396.000;
#SONGFILENAME:Songs/Tachyon DIVA/2[M.L-INS]/2.sm;
#HASMUSIC:1;
#HASBANNER:1;
#MUSICLENGTH:136.765;
// end cache tags

//---------------dance-single - ----------------
#NOTES:
     dance-single:
     :
     Challenge:
     15:
     1.000,1.000,0.197,0.227,1.000,936.000,27.000,31.000,42.000,0.000:
0000
0000
0000
0000
,
0000
0000
0000
0000
,
0000
0000
0000
0000
,
0000
0000
0000
0000
,
0000
0000
0000
0000
,
0000
0000
0000
0000
,
0000
0000
0000
0000
,
0000
0000
0000
0000
,
0010
0100
1000
0100
0020
0000
0031
0100
,
0010
0000
1000
0000
0400
0000
0000
0000
0310
0001
0010
0000
0100
1000
0100
0000
,
1000
0100
0010
0001
0200
0000
0310
1000
,
0001
0000
0010
0000
0400
0000
0000
0000
1300
0100
1000
0000
0001
0000
0100
0010
,
0100
0001
0100
0010
2000
0000
3001
0100
,
0010
0000
1000
0000
0040
0000
0000
0000
0130
0001
0100
0000
0010
1000
0010
0000
,
1000
0001
0010
0100
0020
0000
0031
0100
,
0001
0000
0010
0000
0400
0000
0000
0000
0310
0001
0010
0000
0001
0000
0100
0001
,
0100
0001
1000
0001
0020
0000
0031
0100
,
0010
0000
1000
0000
0040
0000
0000
0000
0130
0010
0100
0000
0010
1000
0010
0000
,
0100
0001
0010
0100
2000
0000
3001
0100
,
0010
0000
1000
0000
0004
0000
0000
0000
1003
0100
1000
0000
0010
0000
1000
0001
,
1000
0001
0100
0001
0020
0000
0130
1000
,
0001
0000
0100
0000
0004
0000
0000
0000
1003
0010
1000
0000
0001
0100
0001
0000
,
0010
0100
1000
0001
0020
0000
0031
0100
,
0010
0000
1000
0000
0400
0000
0000
0000
0310
0001
0010
0000
0200
0000
1000
0300
,
0002
0000
0100
0003
0020
0000
0100
0030
0002
0000
1000
0003
1001
0000
1000
0000
,
0002
0000
1003
0010
0100
0010
2000
0000
,
3001
0000
0000
0010
0000
0000
0100
1000
0100
1000
0000
0000
0001
0100
0001
0100
0000
0000
0001
0000
0000
0010
0000
0000
,
0100
1000
0020
0000
0130
0001
0100
0010
,
4000
0000
0000
0000
0000
0000
3001
0100
0001
0100
0000
0000
0010
1000
0010
1000
0000
0000
0001
0000
0000
0100
0000
0000
,
0001
1000
0200
0000
0310
0001
1000
0100
,
0040
0000
0000
0000
0000
0000
0031
1000
0001
1000
0000
0000
0010
0100
0010
0100
0000
0000
0001
0000
0000
0010
0000
0000
,
0100
1000
0200
0000
0310
0001
0010
0100
,
4000
0000
0000
0000
0000
0000
3001
0010
0100
1000
0000
0000
0001
0100
0010
1000
0000
0000
0010
0000
0000
0100
0000
0000
,
0001
0010
0200
0000
1300
0010
1000
0100
,
0040
0000
0000
0000
0000
0000
0031
0100
0010
0100
0000
0000
0010
1000
0010
0100
0000
0000
0001
0000
0000
0010
0000
0000
,
0100
0010
0002
0000
1003
0100
0010
0100
,
4000
0000
0000
0000
0000
0000
0000
0000
3001
0010
0100
1000
0001
0000
0000
0000
1000
0100
0010
0001
1000
0000
0000
0000
0001
0000
0000
0000
0010
0000
0000
0000
,
0001
0100
0020
0000
1030
0001
0100
0010
,
0400
0000
0000
0000
0000
0000
0301
0100
0010
1000
0000
0000
0010
0100
0001
1000
0000
0000
0010
0000
0000
0100
0000
0000
,
1000
0001
0200
0000
0310
1000
0001
1000
,
0040
0000
0000
0000
1030
0100
0010
0000
0001
0100
0010
0000
1000
0000
0010
0000
,
1000
0100
0010
0001
0100
0010
1000
0001
,
0100
0010
1000
0100
0010
0100
1000
0001
,
0100
0010
0100
0001
1000
0400
0000
0301
,
0400
0000
1300
0040
0000
0031
0040
0000
,
1030
0400
0000
0310
0400
0000
1300
0040
,
0000
0130
0040
0000
0031
0400
0000
1300
,
0040
0000
0130
0400
0000
0301
0020
0000
,
0100
0000
0000
0030
0010
0000
00M0
0000
4002
0000
0000
0000
0000
0000
3003
0000
,
1000
0001
1000
0000
0100
0000
0010
0000
0001
0100
0001
0000
0010
0000
0100
0000
,
1000
0100
0010
0000
0010
0100
1000
0000
0001
0010
0100
0000
0100
0010
0001
0000
,
0100
0010
0100
0000
0001
0000
1000
0000
0001
0100
0001
0000
0010
0000
0100
0000
,
1000
0001
0010
0000
0010
0001
1000
0000
0001
1000
0100
0000
0100
1000
0001
0000
,
1000
0100
1000
0000
0010
0000
1000
0000
0010
0100
0010
0000
1000
0000
0100
0000
,
1000
0010
0100
0000
0100
0010
1000
0000
0001
0100
0010
0000
0010
0100
0001
0000
,
0010
0100
0010
0000
1000
0000
0010
0000
0100
1000
0100
0000
1000
0000
0001
0000
,
0100
0010
1000
0000
1000
0010
0100
0000
0100
0001
0010
0000
0010
0001
0100
0000
,
0001
0010
0100
0000
1000
0000
0100
0000
0001
0100
1000
0000
0010
0000
0100
0000
,
0001
0100
1000
0000
1000
0100
0001
0000
0001
0010
1000
0000
1000
0010
0001
0000
,
0100
0001
0010
0000
0100
0000
1000
0000
0010
0100
1000
0000
0100
0000
0010
0000
,
1000
0100
0001
0000
0001
0100
1000
0000
1000
0010
0001
0000
0001
0010
1000
0000
,
0001
0100
0010
0000
1000
0000
0100
0000
0010
0001
0100
0000
0010
0000
1000
0000
,
0001
0100
0010
0000
1000
0100
0001
0000
1000
0001
0100
0000
1000
0010
0001
0000
,
0010
1000
0100
0010
0100
1000
0001
0100
,
0010
0000
1000
0000
0001
0000
0100
0000
0001
0000
0010
0000
0200
0000
0000
0300
,
1000
0001
0100
0010
0100
0001
1000
0100
1000
0001
0100
0001
0010
0100
1000
0001
,
0100
0000
0000
0010
0000
0000
1000
0000
0000
0010
0000
0000
0100
0000
0000
0001
0000
0000
0010
0000
0000
0100
0000
0000
1000
0000
0100
0000
0010
0000
0001
0000
0100
0000
0010
0000
0100
0000
0001
0000
0010
0000
0100
0000
1000
0000
0001
0000
,
1000
0001
0010
0001
0100
0010
1000
0001
1000
0010
0100
0001
0010
0100
1000
0001
,
0100
0000
0000
0010
0000
0000
0100
0000
0000
0001
0000
0000
1000
0000
0000
0010
0000
0000
0100
0000
0000
0001
0000
0000
0100
0000
0010
0000
1000
0000
0100
0000
1000
0000
0001
0000
0100
0000
0001
0000
0010
0000
0100
0000
1000
0000
0001
0000
,
0100
0010
1000
0100
1000
0001
0010
0001
0100
0010
0100
0001
1000
0010
0100
0010
,
1000
0000
0000
0001
0000
0000
0010
0000
0000
0100
0000
0000
1000
0000
0000
0100
0000
0000
0010
0000
0000
0001
0000
0000
0010
0000
0001
0000
1000
0000
0010
0000
0100
0000
0001
0000
0010
0000
0100
0000
1000
0000
0100
0000
0010
0000
0001
0000
,
1000
0010
0100
0001
0010
0001
1000
0010
1000
0100
0010
0001
0100
0010
0100
0001
,
0010
0000
0000
0100
0000
0000
0010
0000
0000
0001
0000
0000
1000
0000
0000
0010
0000
0000
1000
0000
0000
0001
0000
0000
0100
0000
0010
0000
1000
0000
0001
0000
1000
0000
0010
0000
0100
0000
0001
0000
0100
0000
0010
0000
1000
0000
0001
0000
,
1000
0001
0010
0100
1000
0001
0100
0001
1000
0010
1000
0100
0010
0001
1000
0010
,
1000
0000
0000
0100
0000
0000
0010
0000
0000
0001
0000
0000
0100
0000
0000
0010
0000
0000
0100
0000
0000
0001
0000
0000
1000
0000
0001
0000
0100
0000
0001
0000
0010
0000
0100
0000
1000
0000
0100
0000
0010
0000
0001
0000
1000
0000
0010
0000
,
1000
0001
0100
0010
1000
0100
0010
0001
0100
0010
0100
0001
0010
0001
1000
0010
,
1000
0000
0000
0100
0000
0000
0010
0000
0000
0100
0000
0000
1000
0000
0000
0001
0000
0000
0100
0000
0000
0001
0000
0000
0010
0000
0100
0000
1000
0000
0001
0000
0100
0000
0010
0000
1000
0000
0100
0000
0010
0000
0001
0000
0100
0000
0010
0000
,
1000
0001
0100
0010
0100
0001
1000
0001
1000
0010
0100
0001
0010
0100
1000
0001
,
0100
0000
0000
0001
0000
0000
1000
0000
0000
0010
0000
0000
0100
0000
0000
0001
0000
0000
1000
0000
0000
0001
0000
0000
0100
0000
0001
0000
0010
0000
0100
0000
1000
0000
0001
0000
0010
0000
0100
0000
0010
0000
0001
0000
1000
0000
0001
0000
,
0100
0010
1000
0001
1000
0010
0100
0001
1000
0010
1000
0001
0100
0010
1000
0001
,
0100
0000
0000
0001
0000
0000
0010
0000
0000
0001
0000
0000
1000
0000
0000
0010
0000
0000
1000
0000
0000
0100
0000
0000
1000
0000
0001
0000
0010
0000
0001
0000
1000
0000
0010
0000
1000
0000
0100
0000
0010
0000
0100
0000
1000
0000
0010
0000
,
4000
0000
0000
0000
0000
0000
0000
0000
0000
0000
0000
0000
0000
0000
0000
0000
0000
0000
0000
0000
0000
0000
0000
0000
0M0M
0000
0000
0000
0000
0000
0000
0000
0000
0000
0000
0000
0000
0000
0000
0000
0000
0000
0000
0000
0000
0000
0000
0000
0M0M
0000
0000
0000
0000
0000
0000
0000
0000
0000
0000
0000
0000
0000
0000
0000
0M0M
0000
0000
0000
0000
0000
0000
0000
0M0M
0000
0000
0000
0000
0000
0M0M
0000
0000
0000
0000
0000
0M0M
0000
0000
0M0M
0000
0000
0M0M
0000
0000
0M0M
0000
0000
0M0M
0000
0000
0M0M
0000
0000
0M0M
0000
0000
0M0M
0000
0000
0M0M
0000
0000
0000
0000
0000
0M0M
0000
0000
0000
0000
0000
0M0M
0000
0000
0000
0000
0000
0000
0000
0M0M
0000
0000
0000
0000
0000
0000
0000
0000
0000
0000
0000
0000
0000
0000
0000
0M0M
0000
0000
0000
0000
0000
0000
0000
0000
0000
0000
0000
0000
0000
0000
0000
3000
0000
0000
0000
0000
0000
0000
0000
0M0M
0000
0000
0000
0000
0000
0000
0000
0000
0000
0000
0000
0000
0000
0000
0000
0000
0000
0000
0000
0000
0000
0000
0000
,
1000
0000
0001
0000
0100
0000
0001
0010
0100
0000
1000
0000
0010
0000
0100
0000
,
0001
0000
0000
0010
0000
0000
0100
0000
0000
0010
0000
0000
0001
0100
0010
1000
0010
0100
0002
0000
0000
0000
0000
0003
,
0100
0000
0010
0000
1000
0000
0001
0010
0100
0000
1000
0000
0010
0000
0100
0000
,
0001
0000
0000
1000
0000
0000
0100
0000
0000
0010
0000
0000
0100
1000
0001
0100
0001
1000
0200
0000
0000
0300
0000
0000
,
0100
0000
0010
0000
0100
0000
0001
1000
0100
0000
0010
0000
0001
0000
0100
0000
,
0001
0000
0000
1000
0000
0000
0100
0000
0000
0010
0000
0000
0001
1000
0100
1000
0001
0010
0002
0000
0000
0000
0000
0003
,
1000
0000
0001
0000
0100
0000
0001
0010
0100
0000
1000
0000
0010
0000
0100
0000
,
0001
0000
0000
0010
0000
0000
0100
0000
0000
0010
0000
0000
0001
0100
0010
1000
0100
0010
0002
0000
0000
0000
0000
0003
,
0100
0000
0010
0000
1000
0000
0001
0010
0100
0000
1000
0000
0010
0000
0100
0000
,
0001
0000
0000
1000
0000
0000
0100
0000
0000
0010
0000
0000
0100
1000
0001
0010
0100
1000
0020
0000
0000
0000
0000
0030
,
0100
0000
0010
0000
0100
0000
0001
1000
0100
0000
0010
0000
0001
0000
0100
0000
,
0001
0000
0000
1000
0000
0000
0100
0000
0000
0010
0000
0000
0001
1000
0100
0010
0001
0100
0020
0000
0000
0000
0000
0030
,
1000
0000
0100
0000
1000
0000
0001
0010
0100
0000
1000
0000
0010
0000
0100
0000
,
0001
0000
0000
0000
0000
0000
1000
0000
0000
0000
0000
0000
0100
0000
0000
0000
0000
0000
0010
0000
0000
0001
0000
0000
1000
0000
0001
0000
0100
0000
0010
0000
1000
0000
0100
0000
1000
0000
0001
0000
0100
0000
0010
0000
1000
0000
0001
0000
,
1000
0001
0100
0010
1000
0100
1000
0001
1000
0010
0100
0001
0010
0100
1000
0010
,
1000
0100
0010
0100
1000
0001
0010
0100
0010
0001
1000
0100
0010
0001
0100
0010
,
0200
0300
M000
M000
,
M000
0000
0000
0000
;
