#TITLE:Faggot;
#SUBTITLE:;
#ARTIST:Mindless Self Indulgence;
#TITLETRANSLIT:;
#SUBTITLETRANSLIT:;
#ARTISTTRANSLIT:;
#CREDIT:;
#BANNER:Faggot.PNG;
#BACKGROUND:Faggot-bg.PNG;
#LYRICSPATH:;
#CDTITLE:!danceguyTitle.png;
#MUSIC:Faggot.mp3;
#OFFSET:-0.094;
#SAMPLESTART:39.426;
#SAMPLELENGTH:12.000;
#SELECTABLE:YES;
#BPMS:0.000=152.030;
#STOPS:;
#BGCHANGES:;
// cache tags:
#FIRSTBEAT:0.000;
#LASTBEAT:401.000;
#SONGFILENAME:Songs/Community Keyboard Megapack - Volume 3/(Danceguy117) Faggot/Faggot.sm;
#HASMUSIC:1;
#HASBANNER:1;
#MUSICLENGTH:159.885;
// end cache tags

//---------------dance-single - heavy----------------
#NOTES:
     dance-single:
     heavy:
     Hard:
     9:
     0.684,0.721,0.832,0.069,0.138,621.000,133.000,11.000,0.000,0.000:
1001
0000
0000
0000
0010
0000
0000
1001
,
1001
0000
0010
0000
,
1001
0000
0000
0000
,
0000
0000
0000
0010
,
1001
0000
0000
0000
1000
0000
0010
0100
,
0101
0001
0000
0000
0001
0000
0010
0100
,
1010
1000
0000
0000
1000
0000
0001
0100
,
0100
0100
0000
0000
0000
0000
0000
0000
,
1001
0000
0000
0000
1000
0000
0010
0100
,
0011
0010
0000
0000
0001
0000
1000
0010
,
0110
0100
0000
0000
0001
0000
1000
0100
,
0100
0100
0000
0000
0000
0000
0000
0000
,
1001
0000
0000
0001
0011
0100
1000
0100
,
0110
0000
0010
0001
1010
0010
0100
0001
,
0101
0000
0000
0000
1001
0100
0010
0000
,
1100
0000
0100
0000
0010
0100
1000
0000
1010
0000
0010
0000
0100
0000
0010
0000
,
1001
0000
0000
0000
1010
0000
0001
0010
,
0110
0000
0100
0000
1000
0000
0001
0000
0101
0000
0100
0000
0010
1000
0010
0000
,
1001
0000
0000
1000
1010
0010
0100
0010
,
1001
0100
0010
1000
1100
0000
0000
0000
,
1001
0100
0010
1000
0001
0010
0100
1000
,
0100
0010
0001
1000
0010
0100
0001
1000
,
0100
0010
0100
1000
0010
0100
0001
1000
,
0001
0100
0010
0010
0100
0100
0001
0001
,
1001
0100
0010
1000
0001
0010
0100
1000
,
0001
0100
0001
1000
0100
0010
0001
1000
,
0010
1000
0100
0010
0001
1000
0010
0100
,
0011
0110
1100
0110
,
1001
0000
0000
0000
1010
0000
0010
0100
,
0011
0001
0000
0000
0110
0000
1000
0100
,
1100
0100
0000
0000
1000
0000
0001
1000
,
1000
1000
0100
0000
1100
0000
0101
0000
,
1001
0000
0000
0000
1010
0000
0010
0100
,
0011
0010
0000
0000
0011
0000
0001
1000
,
1100
0100
0000
0000
0010
0000
0001
0100
,
0100
0100
0000
0000
0000
0000
0000
0000
,
1001
0000
0000
1000
1010
0010
0000
0100
,
0110
0000
0001
1000
1100
0010
0100
0010
,
0011
0000
0001
0100
1010
0010
0100
0001
,
0011
0000
0001
0010
0001
0000
0010
0000
1100
0000
1000
0000
1000
0000
0001
0000
,
1001
0000
0000
0001
0101
0100
0010
0010
,
1010
0000
1000
0100
1000
0000
0001
0000
0101
0000
0100
0000
0010
0000
1000
0000
,
1001
0000
0000
0000
0000
0001
1000
0000
1100
0000
0100
0000
0010
0000
0001
0000
,
0101
0000
1000
0000
0001
0000
1000
0000
1001
0000
1000
0100
1000
0001
0100
0000
,
1001
0100
0010
1000
0001
0010
0100
1000
,
0100
0001
0100
0010
0001
1000
0010
0100
,
0001
0010
0100
1000
0010
0100
0001
1000
,
1001
1000
0010
0010
0100
0100
0001
0001
,
1001
0010
0100
1000
0001
0100
0010
1000
,
0100
0010
0001
1000
0010
1000
0001
0100
,
0010
0100
0001
1000
0100
0010
0001
1000
,
1001
1100
0110
0011
,
1001
0000
0000
0000
1010
0000
0010
0100
,
0011
0001
0000
0000
1001
0000
0010
0100
,
1010
1000
0000
0000
1000
0000
0001
0100
,
0100
0100
0010
0000
1010
0000
1100
0000
,
1001
0000
0000
0000
1010
0000
0010
0100
,
0011
0010
0000
0000
1001
0000
0001
1000
,
0101
0100
0000
0000
0010
0000
1000
0100
,
0100
0000
0010
0001
0010
0000
0001
0000
1000
0000
0010
0100
0010
0000
1000
0000
,
1002
0000
0000
0000
0023
0000
0000
0030
,
2100
0000
0000
0000
3002
0000
0000
0003
,
0120
0000
0000
0000
2030
0000
0000
3000
,
1200
0000
0000
0000
0000
0000
0000
0000
0310
0001
0010
0001
1000
0100
1000
0001
,
1001
0000
1000
0100
1000
0000
0001
0000
0100
0000
0010
0100
0010
0000
1000
0000
,
0001
0000
0010
0001
0010
0000
0100
0000
1000
0000
0001
1000
0001
0000
0100
0000
,
0010
0000
1000
0001
0100
0000
0001
0000
0010
0000
0100
1000
0010
0000
1000
0000
,
0001
0000
0100
0010
1000
0000
0001
0000
0010
0000
0100
1000
0001
0000
0100
0000
,
1001
0000
0000
0000
0001
0010
0001
0000
1001
0000
0000
0000
1000
0010
1000
0000
,
1100
0000
0000
0000
0001
1000
0001
0000
0101
0000
0000
0000
0010
0100
0010
0000
,
1010
0000
0000
0000
1000
0001
1000
0000
1100
0000
0000
0000
0100
0010
0100
0000
,
0110
0000
0000
0000
0010
0001
0010
0000
0011
0000
0000
0000
0001
1000
0001
0000
,
1001
0000
0000
0000
1000
0010
1000
0000
0101
0000
0000
0000
0001
0010
0001
0000
,
1010
0000
0000
0000
0010
0100
0010
0000
0101
0000
0000
0000
0001
1000
0001
0000
,
1010
0000
0000
0000
1000
0100
0010
0000
0011
0000
0000
0000
0001
1000
0010
0000
,
1010
0000
0000
0000
1000
0010
0100
0000
0101
0000
0000
0000
0000
0000
0000
0000
,
1001
0100
0010
1000
0010
0100
0001
0010
,
0100
1000
0010
0100
0001
0010
0100
1000
,
0001
0100
0001
1000
0010
1000
0100
0010
,
0110
0010
0001
0001
1000
1000
0010
0010
,
1010
1000
0010
0100
0001
0010
0100
1000
,
0100
0010
0001
1000
0010
0100
0001
0010
,
0100
1000
0001
0100
0010
1000
0100
0010
,
0101
1001
1100
1001
,
0110
0000
0000
0000
1010
0000
0010
1000
,
0101
0101
0000
0000
1001
0000
0010
0001
,
1100
1100
0000
0000
1000
0000
0001
0100
,
0100
0100
1010
0000
1100
0000
0110
0000
,
0011
0000
0000
0000
1001
0000
0010
1000
,
0110
0110
0000
0000
1001
0000
0001
0010
,
1100
1100
0000
0000
1000
0000
0001
0100
,
0100
0100
0000
0000
0000
0000
0000
0000
,
2002
0000
3003
0000
0001
0010
0001
0000
0000
0000
0000
0000
1000
0010
1000
0000
,
0100
0100
0010
0010
0001
0001
1000
1000
,
1001
0000
0000
0000
0001
0010
0001
0000
0000
0000
0000
0000
1000
0100
1000
0000
,
0100
0100
1000
1000
0001
0001
0010
0010
,
0011
0000
0000
0000
0001
1000
0001
0000
0101
0000
0000
0000
0100
0010
0100
0000
,
0010
0010
1000
1000
0100
0100
0010
0010
,
1001
0000
0000
0000
0010
1000
0001
0000
0011
0000
0000
0000
0010
0100
1000
0000
,
1100
1000
0001
0001
0101
0100
0010
0010
,
2002
3003
0000
0000
;

//---------------dance-single - challenge----------------
#NOTES:
     dance-single:
     challenge:
     Challenge:
     11:
     1.000,1.000,1.000,0.200,0.738,796.000,292.000,32.000,0.000,0.000:
1001
0100
0010
0001
0011
0010
0100
1001
,
1001
0100
0010
0001
0011
0010
0100
0000
,
1001
0001
1000
0100
0010
0001
1000
0000
,
1000
0010
0100
0001
1000
0100
0011
0000
,
1001
0000
0000
0000
1010
0000
0010
0110
,
1001
1001
0000
0000
0011
0000
0010
0110
,
1100
1100
0000
0000
0001
0000
1000
1100
,
1100
1100
0000
0000
0000
0000
0000
0000
,
1001
0000
0000
0000
1010
0000
0010
0110
,
1001
1001
0000
0000
0011
0000
0010
1010
,
0101
0101
0000
0000
1000
0000
0001
0101
,
0101
0101
0000
0000
0000
0000
0000
0000
,
1001
0000
0000
0000
0000
0000
2000
0000
0000
0000
3010
0100
0001
0000
1000
0000
0011
0000
0000
0000
0000
0000
0002
0000
0000
0000
0013
0100
1000
0000
0001
0000
,
1010
0100
1000
0000
0001
0010
0100
1000
0011
1000
0010
0000
0001
0010
0100
1000
,
0110
0000
0000
0000
0000
0000
0002
0000
0000
0000
0013
0100
1000
0000
0010
0000
0101
0000
0000
0000
0000
0000
2000
0000
0000
0000
3010
0100
0001
0000
0010
0000
,
1100
0001
1000
0000
1000
0010
0100
0001
1010
0100
0010
0000
0000
0000
0000
0000
,
1001
0000
0000
0000
0000
0000
0020
0000
0000
0000
0130
1000
0001
0000
0100
0000
1010
0000
0000
0000
0000
0000
2000
0000
0000
0000
3001
1000
0100
0000
1000
0000
,
0011
0100
0010
0000
0001
0010
0100
1000
0101
1000
0001
0000
0100
0010
1000
0100
,
1001
0000
0000
0000
0000
0000
2000
0000
0000
0000
3100
1000
0100
0000
0010
0000
0101
0000
0000
0000
0000
0000
0002
0000
0000
0000
0103
0001
0100
0000
0010
0000
,
1100
0010
1000
0000
0100
0010
0001
1000
0110
0000
0000
0000
0000
0000
0000
0000
,
1001
1000
0010
0100
0011
0010
0110
0110
,
0100
1000
0001
0100
1010
0010
1010
1010
,
1000
0101
0001
0010
0110
0110
1100
1100
,
1001
0000
0010
0000
0010
0010
0000
0010
0000
0010
0000
0010
0000
0000
0000
0000
,
1001
0100
0010
1000
1010
0010
1010
0011
,
0010
0100
1000
0001
0101
1000
0101
0101
,
0010
1100
0001
0010
1001
1001
1001
0011
,
1100
1100
1100
1100
,
1001
0000
0000
0000
1100
0000
0010
0110
,
1010
1010
0000
0000
1001
0000
0010
1010
,
0101
0101
0000
0000
0001
0000
1000
0101
,
0101
0101
1010
0000
1100
0000
0011
0000
,
0110
0000
0000
0000
1001
0000
0010
1010
,
0011
0011
0000
0000
1001
0000
0010
0011
,
1100
1100
0000
0000
0001
0000
1000
1100
,
1100
1100
0000
0000
0000
0000
0000
0000
,
1001
0000
0000
0000
0000
0000
2000
0000
0000
0000
3100
1000
0100
0000
0010
0000
0101
0000
0000
0000
0000
0000
0002
0000
0000
0000
0013
0001
0010
0000
0001
0000
,
1100
0010
1000
0000
1000
0100
0010
0001
0110
0001
1000
0000
0100
1000
0010
0100
,
0011
0000
0000
0000
0000
0000
0002
0000
0000
0000
0013
0001
1000
0000
0010
0000
0101
0000
0000
0000
0000
0000
2000
0000
0000
0000
3100
0010
0001
0000
1000
0000
,
0110
1000
0010
0000
0100
0001
1000
0100
0011
0100
0010
0000
0000
0000
0000
0000
,
1010
0000
0000
0000
0000
0000
0020
0000
0000
0000
0130
0001
1000
0000
0100
0000
1010
0000
0000
0000
0000
0000
0002
0000
0000
0000
0103
0010
1000
0000
0001
0000
,
1100
0001
1000
0000
1000
0100
0010
0001
0110
1000
0010
0000
0100
0001
0010
0100
,
1001
0000
0000
0000
0000
0000
0002
0000
0000
0000
0013
0100
1000
0000
0010
0000
0101
0000
0000
0000
0000
0000
2000
0000
0000
0000
3010
0100
0001
0000
0010
0000
,
1100
0010
0100
0000
0001
1000
0010
0100
0011
0000
1000
0010
0100
0001
0100
0010
,
1001
1000
0010
0100
0011
0010
0110
1010
,
0001
0100
0010
1000
0101
0010
1100
1001
,
0010
0110
0001
0100
1010
0011
0110
1100
,
1001
0000
0010
0000
0010
0010
0000
0010
0000
0010
0000
0010
0000
0000
0000
0000
,
1001
1000
0010
0100
0110
0001
1001
1010
,
0001
0010
0100
1000
0101
0010
0011
1100
,
1000
1001
0001
1000
1001
0101
1001
0011
,
1010
0110
0101
1100
,
1001
0000
0000
0000
1010
0000
0010
0110
,
1010
1010
0000
0000
1001
0000
1000
0011
,
1100
1100
0000
0000
0010
0000
0001
0101
,
0101
0101
0110
0000
1010
0000
1100
0000
,
1001
0000
0000
0000
1010
0000
0010
0110
,
0011
0011
0000
0000
1001
0000
0010
1001
,
1100
1100
0000
0000
0010
0000
1000
0101
,
0101
0000
0101
0000
1000
0010
0100
0001
0010
0100
1000
0001
0100
0010
1000
0100
,
2002
0000
0000
0003
0020
0000
0000
3030
,
0202
0000
0000
0300
2000
0000
0000
3003
,
0220
0000
0000
0030
0002
0000
0000
0303
,
2200
0000
0000
0000
0000
0000
0000
0000
0000
0000
0000
0000
3000
0000
0000
0000
1300
0001
1000
0001
1000
0001
1000
0001
0100
0010
0100
0010
0100
0010
0100
0010
,
1001
0000
0000
0000
0100
0010
1000
0100
0010
0001
0100
0010
1000
0000
0001
0000
,
0100
0000
0000
0000
0010
1000
0100
0010
0001
0100
0010
1000
0001
0000
0010
0000
,
0100
0000
0000
0000
1000
0100
0010
0001
1000
0010
0100
0001
0010
0000
0100
0000
,
1000
0000
0000
0000
0001
0010
0100
1000
0010
0100
0001
1000
0010
0000
0100
0000
,
1001
0000
0000
0000
0000
0000
2000
0000
0000
0000
3100
1000
0001
0000
0010
0000
0101
0000
0000
0000
0000
0000
0002
0000
0000
0000
0103
0010
1000
0000
0001
0000
,
1100
0001
1000
0000
0100
0010
0001
1000
0011
0100
0010
0000
1000
0010
0100
0001
,
0110
0000
0000
0000
0000
0000
0002
0000
0000
0000
0013
0001
1000
0000
0100
0000
1010
0000
0000
0000
0000
0000
0020
0000
0000
0000
1030
0010
0100
0000
0001
0000
,
1100
0010
0100
0000
0001
0010
0100
1000
0011
0100
0010
0000
1000
0010
0100
0001
,
1010
0000
0000
0000
0000
0000
0010
0000
0000
0000
1000
0001
0100
0000
0010
0000
1100
0000
0000
0000
0000
0000
0001
0000
0000
0000
0010
0001
1000
0000
0010
0000
,
0101
0010
1000
0000
0001
0010
0100
1000
0110
1000
0010
0000
0100
0001
0010
0100
,
1001
0000
0000
0000
0000
0000
1000
0000
0000
0000
0010
0100
0010
0000
1000
0000
0011
0000
0000
0000
0000
0000
0010
0000
0000
0000
0001
0010
0001
0000
1000
0000
,
0101
1000
0010
0000
0100
0001
0010
0100
1001
0000
0000
0000
0000
0000
0000
0000
,
0001
1000
0100
0010
1001
1000
1010
0101
,
0001
0010
0100
1000
0110
1000
0110
0011
,
0001
0101
0100
0010
1010
1001
0110
0101
,
1100
0000
0010
0000
0010
0010
0000
0010
0000
0010
0000
0010
0000
0000
0000
0000
,
1001
1000
0100
0010
0011
0001
0011
1010
,
0010
1000
0100
0010
1010
0001
1010
1010
,
0100
0101
0001
1000
1001
1010
0110
0101
,
1001
1001
1001
1001
,
0110
0000
0000
0000
1001
0000
0010
1010
,
0011
0011
0000
0000
1001
0000
0010
0011
,
1100
1100
0000
0000
0001
0000
1000
1100
,
1100
1100
0110
0000
0011
0000
0101
0000
,
1001
0000
0000
0000
1010
0000
0010
1010
,
0011
0011
0000
0000
0110
0000
0001
0011
,
1100
1100
0000
0000
0001
0000
1000
1100
,
1100
1100
0000
0000
0020
0030
0000
0000
,
0011
0000
0000
0000
0000
0000
1000
0000
0000
0000
0100
0010
0001
0000
1000
0000
0110
0000
0000
0000
0000
0000
0001
0000
0000
0000
0010
0100
1000
0000
0001
0000
,
1001
0110
1010
0101
0011
1100
0110
1001
,
0011
0000
0000
0000
0000
0000
0010
0000
0000
0000
0100
1000
0001
0000
0100
0000
1001
0000
0000
0000
0000
0000
0001
0000
0000
0000
0100
0010
1000
0000
0100
0000
,
1100
1010
0101
0011
1001
0110
0011
1010
,
0011
0000
0000
0000
0000
0000
0010
0000
0000
0000
0100
1000
0001
0000
0100
0000
1010
0000
0000
0000
0000
0000
0010
0000
0000
0000
0100
0001
0010
0000
0100
0000
,
0110
1100
1001
0101
0011
0110
1010
1001
,
0011
0000
0000
0000
0000
0000
0010
0000
0000
0000
0100
1000
0010
0000
0100
0000
1001
0000
0000
0000
0000
0000
0010
0000
0000
0000
0100
0001
1000
0000
0001
0000
,
1001
1100
1010
0101
1001
0110
0101
1010
,
0011
0000
0000
0000
;
