#TITLE:The Fierce Battle;
#SUBTITLE:Final Fantasy VI;
#ARTIST:植松伸夫;
#TITLETRANSLIT:;
#SUBTITLETRANSLIT:;
#ARTISTTRANSLIT:Nobuo Uematsu;
#CREDIT:;
#BANNER:The Fierce Battle.png;
#BACKGROUND:The Fierce Battle-bg.png;
#LYRICSPATH:;
#CDTITLE:!yesssss-cdtitle.png;
#MUSIC:The Fierce Battle.ogg;
#OFFSET:0.153;
#SAMPLESTART:36.770;
#SAMPLELENGTH:12.000;
#SELECTABLE:YES;
#BPMS:0.000=162.500,140.000=163.500,188.000=162.500;
#STOPS:;
#BGCHANGES:;
// cache tags:
#FIRSTBEAT:2.000;
#LASTBEAT:188.000;
#SONGFILENAME:Songs/VGMP 2/The Fierce Battle (Yesssss)/The Fierce Battle.sm;
#HASMUSIC:1;
#HASBANNER:1;
#MUSICLENGTH:84.565;
// end cache tags

//---------------dance-single - ----------------
#NOTES:
     dance-single:
     :
     Hard:
     10:
     1.000,1.000,1.000,1.000,0.225,364.000,115.000,135.000,0.000,39.000:
0000
0000
0000
0000
0000
0000
0000
0000
0001
0100
0001
0100
0001
0100
0001
0100
,
1020
2030
3002
0203
0320
2030
3002
0203
,
0320
0000
2030
0000
3002
0000
0203
0000
0320
0000
2030
0100
3002
0010
0203
1000
,
0321
2030
3002
0203
0320
2030
3002
0203
,
1320
2030
3002
0203
1320
2030
3012
0213
,
1320
2030
3002
0203
0320
2030
3002
0203
,
0320
0000
2030
0000
3002
0000
0203
0000
0320
0000
2030
0100
3002
0010
0203
0001
,
1320
2030
3002
0203
0320
2030
3002
0203
,
0321
2030
3012
0203
0321
2130
3012
1203
,
2302
3200
2323
0032
3223
2300
3232
2003
,
3322
2003
3232
2300
3223
2030
3322
0203
,
2331
3000
0000
0000
0000
0000
0000
0000
0001
0000
0000
0000
0010
0000
0000
0000
0100
0000
0000
0000
0000
0000
0000
0000
1200
0300
0000
0000
0000
0000
0000
0000
0000
0000
0000
0000
0000
0000
0000
0000
0100
0000
0000
0000
0000
0000
0000
0000
1020
0030
0000
0000
0000
0000
0000
0000
0100
0000
0000
0000
0000
0000
0000
0000
,
0002
0003
0000
0000
0000
0000
0000
0000
0100
0000
0000
0000
0000
0000
0000
0000
1000
0000
0000
0000
0000
0000
0000
0000
0120
0030
0000
0000
0000
0000
0000
0000
0000
0000
0000
0000
0000
0000
0000
0000
0010
0000
0000
0000
0000
0000
0000
0000
1200
0300
0000
0000
0000
0000
0000
0000
0010
0000
0000
0000
0000
0000
0000
0000
,
2001
3000
0000
0000
0000
0000
0000
0000
0001
0000
0000
0000
0010
0000
0000
0000
0100
0000
0000
0000
0000
0000
0000
0000
1200
0300
0000
0000
0000
0000
0000
0000
0000
0000
0000
0000
0000
0000
0000
0000
0100
0000
0000
0000
0000
0000
0000
0000
1020
0030
0000
0000
0000
0000
0000
0000
0100
0000
0000
0000
0000
0000
0000
0000
,
0002
0003
0000
0000
0000
0000
0000
0000
0100
0000
0000
0000
0000
0000
0000
0000
1000
0000
0000
0000
0000
0000
0000
0000
0120
0030
0000
0000
0000
0000
0000
0000
0000
0000
0000
0000
0000
0000
0000
0000
0010
0000
0000
0000
0000
0000
0000
0000
1200
0300
0000
0000
0000
0000
0000
0000
0010
0000
0000
0000
0000
0000
0000
0000
,
2001
3000
0000
0000
0000
0000
0000
0000
0001
0000
0000
0000
0010
0000
0000
0000
0100
0000
0000
0000
0000
0000
0000
0000
1200
0300
0000
0000
0000
0000
0000
0000
0000
0000
0000
0000
0000
0000
0000
0000
0100
0000
0000
0000
0000
0000
0000
0000
1020
0030
0000
0000
0000
0000
0000
0000
0100
0000
0000
0000
0000
0000
0000
0000
,
0002
0003
0000
0000
0000
0000
0000
0000
0100
0000
0000
0000
0000
0000
0000
0000
1000
0000
0000
0000
0000
0000
0000
0000
0120
0030
0000
0000
0000
0000
0000
0000
0000
0000
0000
0000
0000
0000
0000
0000
0010
0000
0000
0000
0000
0000
0000
0000
1200
0300
0000
0000
0000
0000
0000
0000
0010
0000
0000
0000
0000
0000
0000
0000
,
2001
3000
0000
0000
0000
0000
0000
0000
0001
0000
0000
0000
0010
0000
0000
0000
0100
0000
0000
0000
0000
0000
0000
0000
1200
0300
0000
0000
0000
0000
0000
0000
0000
0000
0000
0000
0000
0000
0000
0000
0100
0000
0000
0000
0000
0000
0000
0000
1020
0030
0000
0000
0000
0000
0000
0000
0100
0000
0000
0000
0000
0000
0000
0000
,
0002
0003
0000
0000
0000
0000
0000
0000
0100
0000
0000
0000
0000
0000
0000
0000
1000
0000
0000
0000
0000
0000
0000
0000
0120
0030
0000
0000
0000
0000
0000
0000
0000
0000
0000
0000
0000
0000
0000
0000
0010
0000
0000
0000
0000
0000
0000
0000
1200
0300
0000
0000
0000
0000
0000
0000
0010
0000
0000
0000
0000
0000
0000
0000
,
2001
3000
0000
0000
0000
0000
0000
0000
0100
0000
0000
0000
0000
0000
0000
0000
0010
0000
0000
0000
0000
0000
0000
0000
1001
0000
0000
0000
0000
0000
0000
0000
0000
0000
0000
0000
0000
0000
0000
0000
0100
0000
0001
0000
0000
0000
0000
0000
1100
0000
0000
0000
0000
0000
0000
0000
0010
0000
0000
0000
0000
0000
0000
0000
,
0100
0001
0000
0000
1000
0000
0000
0000
0001
0000
0000
0000
0100
0010
0000
0000
0000
0000
0000
0000
0001
0000
0000
0000
1010
0000
0000
0000
0100
0000
0000
0000
,
0011
0000
0000
0000
0000
0000
0001
0000
0000
1100
0000
0000
0010
0000
0000
1000
0000
0000
0001
0100
0010
0100
0000
0000
,
0011
1000
0100
0011
0100
0010
1000
0000
,
1001
0000
0000
0000
0100
0000
0000
0000
0010
0000
0000
0000
1001
0000
0000
0000
0000
0000
0000
0000
0100
0001
0000
0000
1000
0000
0000
0000
0010
0000
0000
0000
,
0100
0001
0000
0000
1000
0000
0000
0000
0001
0000
0000
0000
0100
0010
0000
0000
0000
0000
0000
0000
0001
0000
0000
0000
1010
0000
0000
0000
0100
0000
0000
0000
,
1200
0000
0321
0000
2130
0000
3012
0100
,
1023
0000
0000
0100
0030
0000
0001
0000
,
1001
0000
0000
0000
0100
0000
0000
0000
0010
0000
0000
0000
1001
0000
0000
0000
0000
0000
0000
0000
0100
0001
0000
0000
1100
0000
0000
0000
0010
0000
0000
0000
,
0100
0001
0000
0000
1000
0000
0000
0000
0001
0000
0000
0000
0100
0010
0000
0000
0000
0000
0000
0000
0001
0000
0000
0000
1010
0000
0000
0000
0100
0000
0000
0000
,
0011
0000
0000
0000
0000
0000
0001
0000
0000
1100
0000
0000
0010
0000
0000
1000
0000
0000
0001
0100
0010
0100
0000
0000
,
0011
1000
0100
0011
0100
0010
1000
0000
,
1001
0000
0000
0000
0100
0000
0000
0000
0010
0000
0000
0000
1001
0000
0000
0000
0000
0000
0000
0000
0100
0001
0000
0000
1000
0000
0000
0000
0010
0000
0000
0000
,
0100
0001
0000
0000
1000
0000
0000
0000
0001
0000
0000
0000
0100
0010
0000
0000
0000
0000
0000
0000
0001
0000
0000
0000
1010
0000
0000
0000
0100
0000
0000
0000
,
1200
0000
0321
0000
2130
0000
3012
0100
,
1023
0000
0002
0000
,
1133
0000
0100
0000
0010
0000
1002
0000
0000
0003
0010
0000
1100
0000
0010
0000
,
1001
0000
0100
0000
1000
0000
0201
0000
0000
0300
1000
0000
0101
0000
1000
0000
,
0021
0000
0000
0030
1001
0000
0100
0000
0011
0000
0210
0000
0000
0300
0021
0000
,
0000
0030
0101
0000
1100
0000
0101
0000
1010
0000
0012
0000
0000
0003
0110
0000
,
1010
0000
0100
0000
0010
0000
1002
0000
0000
0003
0010
0000
1100
0000
0010
0000
,
1001
0000
0001
0000
0010
0000
1200
0000
0000
0300
1000
0000
0101
0000
0010
0000
,
1001
0000
1000
0100
1010
0001
0100
2002
,
0000
3003
1100
0000
1001
0000
0110
0000
0101
0000
1000
0000
0101
0000
0010
0000
,
1002
0100
0013
0101
0010
0001
1100
0010
,
1001
0100
0010
1100
0010
0001
1100
0010
,
1001
0100
0010
1100
0010
0001
1100
0010
,
1001
0100
0010
0001
0100
0010
0100
0010
1000
0100
0010
0001
0010
0100
1000
0100
,
0010
0000
0000
0000
;

//---------------dance-single - Copied from----------------
#NOTES:
     dance-single:
     Copied from:
     Challenge:
     12:
     1.000,1.000,1.000,1.000,0.650,456.000,185.000,139.000,0.000,62.000:
0000
0000
0000
0000
0000
0000
0000
0000
0001
0001
0001
0001
0001
0001
0001
0001
,
1120
2030
3002
0203
0320
2030
3002
0203
,
0320
0000
0000
0000
0000
0000
0000
0000
2030
0000
0000
0000
0000
0000
0000
0000
3002
0000
0000
0000
0000
0000
0000
0000
0203
0000
0000
0000
0000
0000
0000
0000
0320
0000
0000
0000
0000
0000
0000
0000
2031
0000
0000
0000
0010
0000
0000
0000
3102
0000
0000
0000
1000
0000
0000
0000
0213
0000
0000
0000
0001
0000
0000
0300
,
1120
2030
3002
0203
0320
2030
3002
0203
,
1320
2030
3002
0203
1320
2030
3012
0203
,
1321
2030
3002
0203
0320
2030
3002
0203
,
0320
0000
0000
0000
0000
0000
0000
0000
2030
0000
0000
0000
0000
0000
0000
0000
3002
0000
0000
0000
0000
0000
0000
0000
0203
0000
0000
0000
0000
0000
0000
0000
0320
0000
0000
0000
0000
0000
0000
0000
2031
0000
0000
0000
0100
0000
0000
0000
3012
0000
0000
0000
1000
0000
0000
0000
0213
0000
0000
0000
0001
0000
0000
0300
,
1120
2030
3002
0203
0320
2030
3002
0203
,
0321
2030
3012
0203
0321
2130
3012
1203
,
2312
3200
2323
0032
3223
2300
3232
2003
,
3322
2003
3232
2300
3223
2030
3322
0203
,
2331
3000
0000
0000
0100
0000
0000
0000
1001
0000
0000
0000
0010
0000
0000
0000
0100
0000
0000
0000
0000
0000
0000
0000
0201
0300
0000
0000
0010
0000
0000
0000
1000
0000
0000
0000
0000
0000
0000
0000
0100
0000
0000
0000
0000
0000
0000
0000
1020
0030
0000
0000
0000
0000
0000
0000
0100
0000
0000
0000
0000
0000
0000
0000
,
1002
0003
0000
0000
0010
0000
0000
0000
0101
0000
0000
0000
0000
0000
0000
0000
1000
0000
0000
0000
0000
0000
0000
0000
0021
0030
0000
0000
1000
0000
0000
0000
0100
0000
0000
0000
0000
0000
0000
0000
0010
0000
0000
0000
0000
0000
0000
0000
1200
0300
0000
0000
0000
0000
0000
0000
0010
0000
0000
0000
0000
0000
0000
0000
,
2011
3000
0000
0000
0100
0000
0000
0000
1001
0000
0000
0000
0010
0000
0000
0000
0100
0000
0000
0000
0000
0000
0000
0000
0210
0300
0000
0000
0001
0000
0000
0000
1000
0000
0000
0000
0000
0000
0000
0000
0100
0000
0000
0000
0000
0000
0000
0000
1020
0030
0000
0000
0000
0000
0000
0000
0100
0000
0000
0000
0000
0000
0000
0000
,
0012
0003
0000
0000
1000
0000
0000
0000
0101
0000
0000
0000
0000
0000
0000
0000
1000
0000
0000
0000
0000
0000
0000
0000
1020
0030
0000
0000
0001
0000
0000
0000
0100
0000
0000
0000
0000
0000
0000
0000
0010
0000
0000
0000
0000
0000
0000
0000
1200
0300
0000
0000
0000
0000
0000
0000
0010
0000
0000
0000
0000
0000
0000
0000
,
2011
3000
0000
0000
0100
0000
0000
0000
1001
0000
0000
0000
0010
0000
0000
0000
0100
0000
0000
0000
0000
0000
0000
0000
0210
0300
0000
0000
0001
0000
0000
0000
1000
0000
0000
0000
0000
0000
0000
0000
0100
0000
0000
0000
0000
0000
0000
0000
1020
0030
0000
0000
0000
0000
0000
0000
0100
0000
0000
0000
0000
0000
0000
0000
,
0012
0003
0000
0000
1000
0000
0000
0000
0101
0000
0000
0000
0000
0000
0000
0000
1000
0000
0000
0000
0000
0000
0000
0000
1020
0030
0000
0000
0001
0000
0000
0000
0100
0000
0000
0000
0000
0000
0000
0000
0010
0000
0000
0000
0000
0000
0000
0000
1200
0300
0000
0000
0000
0000
0000
0000
0010
0000
0000
0000
0000
0000
0000
0000
,
2101
3000
0000
0000
0010
0000
0000
0000
1001
0000
0000
0000
0010
0000
0000
0000
0100
0000
0000
0000
0000
0000
0000
0000
0210
0300
0000
0000
0001
0000
0000
0000
1000
0000
0000
0000
0000
0000
0000
0000
0100
0000
0000
0000
0000
0000
0000
0000
1020
0030
0000
0000
0000
0000
0000
0000
0100
0000
0000
0000
0000
0000
0000
0000
,
1002
0003
0000
0000
0010
0000
0000
0000
0101
0000
0000
0000
0000
0000
0000
0000
1000
0000
0000
0000
0000
0000
0000
0000
0120
0030
0000
0000
1000
0000
0000
0000
0001
0000
0000
0000
0000
0000
0000
0000
0110
0000
0000
0000
0001
0000
0000
0000
1200
0300
0000
0000
0001
0000
0000
0000
1010
0000
0000
0000
0100
0000
0000
0000
,
2011
3000
0000
0000
0100
0000
0000
0000
1010
0000
0000
0000
0000
0000
0000
0000
0010
0000
0000
0000
0000
0000
0000
0000
1100
0000
0000
0000
0010
0000
0000
0000
0001
0000
0000
0000
0000
0000
0000
0000
0100
0000
0001
0000
0000
0000
0000
0000
1100
0000
0000
0000
0000
0000
0000
0000
0010
0000
0000
0000
0000
0000
0000
0000
,
0110
0001
1000
0000
0110
0000
0000
0000
0001
0000
0000
0000
1100
0010
0001
0000
0100
0000
0000
0000
0001
0000
0000
0000
1010
0000
0000
0000
0100
0000
0000
0000
,
1011
0000
0000
0100
0000
0000
0010
0000
0000
0000
0000
0000
0001
0000
0000
0000
0000
0000
1001
0000
0000
0100
0000
0000
0011
0000
0000
0000
0000
0000
1000
0000
0000
0000
0000
0000
1001
0000
0100
0000
0010
0000
0100
0000
0000
0000
0000
0000
,
1001
0100
1010
0000
0100
0000
0011
1000
0110
0000
0010
0000
1000
0000
0000
0000
,
1101
0000
0010
0000
0101
0000
0000
0000
0010
0000
0000
0000
0101
0000
0010
0000
1000
0000
0000
0000
0100
0001
0000
0000
1000
0000
0000
0000
0010
0000
0000
0000
,
0110
0001
1000
0000
0110
0000
0000
0000
0001
0000
0000
0000
1100
0010
0001
0000
0100
0000
0000
0000
0001
0000
0000
0000
1010
0000
0000
0000
0100
0000
0000
0000
,
1200
0000
1321
0000
2130
0000
3112
0100
,
1023
0000
0000
0100
0030
0000
0001
0000
,
1101
0000
0010
0000
0101
0000
0000
0000
0010
0000
0000
0000
0011
0000
0100
0000
1000
0000
0000
0000
0100
0001
0000
0000
1100
0000
0000
0000
0010
0000
0000
0000
,
0110
0001
1000
0000
0110
0000
0000
0000
0001
0000
0000
0000
1100
0010
0001
0000
0100
0000
0000
0000
0001
0000
0000
0000
1010
0000
0000
0000
0100
0000
0000
0000
,
1011
0000
0000
0100
0000
0000
0010
0000
0000
0000
0000
0000
0001
0000
0000
0000
0000
0000
1001
0000
0000
0010
0000
0000
0101
0000
0000
0000
0000
0000
1000
0000
0000
0000
0000
0000
1001
0000
0100
0000
0010
0000
0100
0000
0000
0000
0000
0000
,
1001
0100
1010
0000
0100
0000
1001
0100
1010
0000
0010
0000
1000
0000
0000
0000
,
1011
0000
0100
0000
0011
0000
0000
0000
0010
0000
0000
0000
0011
0000
0100
0000
1000
0000
0000
0000
0100
0001
0000
0000
1000
0000
0000
0000
0010
0000
0000
0000
,
0110
0001
1000
0000
0110
0000
0000
0000
0001
0000
0000
0000
1100
0010
0001
0000
0100
0000
0000
0000
0001
0000
0000
0000
1010
0000
0000
0000
0100
0000
0000
0000
,
1200
0000
1321
0000
2130
0000
3112
0100
,
1023
0000
0000
0100
0002
0000
1000
0000
,
1133
0001
0110
1000
0110
0001
1020
0000
0000
0030
0101
0010
1100
0001
0110
1000
,
0101
0000
0110
0001
1100
0010
0201
0000
0000
0300
1001
0010
0101
1000
0110
0001
,
2100
0000
0000
3000
0011
0000
0100
0000
0011
0000
1201
0000
0000
0300
1020
0000
,
0000
0030
0011
0000
1100
0000
0101
0000
1010
0000
1012
0000
0000
0003
0110
0000
,
1010
0001
0110
1000
0011
0100
1020
0000
0000
0030
0101
0010
1100
0001
1010
0100
,
1001
0000
0101
1000
0101
0010
1200
0000
0000
0300
1001
0010
0101
1000
0011
0100
,
1002
0000
0000
0000
0000
0000
0000
0000
0000
0003
0000
0000
1010
0000
0000
0000
0000
0000
0101
0000
0010
0000
0100
0000
1010
0000
0000
0000
0000
0000
0001
0000
0000
0000
0000
0000
0110
0000
0000
0000
0000
0000
2002
0000
0000
0000
0000
0000
,
0000
0000
0000
3003
0000
0000
1100
0000
0000
0000
0000
0000
1011
0000
0000
0000
0000
0000
0110
0000
0000
0000
0000
0000
0101
0000
0000
0000
0000
0000
1000
0000
0000
0000
0000
0000
1101
0000
0000
0000
0000
0000
1001
0000
0100
0000
0010
0000
,
1101
0000
0100
0000
0010
0000
0011
1000
0110
0000
0001
0000
1100
0000
0010
0000
,
1001
0010
0101
0000
0010
0000
0110
0001
1010
0000
0001
0000
1100
0000
0010
0000
,
1101
0100
0010
1100
0010
0001
1100
0010
,
1002
0103
0010
0001
2100
3010
0100
0010
1002
0103
0010
0001
2010
3100
1000
0100
,
1011
0000
0000
0000
;
