#TITLE:Final Destination;
#SUBTITLE:[Half Down Mix];
#ARTIST:Ivan-Ether;
#TITLETRANSLIT:;
#SUBTITLETRANSLIT:;
#ARTISTTRANSLIT:;
#CREDIT:Dark Bahamut;
#BANNER:;
#BACKGROUND:;
#LYRICSPATH:;
#CDTITLE:dark.gif;
#MUSIC:Final Destination [Hafdwn Mix].mp3;
#OFFSET:-0.040;
#SAMPLESTART:64.040;
#SAMPLELENGTH:21.320;
#SELECTABLE:YES;
#BPMS:0.000=90.000,96.000=180.000,320.000=90.000;
#STOPS:;
#BGCHANGES:;
// cache tags:
#FIRSTBEAT:0.000;
#LASTBEAT:368.000;
#SONGFILENAME:Songs/toune 6/Final Destination [Hafdwn Mix]/Final Destination [Hafdwn Mix].sm;
#HASMUSIC:1;
#HASBANNER:0;
#MUSICLENGTH:183.724;
// end cache tags

//---------------dance-single - Dark Bahamut----------------
#NOTES:
     dance-single:
     Dark Bahamut:
     Hard:
     11:
     0.849,0.851,1.000,0.000,0.471,860.000,232.000,0.000,0.000,0.000:

1000
0010
0100
0001
0010
0001
0100
0010
1000
0010
0100
0001
0010
1000
0001
0100
,
1000
0100
0010
0001
0100
0001
0010
0100
1000
0010
0100
0001
0010
0001
0100
0010
,
1000
0010
0100
0001
0010
0001
0100
0010
1000
0010
0100
0001
0010
1000
0001
0100
,
1000
0100
0010
0001
0100
0001
0010
0100
1000
0100
0010
0001
0100
0010
1000
0100
,
0001
0100
0010
1000
0100
1000
0010
0100
0001
0100
0010
1000
0100
0001
1000
0010
,
0001
0010
0100
1000
0010
1000
0100
0010
0001
0100
0010
1000
0100
1000
0010
0100
,
0001
0100
0010
1000
0100
1000
0010
0100
0001
0100
0010
1000
0100
0001
1000
0010
,
0001
0010
0100
1000
0010
1000
0100
0010
0001
0010
0100
1000
0010
0100
0001
0010
,
1000
0100
1000
0001
0010
0001
0100
0010
1000
0100
0010
0001
0100
1000
0001
1000
,
0010
0100
0010
0001
0010
0001
1000
0100
0001
0010
1000
0100
0001
1000
0010
0001
,
1000
0100
1000
0010
0100
0010
0001
0010
0100
1000
0010
1000
0100
1000
0001
0010
,
0100
1000
0100
0010
0100
0010
0001
0010
1000
0100
1000
0010
0100
0010
0001
1000
,
0001
0010
0001
1000
0100
1000
0010
0100
0001
0010
0100
1000
0010
0001
1000
0001
,
0100
0010
0100
1000
0100
1000
0001
0010
1000
0100
0001
0010
1000
0001
0100
1000
,
0001
0010
0001
0100
0010
0100
1000
0100
0010
0001
0100
0001
0010
0001
1000
0100
,
0010
0001
0010
0100
0010
0100
1000
0100
0001
0010
0001
0100
0010
0100
1000
0001
,
1100
0000
0000
0011
0000
0000
0110
0000
1000
0000
0010
0001
0100
1000
0001
1000
,
0110
0000
0000
0011
0000
0000
1100
0000
0001
0000
1000
0000
0001
0000
0010
0000
,
1100
0000
0000
0110
0000
0000
0011
0000
0100
0000
0010
0000
0100
0000
0001
0000
,
1100
0000
0000
0110
0000
0000
0011
0000
1100
0000
0000
0110
0000
0000
0011
1000
,
0011
0000
0000
1100
0000
0000
0110
0000
0001
0000
0100
1000
0010
0001
1000
0001
,
0110
0000
0000
1100
0000
0000
0011
0000
1000
0000
0001
0000
1000
0000
0100
0000
,
0011
0000
0000
0110
0000
0000
1100
0000
0010
0000
0100
0000
0010
0000
1000
0000
,
0011
0000
0000
0110
0000
0000
1100
0000
0011
0000
0000
0110
0000
0000
1100
0001
,
1100
1000
1010
1000
1000
1100
1010
1000
,
1100
1000
1010
1000
1000
1100
1010
1000
,
1010
0010
0110
0010
0010
1010
0110
0010
,
1010
0010
0110
0010
0010
1010
0110
0110
,
0011
0001
0101
0001
0001
0011
0101
0001
,
0011
0001
0101
0001
0001
0011
0101
0001
,
0101
0100
0110
0100
0100
0101
0110
0100
,
0101
0100
0110
0100
0100
0101
0110
0110
,
0011
0001
0101
0001
0001
0011
0101
0001
,
0011
0001
0101
0001
0001
0011
0101
0001
,
0101
0100
0110
0100
0100
0101
0110
0100
,
0101
0100
0110
0100
0100
0101
0110
0110
,
1100
1000
1010
1000
1000
1100
1010
1000
,
1100
1000
1010
1000
1000
1100
1010
1000
,
1010
0010
0110
0010
0010
1010
0110
0010
,
1010
0010
0110
0010
0010
1010
0110
0110
,
1100
1000
1010
1000
1000
1100
1010
1000
,
1010
0010
0110
0010
0010
1010
0110
0010
,
0011
0001
0101
0001
0001
0011
0101
0001
,
0101
0100
0110
0100
0100
0101
0110
0110
,
1100
1000
1010
1000
1000
1100
1010
1000
,
1010
0010
0110
0010
0010
1010
0110
0010
,
0011
0001
0101
0001
0001
0011
0101
0001
,
0101
0100
0110
0100
0100
0101
0110
0110
,
1100
0001
1000
0011
1000
0001
0110
0001
,
1000
0010
1001
0011
0101
1001
1010
1100
,
0110
0001
1000
0011
1000
0001
1100
0010
,
0001
0100
1010
0100
1001
0010
0101
0010
,
1100
0001
1000
0110
0001
1000
0011
1000
,
0100
0001
0110
0001
1100
0010
0101
0010
,
1100
0001
1000
0110
0001
1000
0011
0100
,
1010
0001
0100
1001
0010
1000
0101
1000
,
0011
1000
0001
1100
0001
1000
0110
1000
,
0001
0100
1001
1100
1010
1001
0101
0011
,
0110
1000
0001
1100
0001
1000
0011
0100
,
1000
0010
0101
0010
1001
0100
1010
0100
,
0011
1000
0001
0110
1000
0001
1100
0001
,
0010
1000
0110
1000
0011
0100
1010
0100
,
0011
1000
0001
0110
1000
0001
1100
0010
,
0101
1000
0010
1001
0100
0001
1010
0001
,
0010
0100
0001
0010
0100
0001
0010
0100
,
0001
0010
0100
0001
0010
0100
0001
0100
,
0001
1000
0001
0010
1000
0001
0010
1000
,
0010
0100
1000
0010
0100
1000
0010
1000
,
0001
1000
0001
0100
1000
0001
0100
1000
,
0001
0010
1000
0001
0010
1000
0001
1000
,
0010
1000
0010
0100
1000
0010
0100
1000
,
0001
0010
0100
0001
0010
0100
0001
1000
,
0100
0010
1000
0100
0010
1000
0100
0010
,
1000
0100
0010
1000
0100
0010
1000
0010
,
1000
0001
1000
0100
0001
1000
0100
0001
,
0100
0010
0001
0100
0010
0001
0100
0001
,
1000
0001
1000
0010
0001
1000
0010
0001
,
1000
0100
0001
1000
0100
0001
1000
0001
,
0100
0001
0100
0010
0001
0100
0010
0001
,
1000
0100
0010
1000
0100
0010
1000
0001
,
1100
0000
0000
0011
0000
0000
0110
0000
1000
0000
0010
0001
0100
1000
0001
1000
,
0110
0000
0000
0011
0000
0000
1100
0000
0001
0000
1000
0000
0001
0000
0010
0000
,
1100
0000
0000
0110
0000
0000
0011
0000
0100
0000
0010
0000
0100
0000
0001
0000
,
1100
0000
0000
0110
0000
0000
0011
0000
1100
0000
0000
0110
0000
0000
0011
1000
,
0011
0000
0000
1100
0000
0000
0110
0000
0001
0000
0100
1000
0010
0001
1000
0001
,
0110
0000
0000
1100
0000
0000
0011
0000
1000
0000
0001
0000
1000
0000
0100
0000
,
0011
0000
0000
0110
0000
0000
1100
0000
0010
0000
0100
0000
0010
0000
1000
0000
,
0011
0000
0000
0110
0000
0000
1100
0000
0011
0000
0000
0110
0000
0000
1100
0001
,
1100
0000
0000
0011
0000
0000
0110
0000
1000
0000
0010
0001
0100
1000
0001
1000
,
0110
0000
0000
0011
0000
0000
1100
0000
0001
0000
1000
0000
0001
0000
0010
0000
,
1100
0000
0000
0110
0000
0000
0011
0000
0100
0000
0010
0000
0100
0000
0001
0000
,
1100
0000
0000
0110
0000
0000
0011
0000
1100
0000
0000
0110
0000
0000
0011
1000
,
0110
0000
0000
0000
;
