#TITLE:Starfire;
#SUBTITLE:Valley Of The Damned;
#ARTIST:Dragonforce;
#TITLETRANSLIT:;
#SUBTITLETRANSLIT:;
#ARTISTTRANSLIT:;
#CREDIT:Dog_E;
#BANNER:Starfire.PNG;
#BACKGROUND:Starfire-bg.PNG;
#LYRICSPATH:;
#CDTITLE:DogETitle.PNG;
#MUSIC:05_dragonforce-starfire-amrc.mp3;
#OFFSET:-0.046;
#SAMPLESTART:137.364;
#SAMPLELENGTH:26.500;
#SELECTABLE:YES;
#BPMS:0.000=150.000,169.000=150.070,533.000=150.100,821.000=140.000,824.000=135.000,825.000=120.000,826.000=90.000,827.000=80.000,829.000=75.000;
#STOPS:;
#BGCHANGES:;
// cache tags:
#FIRSTBEAT:16.667;
#LASTBEAT:848.375;
#SONGFILENAME:Songs/CMDKDF Pack/Starfire (Dog_E)/05_dragonforce-starfire-amrc.sm;
#HASMUSIC:1;
#HASBANNER:1;
#MUSICLENGTH:352.877;
// end cache tags

//---------------dance-single - Blank----------------
#NOTES:
     dance-single:
     Blank:
     Hard:
     10:
     0.666,1.000,0.589,1.000,0.193,1057.000,208.000,381.000,0.000,25.000:

0000
0000
0000
0000
,
0000
0000
0000
0000
,
0000
0000
0000
0000
,
0000
0000
0000
0000
,
0000
0000
0000
0000
0100
0010
0002
0000
0000
0003
0000
0000
0000
0000
0000
0000
0000
0000
0000
0000
0000
0000
0000
0000
,
0000
0000
0000
0000
1000
0100
0010
0000
0000
0000
0000
0000
0001
0000
0000
0000
0000
0000
1000
0000
0000
0000
0000
0000
,
0100
0000
0000
0000
0000
0000
0020
0000
0000
0000
0000
0030
0000
0000
0000
0000
0000
0000
0000
0000
0000
0000
0000
0000
,
0000
0000
0000
0000
0000
0000
0000
0000
0000
0022
0033
0000
,
0000
0020
0030
0000
,
0000
0000
0000
0000
0000
0000
0000
0000
0000
0000
0000
0000
0000
0000
0000
0200
0002
0000
0000
0000
0000
0000
0000
0000
0000
0000
0000
0000
0000
0000
0000
0000
0000
0000
0000
0000
0303
0000
0000
0000
0000
0000
0000
0000
0000
0000
0000
0000
0000
0000
0000
0000
0000
0000
0000
0000
0000
0000
0000
0000
0000
0000
0000
0000
,
0100
2000
0000
0000
,
0000
0000
0000
0000
0000
0000
0000
0000
0000
0000
0000
0000
0000
0000
0000
0000
0000
0000
0000
0000
0000
0000
0000
0000
3000
0000
0000
0000
0000
0000
0000
0000
0000
0000
0010
1000
0200
0000
0000
0000
0000
0000
0320
0000
0000
0000
0000
0000
,
0000
0030
0000
0000
0000
0000
0000
0000
0000
0000
0000
0000
2000
0000
0000
0000
0000
0000
0000
3000
0000
0000
0000
0000
0000
0000
0000
0000
0000
0000
0000
0000
0000
0000
0000
0000
0000
0000
0000
0000
0000
0000
0000
0000
0000
0000
0000
0000
,
0000
0000
1000
0100
0010
0001
1000
0100
,
0010
0001
2200
0000
0000
3300
0000
0000
,
1000
0020
0032
0003
0200
0320
0030
0002
,
0023
0030
2000
0000
0000
3000
0000
0000
,
0000
0000
1000
0010
0100
0001
1000
0010
,
0100
0001
0202
0000
0303
0000
0000
0000
,
0000
0000
0010
0100
2000
0000
0000
0000
3000
0000
0000
0000
0000
0000
0000
0000
,
0000
2002
3013
1000
,
0010
0000
0001
0000
0010
0000
0100
0000
0000
0020
0000
0000
0030
0000
0002
0000
,
0003
1000
0100
0000
0000
0010
0001
0000
,
1000
0000
0002
0000
0000
0000
0000
0000
0000
0003
0000
0000
0000
0000
0000
0000
,
1000
0000
0100
0000
0010
0000
0010
0000
0100
0000
0020
0000
0000
0030
0000
0000
,
1000
0000
0100
0000
0002
0000
0003
0000
0020
0000
0230
0000
0000
0300
0000
0000
,
0001
0010
1000
0000
0100
0000
0010
0000
,
0100
0000
2000
0000
0000
0000
0200
3000
2300
0000
0000
0000
0000
0000
3000
0000
,
0000
0000
0000
0000
0000
0000
0000
0000
1000
0000
0100
0000
0002
0000
0000
0003
,
0000
0000
0100
0000
0001
0000
0010
0000
0100
0000
2000
0000
0000
3000
0200
0000
,
0300
0000
0010
0000
0002
0000
0000
0003
0000
0000
0010
0000
0100
0000
0000
0000
,
1000
0002
0000
0000
0003
0000
0000
0000
,
0000
1000
0100
0000
0001
0100
0000
0000
,
0001
0000
0010
0000
0200
0000
0000
0300
1000
0000
0200
0000
0300
0000
0000
0000
,
0010
0000
0001
0000
0200
0300
0020
0030
0002
0000
0003
0000
0100
0000
1000
0000
,
0000
0000
0020
0000
0000
0000
0002
0030
0023
0000
0030
0000
0000
0000
0000
0000
,
1000
0001
1001
0100
0010
0011
0000
0110
,
0000
0000
1000
0000
0100
0000
0000
0000
0010
0000
2000
0000
0000
3000
0000
0000
,
0001
0000
0010
0000
0100
0000
0000
0000
0010
0000
0100
0000
0000
0000
0020
0030
,
0000
0000
0200
0000
0000
0000
0000
0000
0000
0300
0000
0000
0000
0000
0000
0000
,
1000
0000
0100
0000
0020
0030
0200
0300
2000
3000
0000
0000
0110
0000
0000
0000
,
0011
0000
0110
1000
0110
1001
0000
0100
,
0000
0010
2002
0000
0000
0000
0000
0000
,
0000
0000
0000
0000
0000
0000
0000
0100
0010
0000
0000
0000
0100
0000
0000
0000
0000
0000
0000
0000
0000
0000
0000
0000
0000
0000
3003
0000
0002
0000
0003
0000
,
0020
0000
0030
0000
0200
0000
0000
0300
2000
0000
0000
0000
3100
0000
0000
0000
1000
0000
0000
0000
0100
0000
0000
0000
0011
0000
0000
0000
0100
0000
0000
0000
,
0010
1000
0001
0100
0010
1000
0110
0001
,
1000
0010
0100
0001
1000
0010
1100
0001
,
0010
0100
1000
0001
0100
0010
1001
0100
,
0010
0001
1000
0100
1000
0010
0101
1000
,
0010
0100
0001
0100
0010
1000
0101
0010
,
1000
0100
0010
0100
0001
1000
0011
0100
,
1000
0000
0000
1000
0100
0010
1001
0000
0000
0001
0000
0000
1000
0000
0000
0110
0000
0000
0001
0000
0000
0100
0000
0000
,
1001
0000
0020
0030
2000
3000
0002
0003
,
0100
0001
1000
0100
0010
0002
0000
1003
,
0000
0001
0200
0000
0302
0000
0003
0010
,
0100
2000
0000
0000
0000
3000
0000
0000
,
1000
0100
0020
0030
0020
0030
0001
0000
,
0010
0000
1000
0000
0100
2000
3000
0000
,
0001
0010
1100
0000
0010
0000
0011
0000
,
1000
0002
0000
0023
0032
0000
0000
0000
,
0003
0000
0000
0000
1000
0100
0002
0003
,
0002
0003
0010
0100
1000
0200
0300
0000
,
0010
0001
0200
0300
0010
0000
0001
0000
,
0100
2000
0000
0000
0000
3000
0000
0000
,
0100
1000
0010
0010
0001
0000
0100
0000
,
1000
0000
0100
0010
1000
0002
0000
2003
,
3000
0100
0010
0000
0001
0000
1000
0100
,
0000
0020
0000
0230
0320
0000
1130
0011
,
0110
1001
0110
0011
1001
0000
2002
3003
,
0022
0033
0220
0330
2020
3232
0303
2200
,
3300
0020
2030
3000
0100
1000
0000
2002
,
3003
0110
1000
0100
0010
0001
0010
0100
,
1000
1000
0020
2030
3200
0300
0011
0000
,
1001
0000
0110
0011
1100
0220
0000
1331
,
0000
0011
2002
0000
0000
0000
0000
0000
,
0000
0000
3003
0000
0000
0000
0001
0000
0010
0000
0100
0000
2000
0000
0000
0100
0000
0000
0100
0000
0000
0100
0000
0000
0100
0000
0000
0100
0000
0000
0100
0000
0000
0100
0000
0000
3220
0000
0000
0000
0000
0000
0330
0000
0000
0000
0000
0000
,
2002
3003
0101
0101
0101
1001
0202
0000
,
0000
0303
1010
1010
1010
0101
2020
0000
,
0000
3030
1010
1100
0101
0011
0110
1001
,
0002
0000
0000
0020
0000
0000
0000
0000
0000
0033
0000
0000
0000
0000
0000
2000
3200
0320
0032
0000
0000
0023
0000
0000
,
0230
2300
3011
0011
0011
0110
0022
0033
,
0000
1100
0110
0110
0110
1100
0202
0000
,
0303
0000
0101
1100
0011
1001
2200
3300
,
1000
0020
0000
0230
0320
0000
0000
0030
,
0000
1000
0011
0110
1100
0010
0002
0003
,
0010
2000
0000
0000
0000
3000
1001
0010
,
1001
0010
2200
0000
0000
3300
0022
0000
,
0000
0033
2002
0000
0000
0000
0000
3003
,
0020
0000
0030
0020
0000
0000
1000
0000
0030
0100
0000
0000
1000
0000
0000
0100
0000
0000
0011
0000
0000
0100
0000
0000
,
1000
0100
0022
0000
0033
0220
0000
0330
,
2200
3300
2002
0000
0000
3203
0000
0000
,
0320
0000
2030
0000
3000
0200
0000
0300
,
0012
0003
2100
0000
0000
0000
3000
0000
,
1000
0000
2000
0000
3000
0200
0000
0300
,
0020
0030
0200
0000
0300
0000
1001
0000
,
0101
2002
0000
0000
,
3203
0000
0300
0200
0000
0000
0010
0300
0000
0001
0000
0000
0010
0000
0000
0001
0000
0000
1100
0000
0000
0001
0000
0000
,
0010
0001
2002
0000
3003
0202
0000
0303
,
2200
3300
2002
0000
0000
0000
3013
0000
,
0010
0000
0020
0030
0000
0002
0000
0000
,
0203
0000
0320
0000
0030
2000
0000
3000
,
0200
0000
0310
0020
0000
0000
0000
0000
,
0000
0000
0030
0100
0010
0001
1000
0100
,
0010
0001
0021
0000
0000
0000
0000
0000
,
0000
0030
0010
0000
1000
0100
0000
0010
,
0000
0100
1000
0100
0010
0001
0100
0010
,
0001
2000
3000
0200
0300
0020
0030
0001
,
0100
0010
2000
3100
0010
0010
0001
0010
,
0010
0000
0002
0000
0000
0003
0200
0000
0300
0000
2000
0000
0000
0000
3100
0000
,
0010
0000
0000
0000
0001
0000
0000
0000
0001
0000
0010
0000
0100
0000
0000
0000
1000
0000
0000
0000
0100
0010
0000
0000
0001
0000
0010
0000
0100
0000
1000
0000
,
0100
0010
1000
0100
0010
0001
0010
0001
0010
0100
0020
0000
0000
0030
1000
0000
,
0200
0000
0300
0000
2002
0000
0000
3003
0200
0000
0000
0000
0320
0000
0000
0030
,
1000
0100
0001
0010
0100
2000
3000
0100
,
0010
0001
0020
0030
2000
0000
3000
0100
,
0010
0000
0002
0000
0000
0000
0000
0000
0013
0000
0010
0000
2002
3003
0000
0000
,
0010
1000
0100
0010
0020
0000
0230
0000
,
0301
1000
0010
0100
0001
2000
0000
3000
,
0010
0100
0002
0000
0003
1000
0100
0000
,
0010
0000
0002
0000
0220
0330
1003
0000
0010
0000
2002
3003
1000
0000
1000
0000
,
0002
0003
0000
0000
0100
0010
0002
0000
,
0003
0000
0010
0000
1000
0000
0100
0000
0010
0000
2000
0000
0000
3000
0000
0000
,
0100
0010
2000
3000
2000
0000
3000
0001
,
0010
0200
0000
0000
0000
0300
0000
0000
,
0000
0000
1000
0010
0100
0001
0200
0300
,
0010
1000
0100
0010
0001
2000
0000
3000
,
0100
0010
1000
0100
0001
0000
0100
0010
,
0000
0200
1001
0000
0010
0000
0001
0301
,
1000
1000
0100
0010
0200
0300
0020
0030
,
2000
0000
3200
0300
0010
0002
0000
0103
,
0000
0010
0100
0000
0001
0010
0000
0100
,
0000
2000
0001
3010
0100
1000
1000
0100
,
0010
0001
0110
1001
0011
0000
1100
0000
,
0101
0000
1100
0110
0011
0110
0000
1000
,
0000
0001
0220
0000
0000
0000
0000
0000
,
0000
0000
0000
0331
0010
0100
1000
0000
0000
1000
0000
0000
0001
0000
0000
0001
0000
0000
1010
0000
0000
0100
0000
0000
,
1010
0001
1100
1100
1100
1010
2200
0000
,
0000
3300
0110
0110
0110
0101
0220
0000
,
0000
0330
0011
0110
1001
0110
1100
0101
,
0020
0000
0000
0230
0000
0000
0000
0000
0000
0000
0000
0000
0300
0000
0000
2000
0200
3020
0302
0030
0000
0023
0000
0000
,
0230
0000
0000
0320
0000
0030
0011
0000
0000
0011
0000
0000
0011
0000
0000
0110
0000
0000
0022
0000
0000
0033
0000
0000
,
0000
1100
0110
0110
0110
1100
0202
0000
,
0303
0000
0101
1100
0011
1001
2200
3300
,
1000
0020
0000
0230
0320
0000
0000
0030
,
0000
1000
0011
0110
1100
0010
0002
0003
,
0010
2000
0000
0000
0000
3000
1001
0010
,
1001
0010
0022
0000
0000
0033
2200
0000
,
0000
3300
2002
0000
0000
0000
0000
3003
,
0200
0000
0300
0200
0000
0000
0001
0000
0300
0010
0000
0000
0001
0000
0000
0010
0000
0000
1100
0000
0000
0010
0000
0000
,
0001
0010
2200
0000
3300
0220
0000
0330
,
0022
0033
2002
0000
0000
3023
0000
0000
,
0230
0000
0302
0000
0003
0020
0000
0030
,
2100
3000
0012
0000
0000
0000
0003
0000
,
0001
0000
0002
0000
0003
0020
0000
0030
,
0200
0300
0020
0000
0030
0000
1001
0000
,
1010
2002
0000
0000
,
3023
0000
0030
0020
0000
0000
0100
0030
0000
1000
0000
0000
0100
0000
0000
1000
0000
0000
0011
0000
0000
1000
0000
0000
,
0100
1000
2002
0000
3003
2020
0000
3030
,
0022
0033
2002
0000
0000
0000
3103
0000
,
0100
0000
0200
0300
0000
2000
0000
0000
,
3020
0000
0230
0000
0300
0002
0000
0003
,
0020
0000
0130
0200
0000
0000
0000
0000
,
0000
0000
0000
0000
0000
0000
0000
0300
,
0000
0000
1000
0100
0010
0002
0123
0000
,
0000
0032
0000
0003
0000
0100
1000
0010
,
0100
0010
0002
0000
0000
0000
0023
0032
,
0023
2030
0000
0000
0000
0000
3100
0010
,
0001
0010
0100
1000
0020
0000
0000
0000
0000
0000
0000
0030
0010
0000
1000
0000
,
0100
0002
0000
0000
0003
0000
0000
1000
,
0001
0000
0100
0000
2000
0000
0000
3000
0000
0000
0000
0000
0100
0000
0010
0000
,
0001
0000
0000
0000
1000
0100
1000
0000
0002
0000
0000
0000
0110
0000
0003
0000
0000
0000
0000
0000
1010
0000
0000
0000
0000
0000
0000
0000
0011
0000
0000
0000
,
0000
0000
0110
0000
2001
0000
0000
0000
0000
0000
0000
0000
0000
0000
3200
0300
,
0020
0030
0002
0000
0000
0000
0000
0000
0000
0000
0000
0000
0000
0000
0000
0000
,
1003
0000
0100
0000
0010
0100
1000
0000
0001
0000
0010
0000
0100
0000
0010
0000
,
0001
0000
1000
0000
0001
0000
0100
0000
0010
0000
1000
0010
0200
0000
0000
0000
,
0000
0300
0000
0000
1000
0000
0100
0000
1000
0100
1000
0000
0010
0000
0100
0000
,
0010
0000
0001
0000
0010
0000
0001
1000
0100
0000
0010
0000
0001
0010
0001
0000
,
0002
0000
0000
0000
0000
0000
0000
0000
0000
0003
0000
0000
1000
0000
0100
0000
0010
0000
0001
0000
0010
0000
0100
0000
1000
0000
0100
0000
0010
0000
0001
0000
0010
0000
0100
0000
0010
0000
0001
0000
0010
0000
0100
0000
0010
0000
0001
0000
,
0010
0001
0010
0100
1000
0100
0010
0100
1000
0100
0010
0001
1000
0100
0010
0001
0010
0001
1000
0100
0010
0001
0010
0001
,
0100
0010
0001
0010
0000
0000
0002
0000
0000
0000
0000
0000
0000
0000
0000
0000
0000
0000
0000
0000
0000
0000
0000
0000
,
0000
0000
0000
0000
0000
0003
0020
0000
0000
0000
0000
0000
0000
0000
0000
0000
0000
0000
0000
0000
0000
0000
0030
0000
,
0100
0000
0000
1000
0000
0000
0001
0010
0100
1000
0100
1000
0001
0010
0100
1000
0100
1000
0100
0010
0001
0010
0100
0010
,
0001
0010
0100
1000
0100
1000
0002
0000
0000
0000
0000
0000
0000
0000
0000
0000
0000
0000
0000
0000
0000
0000
0000
0000
,
0000
0000
0000
0000
0000
0000
0003
0000
0000
1000
0000
0000
0011
0000
0000
1000
0000
0000
0110
0001
0010
0100
1000
0001
,
0010
0000
0100
0000
1000
0000
0100
0000
0010
0000
0001
0000
0010
0000
0100
0000
1000
0000
0100
0000
0010
0000
0001
0000
0010
0000
0100
0000
1000
0000
0100
0000
0010
0000
0001
0000
0010
0000
0000
0100
0000
0000
1000
0000
0000
0001
0000
0000
,
0010
0100
1000
0100
1000
0010
1000
0001
0100
0010
0001
0100
0010
0001
0010
0000
,
0000
0000
0100
0010
0002
0000
0000
0000
0000
0000
0000
0000
0000
0000
0000
0000
0003
0000
0000
0000
0010
0000
0100
0000
0020
0000
0000
0000
0000
0000
0000
0000
,
0000
0000
0000
0000
0000
0000
0000
0000
0000
0000
0000
0000
0000
0000
0000
0000
0000
0000
0000
0000
0000
0000
0000
0000
0000
0000
0000
0000
0000
0000
0000
0000
0000
0000
0000
0000
0030
0000
0000
0000
0000
0000
0000
0000
0000
0000
0000
0000
1000
0000
0000
0000
0000
0000
0000
0000
0100
0000
0000
0000
0000
0000
0000
0000
0010
0000
0000
0000
0000
0000
0000
0000
0001
0000
0000
0000
0000
0000
0000
0000
0010
0000
0000
0000
0000
0000
0000
0000
0001
0000
0000
0000
0000
0000
0000
0000
1000
0000
0000
0000
0000
0000
0000
0000
0100
0000
0000
0000
0000
0000
0000
0000
0010
0000
0000
0000
0000
0000
0000
0000
0001
0000
0000
0000
0000
0000
0000
0000
0010
0000
0000
0000
0000
0000
0000
0000
0001
0000
0000
0000
0000
0000
0000
0000
1000
0000
0000
0000
0000
0000
0000
0000
0000
0000
0000
0000
0000
0000
0000
0000
0000
0000
0100
0000
0000
0000
0000
0000
0000
0000
0000
0000
0000
0000
0010
0000
0000
0000
0000
0000
0000
0000
0000
0000
0000
0000
0000
0000
0000
0000
0000
0000
,
0100
1000
0002
0000
0000
0000
0000
0000
0000
0000
0000
0000
0000
0000
0000
0000
,
0000
0000
0000
0003
0202
0000
0000
0000
0000
0000
0303
0000
2020
0000
0000
0000
,
0000
3030
0220
0000
0000
0000
0000
0330
,
2000
0000
3000
2000
0000
0000
0100
0000
3000
0001
0000
0000
0100
0000
0000
0001
0000
0000
1010
0000
0000
0001
0000
0000
,
0100
0001
2020
0000
3030
2002
0000
3003
,
0202
0303
0220
0000
0000
0332
0000
0000
,
2003
0000
3200
0000
0300
0002
0000
0003
,
1020
0030
0201
0000
0000
0000
0300
0000
,
0100
0000
0200
0000
0300
0002
0000
0003
,
2000
3000
0002
0000
0003
0000
0110
0000
,
0011
0220
0000
0000
,
0332
0000
0003
0002
0000
0000
1000
0003
0000
0010
0000
0000
1000
0000
0000
0010
0000
0000
0101
0000
0000
0010
0000
0000
,
1000
0010
0220
0000
0330
0022
0000
0033
,
0202
0303
0220
0000
0000
0000
1330
0000
,
1000
0000
2000
3000
0000
0020
0000
0000
,
0032
0000
2003
0000
3000
0200
0000
0300
,
0002
0000
1003
2000
0000
0000
0000
0000
,
0000
0000
0000
0000
0000
0000
0000
3000
,
0100
0000
0200
0300
0000
2000
0000
0000
,
3020
0000
0000
0000
0000
0000
0000
0000
0230
0000
0000
0000
0000
0000
0000
0000
0300
0000
0000
0000
0000
0002
0000
0000
0000
0000
0000
0000
0000
0003
0000
0000
,
0020
0000
0000
0000
0000
0000
0000
0000
0030
0000
0000
0000
0000
0000
0000
0000
0000
0000
0000
2000
0000
0000
0000
0002
0000
3000
2000
0000
0003
0002
0000
0000
,
3000
2000
0003
0000
0000
0000
0000
0000
0000
0000
0000
0000
0000
0000
0000
0000
0000
0000
0000
0000
0000
0000
0000
0000
0000
0000
0000
0000
0000
0000
0000
0000
,
0000
0000
0000
0000
0000
0000
0000
0000
0000
0000
0000
0000
0000
0000
0000
0000
0000
0000
0000
0000
0000
3000
2002
0000
0000
0000
0000
0000
3003
0000
2020
0000
,
0000
0000
0000
0000
0000
3030
0000
2200
0000
0000
0000
0000
0000
0000
0000
0000
0000
0000
0000
0000
0000
0000
0000
0000
0000
0000
0000
0000
0000
0000
0000
0000
,
0000
0000
0000
0000
,
0000
0000
0000
3300
0000
0000
0000
0000
0000
0000
0000
0000
0000
0000
0000
0000
0000
0000
0000
0000
0000
0000
0000
0000
0000
0000
0000
0000
0000
0000
0000
0000
;
