#TITLE:Vendita di Magia;
#SUBTITLE:;
#ARTIST:DJ Sharpnel;
#TITLETRANSLIT:;
#SUBTITLETRANSLIT:;
#ARTISTTRANSLIT:;
#CREDIT:;
#BANNER:VENDITA_BN.png;
#BACKGROUND:VENDITA_BG.png;
#LYRICSPATH:;
#CDTITLE:;
#MUSIC:vendita di Magia.ogg;
#OFFSET:-1.034;
#SAMPLESTART:193.043;
#SAMPLELENGTH:12.799;
#SELECTABLE:YES;
#DISPLAYBPM:150.000;
#BPMS:0.000=150.000,99.000=300.000,100.000=150.000,361.000=300.000,375.000=150.000,453.000=300.000,453.750=150.000,454.500=300.000,455.000=150.000,518.500=300.000,519.000=150.000,614.000=300.000,615.000=150.000,715.000=300.000,717.000=150.000,830.000=600.000,866.000=150.000;
#STOPS:99.000=0.050
,99.250=0.050
,99.500=0.050
,99.750=0.050
,453.000=0.150
,454.500=0.033
,454.667=0.033
,454.833=0.034
,518.500=0.033
,518.667=0.033
,518.833=0.034
,614.000=0.050
,614.250=0.050
,614.500=0.050
,614.750=0.050
,715.000=0.033
,715.167=0.033
,715.333=0.034
,715.500=0.033
,715.667=0.033
,715.833=0.034
,716.000=0.033
,716.167=0.033
,716.333=0.034
,716.500=0.033
,716.667=0.033
,716.833=0.034
;
#BGCHANGES:;
// cache tags:
#FIRSTBEAT:4.000;
#LASTBEAT:866.000;
#SONGFILENAME:Songs/SHARPNELSTREAMZ v2/Vendita di Magia/vendita di Magia.sm;
#HASMUSIC:1;
#HASBANNER:1;
#MUSICLENGTH:343.353;
// end cache tags

//---------------dance-single - 13 (CTappo)----------------
#NOTES:
     dance-single:
     13 (CTappo):
     Challenge:
     13:
     0.995,1.000,0.111,0.087,1.000,2314.000,38.000,30.000,209.000,0.000:
0000
0000
0000
0000
,
1001
0000
0001
0000
0100
0000
0010
0000
1000
0001
1000
0001
0100
0000
0010
0000
,
1000
0100
0010
0001
0100
0000
0001
0000
1000
0100
1000
0010
0100
0000
0001
0000
,
1000
0001
0010
0100
1000
0000
0010
0000
1000
0001
1000
0010
0100
0000
0001
0000
,
1000
0000
0000
0100
0000
0000
1000
0000
0000
0100
0000
0000
0010
0000
0000
0001
0000
0000
1000
0000
0000
0001
0000
0000
0100
0000
0000
0001
0000
0000
1000
0000
0001
0000
1000
0000
0001
0000
0000
0100
0000
0000
0004
0000
0000
0000
0000
0000
,
0013
0100
1000
0001
0100
0000
0010
0000
1000
0100
0010
0100
1000
0000
0001
0000
,
0100
0010
0100
0001
1000
0000
0001
0000
1000
0100
0010
0001
1000
0000
0001
0000
,
0010
0001
0010
0001
1000
0000
0010
0000
0100
0001
1000
0100
0010
0000
0001
0000
,
1000
0000
0000
0010
0000
0000
0100
0000
0000
0001
0000
0000
1000
0000
0000
0100
0000
0000
0010
0000
0000
0100
0000
0000
1000
0000
0000
0001
0000
0000
1000
0000
0100
0000
1000
0000
0100
0000
0000
0010
0000
0000
0004
0000
0000
0000
0000
0000
,
1003
0100
0000
0100
0010
0000
0001
0000
1000
0010
0100
0001
1000
0000
0001
0000
,
0010
0100
0000
0100
0010
0000
0001
0000
1000
0001
0100
0001
0100
0000
0010
0000
,
1000
0001
0000
0001
0100
0000
0010
0000
1000
0100
0010
0001
0010
0000
0001
0000
,
1000
0010
0000
0010
1000
0000
0100
0000
1000
0001
0100
0001
0100
0000
0010
0000
,
1000
0100
0000
0100
0010
0000
0001
0000
1000
0010
1000
0010
0100
0000
0001
0000
,
1000
0100
0000
0100
0010
0000
0001
0000
1000
0001
0100
0001
0010
0000
0001
0000
,
1000
0001
0000
0001
1000
0000
0010
0000
0100
0001
0100
0010
1000
0000
0100
0000
,
0040
0000
0000
0000
0031
1000
0001
1000
0004
0000
0003
0000
0004
0000
4003
0000
,
3001
0100
0001
1000
0100
1000
0001
0100
0001
1000
0100
1000
0001
0010
0100
1000
,
0001
0010
0001
1000
0010
1000
0001
0010
0001
1000
0010
1000
0001
0100
0010
1000
,
0001
0100
0001
1000
0100
1000
0001
0100
0001
1000
0100
1000
0001
0010
0100
1000
,
0001
0010
0001
1000
0010
1000
0001
0010
0001
1000
0010
1000
0001
0100
0010
1000
,
0001
0010
0001
0100
0010
1000
0001
0010
0001
0100
0010
1000
0001
1000
0100
0010
,
0001
0100
0001
0010
0100
1000
0001
0100
0001
0010
0100
1000
0001
1000
0010
0100
,
0001
0010
0001
0100
0010
1000
0001
0010
0001
0100
0010
1000
0001
1000
0100
0010
,
0001
0100
0001
0010
0100
1000
0001
0100
0001
0010
0100
1000
0001
1000
0010
0100
,
0001
0010
0001
0100
0010
0100
0001
0010
0001
0100
0010
0100
0001
0010
0100
1000
,
0001
0100
0001
0010
0100
0010
0001
0100
0001
0010
0100
0010
0001
0100
0010
1000
,
0001
0010
0001
0100
0010
0100
0001
0010
0001
0100
0010
0100
0001
0010
0100
1000
,
0001
0100
0001
0010
0100
0010
0001
0100
0001
0010
0100
0010
0001
0100
0010
1000
,
0001
0010
0100
1000
0010
0100
0001
0010
0100
1000
0010
0100
0001
0010
0100
0010
,
0001
0100
0010
1000
0100
0010
0001
0100
0010
1000
0100
0010
0001
0100
0010
0100
,
0001
0010
0100
1000
0010
0100
0001
0010
0100
1000
0010
0100
0001
0010
0100
0010
,
0004
0000
0000
0000
1003
0010
1000
0100
4000
0000
3000
0000
4000
0000
3040
0000
,
0130
0000
0001
1000
0001
0010
0100
0010
0001
0000
1000
0010
0100
0001
1000
0001
,
1000
0000
0100
0010
0001
0010
0100
1000
0001
0000
0100
0010
1000
0010
1000
0001
,
0010
0000
0100
0010
0001
1000
0001
0100
0010
0000
1000
0100
0010
0100
1000
0100
,
1000
0000
0001
0100
0010
0100
0001
1000
0100
0000
0010
0001
0010
0100
1000
0001
,
1000
0000
0010
0100
0001
1000
0001
1000
0100
0000
0010
0001
0010
0100
1000
0100
,
1000
0000
0000
0000
0000
0000
0001
0000
0000
0100
0000
0000
0001
0000
0000
0100
0000
0000
0010
0000
0000
1000
0000
0000
0100
0000
0000
0000
0000
0000
1000
0000
00M0
0100
0000
0000
10M0
0000
0000
0001
00M0
0000
0100
0000
00M0
0001
0000
0000
,
10M0
0000
0000
00M0
0000
0000
00M1
0000
0000
10M0
0000
0000
01M0
0000
0000
10M0
0000
0000
01M0
0000
0000
10M0
0000
0000
00M1
0000
00M0
0000
00M0
0000
01M0
0000
00M0
0001
00M0
0000
10M0
0000
00M0
0100
00M0
0000
10M0
0000
00M0
0100
00M0
0000
,
10M0
0000
0000
0000
0000
0000
00M0
0000
0000
0000
0000
0000
00M0
0000
0000
0000
0000
0000
00M0
0000
0000
0000
0000
0000
00M1
0000
0000
0000
0000
0000
00M0
0000
0000
0000
0000
0000
10M0
0000
0000
0000
0000
0000
00M0
0000
0000
0000
0000
0000
00M1
0000
0000
0000
0000
0000
00M0
0000
0000
0000
0000
0000
01M0
0000
0000
0000
0000
0000
00M0
0000
0000
0000
0000
0000
00M1
0000
0000
0000
0000
0000
00M0
0000
0000
0000
0000
0000
10M0
0000
0000
0000
0000
0000
00M0
0000
0000
0000
0000
0000
01M0
0000
0000
0000
0000
0000
0000
0000
0000
0000
0000
0000
0000
0000
0000
0000
0000
0000
0000
0000
0000
0000
0000
0000
0000
0000
0000
0000
0000
0000
0000
0000
0000
0000
0000
0000
1100
0000
0000
0000
0000
0000
0000
0000
0000
0000
0000
0000
0000
0000
0000
0000
0000
0000
0000
0000
0000
0000
0000
0000
1000
0000
0000
0000
0000
0000
0000
0000
0000
0000
0000
0000
0001
0000
0000
0000
0000
0000
0000
0000
1000
0000
0000
0000
0000
0000
0000
0000
0001
0000
0000
0000
0000
0000
0000
0000
,
1000
0100
1000
0001
0100
0001
1000
0100
1000
0001
0100
0001
1000
0010
0100
0001
,
1000
0010
1000
0001
0010
0001
1000
0010
1000
0001
0010
0001
1000
0100
0010
0001
,
1000
0100
1000
0001
0100
0001
1000
0100
1000
0001
0100
0001
1000
0010
0100
0001
,
1000
0010
1000
0001
0010
0001
1000
0010
1000
0001
0010
0001
1000
0100
0010
0001
,
1000
0010
1000
0100
0010
0001
1000
0010
1000
0100
0010
0001
1000
0001
0100
0010
,
1000
0100
1000
0010
0100
0001
1000
0100
1000
0010
0100
0001
1000
0001
0010
0100
,
1000
0010
1000
0100
0010
0001
1000
0010
1000
0100
0010
0001
1000
0001
0100
0010
,
4000
0000
0000
0000
3100
0010
0001
0100
0004
0000
0003
0000
0004
0000
4003
0000
,
3001
0100
0001
0010
0100
0010
0001
0100
0001
0010
0100
0010
0001
0100
0010
1000
,
0001
0010
0001
0100
0010
0100
0001
0010
0001
0100
0010
0100
0001
0010
0100
1000
,
0001
0100
0001
0010
0100
0010
0001
0100
0001
0010
0100
0010
0001
0100
0010
1000
,
0001
0010
0001
0100
0010
0100
0001
0010
0001
0100
0010
0100
0001
0010
0100
1000
,
0001
0100
0010
1000
0100
0010
0001
0100
0010
1000
0100
0010
0001
0100
0010
0100
,
0001
0010
0100
1000
0010
0100
0001
0010
0100
1000
0010
0100
0001
0010
0100
0010
,
0001
0100
0010
1000
0100
0010
0001
0100
0010
1000
0100
0010
0001
0100
0010
0100
,
0001
0010
0100
1000
0010
0100
0001
0010
0100
1000
0010
0100
0001
0010
0100
0010
,
0001
0000
0001
0100
0001
0000
1000
0100
1000
0000
0010
0100
0010
0000
1000
0001
,
1000
0000
0001
0010
0001
0000
1000
0100
1000
0000
0001
0100
0001
0000
1000
0001
,
1000
0000
0001
0010
0001
0000
1000
0010
1000
0000
0001
0100
0001
0000
1000
0001
,
1000
0000
0001
0010
0001
0000
1000
0010
1000
0000
0001
0010
0001
0000
1000
0001
,
1000
0100
0010
0001
1000
0100
0010
0001
1000
0010
0100
0001
1000
0010
0100
0001
,
1000
0010
1000
0001
0010
0100
0010
0001
1000
0010
0100
0010
1000
0001
0010
0100
,
1000
0100
1000
0001
0010
0001
1000
0010
1000
0001
0100
0001
1000
0100
0010
0001
1000
0010
0100
0001
1000
0010
0100
0001
,
4000
0000
0400
0000
0000
0000
0000
0000
0000
0000
0000
0000
0000
0000
0000
0000
0000
0000
0000
0000
0000
0000
0000
0000
3300
0000
0000
0000
0000
0000
0000
0000
0000
1001
0000
0000
0000
0000
0000
0001
0000
0000
1000
0000
0100
0000
1000
0000
,
0100
0000
0000
0000
,
0000
0000
0000
0000
,
0000
0000
0000
0000
,
0000
0000
0000
0000
,
2000
0000
3001
0100
0002
0000
2003
0000
,
3001
0010
0200
0000
1300
1000
0100
0000
,
0100
0010
0001
1000
0020
1030
0002
1003
,
0020
0130
0001
0010
0100
0000
0100
0000
,
1000
1000
0002
0000
0103
0001
1000
1000
,
0100
0000
0100
0000
0010
0010
0200
0000
,
0310
0001
1000
0010
0100
0000
0100
0000
,
0001
0001
1000
0000
0100
0100
0020
0000
,
0031
1000
0020
0000
1030
1000
0001
0001
,
1M00
0M00
0M10
0M00
0M00
1M00
1M00
0M00
,
0M01
0M00
1M00
0M00
0M10
0M10
1M00
0M01
,
1M00
0M10
1M00
0M10
1M00
1M00
0M01
0M10
,
M001
M000
M010
M000
M000
M100
M100
M000
,
M020
M030
M002
M003
M100
M010
M200
M000
,
M300
M000
M000
M000
M001
M010
M100
M100
,
001M
000M
010M
000M
000M
100M
100M
000M
,
001M
000M
010M
000M
001M
100M
010M
001M
,
010M
000M
010M
100M
001M
010M
001M
000M
,
M010
M100
M001
M010
M100
M000
M100
M010
,
M001
M010
M200
M000
M310
M010
M001
M100
,
M010
M100
M001
M100
M010
M100
M002
M000
,
2000
0000
0000
0000
,
0000
0000
0000
0000
,
0000
0000
0000
0000
,
0000
0000
0000
3MM3
,
0000
0000
0000
0M00
,
0000
0000
0000
0000
0000
0000
0000
0000
0000
0000
0001
1000
0001
0000
0000
1000
,
0000
0000
0001
0000
0000
0010
0000
0000
0100
0000
0100
0000
0010
0000
0000
0001
,
0000
0000
1000
0000
0000
0001
0000
0000
0100
0000
0100
0010
1000
0000
0000
0001
,
0000
0000
1000
0000
0000
0100
0000
0000
0010
0000
0010
0000
0100
0000
0000
1000
,
0000
0000
0001
0000
0000
0100
0000
0000
0001
0000
0001
0100
0010
0000
0000
1000
,
0000
0000
0100
0000
0000
1000
0000
0000
0001
0000
0001
0000
0100
0000
0000
0010
,
0000
0000
1000
0000
0000
0010
0000
0000
1000
0000
1000
0100
0010
0000
0000
0001
,
0000
0000
0010
0000
0000
0001
0000
0000
1000
0000
1000
0000
0010
0000
0000
0100
,
0000
0000
0010
0000
0000
0100
0000
0000
0001
0000
0001
1000
0100
0000
0000
1000
,
0000
0000
0100
0000
0000
1000
0000
0000
0100
0000
0100
0000
0010
0000
0000
0100
,
0000
0000
1000
0000
0000
0001
0000
0000
0100
0000
0100
0010
1000
0000
0001
0010
,
0001
0000
1000
0100
1000
0000
0001
1000
0001
0000
1000
0010
1000
0000
0010
0100
,
0010
0000
1000
0100
1000
0000
0001
0100
0001
0000
1000
0001
1000
0100
0010
0001
,
1000
0100
0010
0001
1000
0010
0100
0001
1000
0010
0100
0001
1000
0010
1000
0001
,
0010
0000
0000
0100
0000
0000
0010
0000
0000
0001
0000
0000
1000
0000
0000
0010
0000
0000
0100
0000
0000
0010
0000
0000
1000
0000
0000
0001
0000
0000
0010
0000
0000
0100
0000
0000
1000
0000
0100
0000
1000
0000
0001
0000
0010
0000
0001
0000
,
1000
0010
1000
0001
0100
0001
1000
0100
0010
0001
1000
0100
0010
0001
1000
0010
0100
0001
4000
0400
0000
0000
0000
0000
,
0000
0000
0000
3300
,
0000
0000
0000
MMMM
,
0000
0000
0000
0000
0000
0000
0000
0000
0000
0000
0000
0000
0011
0000
0000
0000
0000
0000
0000
0000
0000
1001
0000
0000
0000
0000
0000
0001
0000
0000
1000
0000
0001
0000
1000
0000
0001
0000
0000
0100
0000
0000
0001
0000
0000
0100
0000
0000
,
0010
1000
0100
1000
0001
0100
0001
0100
0010
1000
0100
1000
0001
0010
0001
0010
,
0100
1000
0010
1000
0001
0010
0001
0010
0100
1000
0001
1000
0010
0100
0010
0100
,
0001
1000
0100
1000
0010
0100
0010
0100
0001
1000
0010
1000
0100
0010
0100
0010
,
0001
1000
0010
1000
0100
0010
0100
0010
0001
1000
0100
1000
0001
0100
0010
1000
,
0001
1000
0100
1000
0001
0100
0010
1000
0001
0100
0010
0100
0001
0010
0100
0010
,
0001
0100
0010
0100
0001
0010
0100
0010
0001
1000
0100
1000
0010
0100
0001
0100
,
0010
1000
0100
1000
0010
0100
0001
0100
0010
1000
0001
1000
0100
0010
0001
1000
,
0010
0100
0010
1000
0100
0010
0001
1000
0010
0100
0010
1000
0001
0010
0100
0010
,
0001
1000
0010
1000
0001
0010
0100
0010
0001
1000
0010
1000
0001
0100
0001
0100
,
0010
1000
0100
1000
0001
0100
0001
0100
0010
1000
0100
1000
0001
0010
0100
0010
,
0001
1000
0100
1000
0001
0010
0100
0010
0001
1000
0100
1000
0001
0100
0010
0100
,
0001
1000
0010
1000
0001
0100
0010
0100
0001
1000
0010
1000
0100
0010
0001
1000
,
0001
1000
0100
1000
0100
0010
0001
1000
0001
1000
0100
1000
0001
0100
0001
0100
,
0010
1000
0001
1000
0001
0100
0001
0100
0010
1000
0001
1000
0001
0010
0100
0010
,
0001
1000
0010
1000
0001
0010
0100
0010
0001
1000
0010
1000
0001
0100
0010
1000
,
0001
0000
0000
1000
0000
0000
0100
0000
0000
1000
0000
0000
0001
0000
0000
0000
0000
0000
0100
0000
0000
0010
0000
0000
0000
0000
0000
1000
0000
0000
0001
0000
1000
0000
0001
0000
1000
0000
0000
0010
0000
0000
1000
0000
0000
0010
0000
0000
,
0100
0001
0010
0001
1000
0010
1000
0010
0100
0001
0010
0001
1000
0100
1000
0100
,
0010
0001
0100
0001
1000
0100
1000
0100
0010
0001
1000
0001
0100
0010
0100
0010
,
1000
0001
0010
0001
0100
0010
0100
0010
1000
0001
0100
0001
0010
0100
0010
0100
,
1000
0001
0100
0001
0010
0100
0010
0100
1000
0001
0010
0001
1000
0010
0100
0001
,
1000
0001
0010
0001
1000
0010
0100
0001
1000
0010
0100
0010
1000
0100
0010
0100
,
1000
0010
0100
0010
1000
0100
0010
0100
1000
0001
0010
0001
0100
0010
1000
0010
,
0100
0001
0010
0001
0100
0010
1000
0010
0100
0001
1000
0001
0010
0100
1000
0001
,
0100
0010
0100
0001
0010
0100
1000
0001
0100
0010
0100
0001
1000
0100
0010
0100
,
1000
0001
0100
0001
1000
0100
0010
0100
1000
0001
0100
0001
1000
0010
1000
0010
,
0100
0001
0010
0001
1000
0010
1000
0010
0100
0001
0010
0001
1000
0100
0010
0100
,
1000
0001
0010
0001
1000
0100
0010
0100
1000
0001
0010
0001
1000
0010
0100
0010
,
1000
0001
0100
0001
1000
0010
0100
0010
1000
0001
0100
0001
0010
0100
1000
0001
,
1000
0001
0010
0001
0010
0100
1000
0001
1000
0001
0010
0001
1000
0010
1000
0010
,
0100
0001
1000
0001
1000
0010
1000
0010
0100
0001
1000
0001
1000
0100
0010
0100
,
1000
0001
0100
0001
1000
0100
0010
0100
1000
0001
0100
0001
4000
0000
0000
0000
,
3001
0000
0000
0100
0000
0000
0001
0000
0000
1000
0000
0000
0001
0000
0010
0000
0001
0000
1000
0000
0010
0000
1000
0000
0001
0000
0100
0000
0001
0000
1000
0000
0010
0000
0100
0000
0001
0000
0000
0000
0000
0000
0000
0000
0000
0000
0000
0000
,
1000
0001
1000
0100
,
1000
0010
1000
0001
,
0010
0100
0010
0001
,
1000
0000
0001
0000
0100
0000
0010
1000
,
0010
1000
0001
1000
0001
1000
0100
1000
,
0100
1000
0001
0010
0001
0010
0001
1000
,
0001
1000
0010
0100
0010
0100
0001
0100
,
0001
0000
0100
0000
0010
0000
1000
0000
0001
0010
0100
1000
0001
0000
0000
0100
,
0000
0000
0010
0000
0000
1000
0000
0000
0001
0000
0001
0000
1000
0100
0000
1000
,
0100
0000
0010
0000
0000
0001
0000
0000
0010
0000
0100
0000
2002
3003
0000
1000
,
0000
0000
0001
0000
0000
0100
0000
0000
0010
0000
0010
0000
1000
0001
0000
1000
,
0001
0000
0010
0000
0000
0100
0000
0000
1000
0000
0001
0000
2002
3003
0000
0100
,
0000
0000
0010
0000
0000
1000
0000
0000
0001
0000
0001
0000
0010
0100
0000
0010
,
0100
0000
1000
0000
0000
0010
0000
0000
0100
0000
0010
0000
2002
3003
0000
1000
,
0000
0000
0100
0000
0000
1000
0000
0000
0001
0000
0001
0000
0100
0010
0000
0100
,
0010
0000
1000
0000
0000
0001
0000
0000
0010
0000
0100
0000
2002
3003
0000
0000
,
1100
1000
1010
0001
,
0011
1000
0110
1000
,
1001
0001
0011
0100
,
1100
0001
1001
0010
,
1010
0100
0101
0010
,
1100
0100
0110
0010
,
0011
1000
1001
0001
,
0101
0000
0000
0000
0010
0000
0000
0000
1010
0000
0000
0000
2002
3003
0001
0100
,
0001
0000
1000
0100
1000
0000
0010
0100
0010
0000
1000
0001
1000
0000
0001
0010
,
0001
0000
1000
0100
1000
0000
0001
0100
0001
0000
1000
0001
1000
0000
0001
0010
,
0001
0000
1000
0010
1000
0000
0001
0100
0001
0000
1000
0001
1000
0000
0001
0010
,
0001
0000
1000
0010
1000
0000
0001
0010
0001
0000
1000
0001
1000
0100
0010
0001
,
1000
0100
0010
0001
1000
0010
0100
0001
1000
0010
0100
0001
1000
0010
1000
0001
,
0010
0000
0000
0100
0000
0000
0010
0000
0000
0001
0000
0000
1000
0000
0000
0010
0000
0000
0100
0000
0000
0010
0000
0000
1000
0000
0000
0001
0000
0000
0010
0000
0000
0100
0000
0000
1000
0000
0100
0000
1000
0000
0001
0000
0010
0000
0001
0000
,
1000
0010
1000
0001
0100
0001
1000
0100
0010
0001
1000
0010
0100
0001
1000
0010
0100
0001
4000
0400
0000
0000
0000
0000
,
0000
0000
0000
0000
0000
0000
33M0
000M
,
0M00
M000
00M0
M000
000M
0M00
00M0
M000
,
000M
M000
00M0
0M00
000M
M000
0M00
00M0
,
M000
0000
M000
0000
M000
00M0
000M
M000
,
00M0
0000
0M00
0000
000M
0000
M000
0000
0000
0000
0000
0000
1000
0100
0010
0001
,
0010
0100
0010
0001
1000
0010
0100
0010
1000
0001
0010
0001
1000
0100
0010
0100
,
1000
0001
0100
0001
1000
0001
0100
0001
1000
0100
0010
0100
1000
0001
0010
0001
,
1000
0010
1000
0001
1000
0100
0010
0100
1000
0001
0100
0001
1000
0010
1000
0001
,
0100
0010
1000
0010
0100
0001
0010
0001
1000
0010
1000
0001
0100
0001
1000
0100
,
1000
0001
0100
0010
1000
0100
0010
0100
1000
0001
0100
0001
1000
0100
0010
0001
,
0010
0100
0010
0001
0010
0100
1000
0001
0100
0001
1000
0001
0100
0010
1000
0100
,
0010
0100
1000
0001
0100
0010
1000
0100
1000
0001
0010
0001
1000
0100
1000
0010
,
0100
0001
1000
0010
0100
0001
0010
0100
0010
0001
1000
0001
0100
0010
1000
0010
,
0100
0001
0010
0001
1000
0100
0010
0100
1000
0001
0100
0010
1000
0010
0100
0001
,
1000
0010
1000
0001
0100
0001
1000
0100
1000
0001
0100
0001
1000
0100
1000
0010
,
0100
0010
1000
0001
1000
0100
0010
0100
1000
0001
0100
0010
1000
0001
0010
0100
,
0010
0001
0010
0100
1000
0001
0010
0001
1000
0001
0010
0001
1000
0010
0100
0001
,
1000
0010
0100
0001
1000
0100
0010
0001
1000
0100
0010
0001
1000
0010
1000
0001
,
1000
0010
1000
0001
1000
0001
0100
0001
1000
0100
1000
0100
0010
0001
1000
0100
,
0010
0001
0100
0001
1000
0010
1000
0001
1000
0010
1000
0001
1000
0100
0010
0001
,
1000
0100
0010
0001
1000
0010
0100
0001
1000
0010
0100
0001
1000
0100
1000
0001
,
1000
0001
0100
0001
1000
0100
1000
0010
0100
0001
1000
0100
1000
0100
0010
0001
,
1000
0100
0010
0001
1000
0010
0100
0010
1000
0010
0100
0010
1000
0001
0010
0100
,
1000
0001
0010
0100
1000
0001
0100
0001
1000
0001
0010
0001
1000
0010
0100
0010
,
1000
0100
0010
0001
0100
0010
1000
0100
0010
0001
1000
0001
1000
0100
0010
0001
,
0100
0010
1000
0100
0010
0001
1000
0001
1000
0100
0010
0001
0100
0010
1000
0100
,
0010
0001
1000
0001
1000
0100
0010
0001
0100
0010
1000
0100
0010
0001
1000
0001
,
0100
0010
1000
0001
0010
0001
0010
0100
1000
0010
1000
0001
1000
0100
0010
0001
,
0010
0100
0010
0001
0010
0100
1000
0001
0100
0010
1000
0001
1000
0000
0000
0000
,
1000
0100
0010
0100
0100
0000
2000
0000
,
3002
0203
00M0
00M0
,
00M0
00M0
00M0
00M0
,
00M0
00M0
00M0
00M0
,
00M0
00M0
00M0
00M0
,
00M0
00M0
00M0
00M0
,
00M0
00M0
00M0
00M0
,
00M0
00M0
00M0
00M0
,
00M0
00M0
00M0
00M0
,
00M0
00M0
00M0
00M0
,
00M0
00M0
03M0
0000
;
