#TITLE:Mermaid Melody Pichi Pichi Pitch PURE;
#SUBTITLE:Mizuiro no Senritsu;
#ARTIST:Hanon (Hitomi Terakado);
#TITLETRANSLIT:;
#SUBTITLETRANSLIT:;
#ARTISTTRANSLIT:;
#CREDIT:Beethoven_21;
#BANNER:Mizuiro no Senritsu-banner.png;
#BACKGROUND:Mizuiro no Senritsu-bg.jpg;
#LYRICSPATH:;
#CDTITLE:beethoven_21_anime2.png;
#MUSIC:Mizuiro no Senritsu.mp3;
#OFFSET:1.240;
#SAMPLESTART:72.460;
#SAMPLELENGTH:12.000;
#SELECTABLE:YES;
#BPMS:0.000=140.000;
#STOPS:;
#BGCHANGES:;
// cache tags:
#FIRSTBEAT:4.000;
#LASTBEAT:739.000;
#SONGFILENAME:Songs/toune 5/Beethoven_21 - (Mermaid Melody) Mizuiro no Senritsu/Mizuiro no Senritsu.sm;
#HASMUSIC:1;
#HASBANNER:1;
#MUSICLENGTH:323.769;
// end cache tags

//---------------dance-single - ----------------
#NOTES:
     dance-single:
     :
     Hard:
     7:
     0.762,0.884,1.000,0.667,0.181,1180.000,330.000,216.000,0.000,1.000:
0000
0000
0000
0000
,
0011
1100
0110
1001
0000
1001
0110
1001
,
0000
0011
1100
0110
0001
0110
1100
0011
,
1000
0100
0010
0001
0000
0101
1010
0101
,
0000
1100
0011
0110
1000
1100
0011
1100
,
0021
0000
1000
2030
0100
0000
0010
3000
0000
0000
0110
0000
0000
0000
0110
0000
,
0000
0101
1010
0001
1100
0000
0011
1100
,
0001
1000
0100
0011
0000
0110
0000
0110
,
0000
0000
1000
0000
0001
0000
0010
0001
0100
0010
0001
1100
0010
0001
1000
0010
,
0011
0000
1100
0000
0001
0000
0010
0000
0000
0000
1001
0000
0000
0000
1001
0001
,
0100
0001
0010
0110
1000
0010
0100
0010
0011
0000
1100
0000
1000
0100
0001
0010
,
1001
0000
0010
0000
1100
0000
0001
0000
0010
0000
1001
0000
0010
0000
1001
0010
,
0100
0000
1000
0000
0011
0000
0100
0000
1010
0000
0000
0000
0101
0000
1000
0100
,
0011
0000
0010
0000
1100
0000
1000
0100
0010
0000
1010
0000
0100
0000
1010
0000
,
0010
0000
0001
0000
1100
0000
0010
0100
0011
0000
0000
0000
1100
0000
0001
0010
,
1100
0000
0001
0000
0011
0000
0100
0000
0010
0000
0110
0000
1000
0000
0110
0001
,
0010
0000
1000
0000
0011
0000
1000
0000
0110
0000
0000
0000
0101
0000
0001
0010
,
1000
0000
0001
0000
0110
0000
1000
0100
0001
0000
0110
0000
1000
0000
0110
0001
,
0100
0000
0001
0000
1000
0001
1000
0000
1001
0000
0000
0000
1001
0000
0000
0000
,
1001
0000
0001
0000
0101
1000
0110
0001
,
1100
0000
0000
0000
1000
0000
0000
0110
1001
0000
1000
0000
0001
0000
0100
0000
,
0011
0000
0000
0000
0001
0000
0000
0001
0100
0000
1000
0000
0001
0000
0010
0000
,
0101
0000
0000
0000
2100
0000
0000
3100
0210
0000
0000
0300
0021
0000
0000
0030
,
1001
0000
1000
0000
1001
0000
0001
1000
,
0101
0000
0000
0000
0100
0000
0000
0000
1200
0000
0000
0300
0102
0000
0000
0003
,
0210
0000
0000
0300
0010
0000
0200
0010
1000
0000
0000
0300
1000
0000
0100
0000
,
1001
0000
0000
0000
0001
0000
0000
0001
0100
1000
0010
0000
0100
0000
0100
0010
,
1010
0000
0010
0000
0011
1000
0101
0010
,
1001
0000
0000
0000
1000
0000
0000
0010
1100
0000
0001
0000
1100
0000
0001
0000
,
0110
0000
0000
0000
0010
0000
0000
0010
1100
0000
0001
0000
1010
0000
0001
0000
,
1100
0000
0000
0000
2100
0000
0000
3100
0021
0000
0000
0030
0201
0000
0000
0300
,
0101
0100
0110
0100
,
1100
0000
0000
0000
0100
0000
0000
0000
0201
0000
0000
0300
2001
0000
0000
3000
,
0011
0000
0000
0000
0010
0000
0002
0010
0100
0000
0000
0003
0100
0000
1000
0000
,
0101
0000
0000
0000
0001
0000
0000
0001
1000
0000
0010
0000
1000
0000
1000
0100
,
0120
0000
0001
0000
1000
0000
0001
0000
0100
0000
1000
0030
0001
0000
1002
0000
,
1000
0010
0100
0010
0103
0011
1100
0102
,
0010
0000
1000
0000
0010
0000
0100
1000
0010
0003
1100
0000
0011
0000
2010
0000
,
0001
0000
0100
3000
0110
0000
1002
0010
0100
0003
1010
0000
0001
0000
1000
0001
,
2010
0000
0010
0000
0001
0000
0010
0000
0001
0000
0100
3000
1010
0000
0021
0000
,
0001
0100
1000
0001
1030
0100
0011
1100
,
0201
0000
0001
0300
1000
0000
0100
1000
0010
0000
0011
0000
0010
0000
1010
0000
,
0000
0000
0010
0000
1010
0000
0100
0010
0001
0000
1000
0000
0100
0000
0010
0100
,
0010
0000
1000
0000
0001
0000
0200
0000
0000
0300
1001
0000
0000
0000
1001
0000
,
0000
0000
0000
0000
2000
0000
0000
3000
0200
0000
0000
0300
0002
0000
0000
0003
,
0020
0000
0000
0000
0000
0030
2000
0000
0010
0000
0000
0000
0100
0000
0000
0000
,
0001
3000
1000
0000
1010
0000
0010
0100
,
0001
0000
1000
0001
0000
0110
0000
1001
,
0000
0000
0000
0000
0002
0000
0000
0003
2000
0000
0000
3000
0220
0000
0000
0330
,
2000
0000
0000
0000
0010
3000
0020
0000
1000
0000
0000
0030
2000
0000
0000
3000
,
1002
0000
0100
0000
0010
0003
0100
0001
,
1000
0001
1000
0100
0000
1001
0000
1001
,
0000
0000
0000
0000
0200
0000
0000
0300
0020
0000
0000
0030
2002
0000
0000
3003
,
2002
0000
0000
3003
0010
0000
0110
0000
0000
0000
0110
0000
0000
0000
0002
0000
,
1000
0000
0013
0000
0110
0010
1000
0001
,
0100
0001
1000
0010
0100
0001
0110
0000
,
2000
0000
0000
3000
0002
0000
0000
0003
0200
0000
0000
0300
0002
0000
0000
0003
,
2010
0000
0000
0000
0001
0000
0000
0000
0100
3000
0001
0000
1000
0000
0101
0000
,
0000
0000
1000
0000
0001
0000
0101
0000
0000
0000
0100
0000
0001
0000
1000
0001
,
1000
0010
0100
0001
0000
0110
0000
1001
,
0000
0000
0000
0000
0200
0000
0000
0300
0020
0000
0000
0030
0002
0000
0000
0003
,
0200
0000
0000
0000
0001
0300
0020
0000
1000
0000
0000
0000
0001
0000
0000
0000
,
0100
0000
0000
0030
1000
0000
0000
0000
0110
0000
0000
0000
0010
0000
1000
0000
,
0001
1000
0010
0100
0000
0110
0000
1001
,
0000
0000
0000
0000
0200
0000
0000
0300
0002
0000
0000
0003
0020
0000
0000
0030
,
2000
0000
0000
0000
0001
3000
0200
0000
1000
0000
0000
0300
0020
0000
0000
0030
,
2010
0000
0000
0000
0001
0000
0000
0000
0100
0000
0000
3000
0010
0000
1000
0100
,
0010
1000
0100
0010
0000
0110
0000
2002
,
0000
0000
0000
3003
0200
0000
0000
0300
0002
0000
0000
0003
2000
0000
0000
3000
,
0002
0000
0000
0003
1000
0000
0010
0000
0000
0000
0020
0000
0000
0030
1002
0000
,
0000
0000
0100
0000
0100
0000
0003
0000
0110
0000
0100
0000
0001
0010
1000
0100
,
0010
0000
0001
0000
1000
0000
0100
0000
0110
0000
0000
0000
2002
0000
0000
3003
,
0110
0000
0000
0000
0100
0000
0000
0000
0110
0000
0000
0000
0010
0000
0100
0010
,
0011
0000
1000
0000
1100
0000
0010
0000
0100
0000
0110
0000
0001
0000
0110
1000
,
0100
0000
0001
0000
1100
0000
0001
0000
0110
1000
0100
0000
1010
0000
1000
0100
,
0001
0000
1000
0000
0110
0000
0001
0010
1000
0000
0110
0000
0001
0000
0110
1000
,
0010
0000
1000
0000
0001
0000
0001
1000
1001
0000
0000
0000
1001
0000
0000
0000
,
1001
0000
1000
0000
1010
0001
0110
1000
,
0011
0000
0001
0100
1001
0001
1000
0010
,
1100
0000
0000
0000
1000
0000
0000
1000
0010
0000
0001
0000
1000
0000
0100
0000
,
1010
0000
0000
0000
0012
0000
0000
0013
0120
0000
0000
0030
1200
0000
0000
0300
,
1001
0000
0001
0000
1001
0000
1000
0001
,
1010
0000
0000
0000
0010
0000
0000
0000
0021
0000
0000
0030
2010
0000
0000
3000
,
0120
0000
0000
0030
0100
0000
0020
0100
0001
0000
0000
0030
0001
0000
0010
0000
,
1001
0000
0000
0000
1000
0000
0000
1000
0010
0001
0100
0000
0010
0000
0010
0100
,
0101
0000
0100
0000
1100
0001
1010
0100
,
1001
0000
0000
0000
0001
0000
0000
0100
0011
0000
1000
0000
0011
0000
1000
0000
,
0110
0000
0000
0000
0100
0000
0000
0100
0011
0000
1000
0000
0101
0000
1000
0000
,
0011
0000
0000
0000
0012
0000
0000
0013
1200
0000
0000
0300
1020
0000
0000
0030
,
1010
0010
0110
0010
,
0011
0000
0000
0000
0010
0000
0000
0000
1020
0000
0000
0030
1002
0000
0000
0003
,
1100
0000
0000
0000
0100
0000
2000
0100
0010
0000
0000
3000
0010
0000
0001
0000
,
1010
0000
0000
0000
1000
0000
0000
1000
0001
0000
0100
0000
0001
0000
0001
0010
,
0210
0000
1000
0000
0001
0000
1000
0000
0010
0000
0001
0300
1000
0000
2001
0000
,
0001
0100
3010
0100
0010
1100
0011
2010
,
0100
0000
0001
0000
0100
0000
0010
0001
0100
3000
0011
0000
1100
0000
0102
0000
,
1000
0000
0010
0003
0110
0000
2001
0100
0010
3000
0101
0000
1000
0000
0001
1000
,
0102
0000
0100
0000
1000
0000
0100
0000
1000
0000
0010
0003
0101
0000
1200
0000
,
1000
0010
0001
1000
0301
0010
1100
0011
,
1020
0000
1000
0030
0001
0000
0010
0001
0100
0000
1100
0000
0100
0000
0101
0000
,
0000
0000
0100
0000
0101
0000
0010
0100
1000
0000
0001
0000
0010
0000
0100
0010
,
0100
0000
0001
0000
1000
0000
0020
0000
0000
0030
1001
0000
0000
0000
1001
0000
,
0000
0000
0000
0000
0002
0000
0000
0003
0020
0000
0000
0030
2000
0000
0000
3000
,
0200
0000
0000
0000
0000
0300
0002
0000
0100
0000
0000
0000
0010
0000
0000
0000
,
1000
0003
0001
0000
0101
0000
0100
0010
,
1000
0000
0001
1000
0000
0110
0000
1001
,
0000
0000
0000
0000
2000
0000
0000
3000
0002
0000
0000
0003
0220
0000
0000
0330
,
0002
0000
0000
0000
0100
0003
0200
0000
0001
0000
0000
0300
0002
0000
0000
0003
,
2001
0000
0010
0000
0100
3000
0010
1000
,
0001
1000
0001
0010
0000
1001
0000
1001
,
0000
0000
0000
0000
0020
0000
0000
0030
0200
0000
0000
0300
2002
0000
0000
3003
,
2002
0000
0000
3003
0100
0000
0110
0000
0000
0000
0110
0000
0000
0000
2100
0000
,
0001
0000
0010
0000
3100
0000
0000
0000
0110
0000
0100
0000
0001
0100
1000
0001
,
0010
1000
0001
0100
0010
1000
0110
0000
,
0002
0000
0000
0003
2000
0000
0000
3000
0020
0000
0000
0030
2000
0000
0000
3000
,
0102
0000
0000
0000
1000
0000
0000
0000
0010
0003
1000
0000
0001
0000
1010
0000
,
0000
0000
0001
0000
1000
0000
1010
0000
0000
0000
0010
0000
1000
0000
0001
1000
,
0001
0100
0010
1000
0000
0110
0000
1001
,
0000
0000
0000
0000
0020
0000
0000
0030
0200
0000
0000
0300
2000
0000
0000
3000
,
0020
0000
0000
0000
1000
0030
0200
0000
0001
0000
0000
0000
1000
0000
0000
0000
,
0010
0000
0000
0300
0001
0000
0000
0000
0110
0000
0000
0000
0100
0000
0001
0010
,
1000
0001
0100
0010
0000
0110
0000
1001
,
0000
0000
0000
0000
0020
0000
0000
0030
2000
0000
0000
3000
0200
0000
0000
0300
,
0002
0000
0000
0000
1000
0003
0020
0000
0001
0000
0000
0030
0200
0000
0000
0300
,
0102
0000
0000
0000
1000
0000
0000
0000
0010
0000
0000
0003
0100
0000
0001
0010
,
0100
0001
0010
0100
0000
0110
0000
2002
,
0000
0000
0000
3003
0020
0000
0000
0030
2000
0000
0000
3000
0002
0000
0000
0003
,
2000
0000
0000
3000
0001
0000
0100
0000
0000
0000
0200
0000
0000
0300
2001
0000
,
0000
0000
0000
0000
0010
0000
3000
0000
0110
0000
0010
0000
1000
0100
0001
0010
,
0100
0000
1000
0000
0001
0000
0010
0000
0110
0000
0000
0000
2002
0000
0000
3003
,
0110
0000
0000
0000
0010
0000
0000
0000
0110
0000
0000
0000
0100
0000
0010
0100
,
0201
1000
0010
0001
0000
1000
0300
0102
,
0000
0000
0000
0000
1000
0000
0000
0003
0011
0000
0000
0000
1100
0000
0010
1000
,
0200
0000
0001
0000
0010
0000
0001
0000
1000
0300
0100
0000
0001
0100
0020
0000
,
0100
0030
0002
0000
1000
0003
0200
0000
0010
0300
1000
0000
0100
0000
0002
0100
,
0010
0000
1000
0000
0103
0000
0011
0000
1100
0000
0100
0000
0011
0000
0010
0100
,
1000
0000
0100
0001
0010
0000
1010
0000
0000
0000
1000
0000
0010
0000
2000
0010
,
0100
0000
0010
0000
0001
0000
0100
0000
0010
3000
0200
0000
0010
0300
0002
0003
,
0200
0000
0010
0000
1000
0300
0100
1000
0001
0000
0010
0002
1000
0003
0200
0300
,
2000
0000
0000
0000
0100
0000
0000
0000
0001
0000
0100
0000
0010
3000
0001
0000
,
0200
0000
0310
2000
0100
0000
3001
0020
0100
0030
0200
0000
0001
0000
1000
0310
,
1100
0000
0001
0000
1100
0000
0000
0000
0001
0000
0010
1000
0100
0000
1000
0001
,
0100
1000
0010
0100
0001
0100
0010
0001
1000
0010
0100
0000
0010
0000
0001
0000
,
0100
0100
0100
1000
0100
0001
0010
0100
,
1000
0010
0100
0000
0001
0000
0010
0000
1000
0000
0100
0010
0001
0000
1000
0000
,
0010
0000
0010
0100
0010
0001
0010
0100
0001
0000
0010
0000
1000
0000
0200
0000
,
0000
0300
0001
0000
1000
0000
2002
0000
0000
0000
0000
0000
0000
0000
0000
3003
,
0001
0000
0010
0100
0000
1000
0000
0001
,
0000
0000
0000
0000
0200
0000
0000
0300
0020
0000
0000
0030
0002
0000
0000
0003
,
0200
0000
0000
0000
0020
0300
2000
0030
0002
0000
0000
0003
0200
0000
0000
0300
,
3002
0000
0000
0000
0000
0003
2002
0000
0000
0000
0000
0000
0000
3003
0001
0000
,
1000
0000
0100
0001
0000
0010
0000
0001
,
0000
0000
0000
0000
2000
0000
0000
3000
0200
0000
0000
0300
0020
0000
0000
0030
,
0002
0000
0000
0000
0000
0003
0200
0000
0000
0000
0000
0300
0020
0000
0000
0030
,
2002
0000
0000
0000
0000
0003
0200
3001
0020
0000
0030
0302
2000
0003
0001
3000
,
1100
0000
0010
0001
1000
0100
0001
1000
,
0100
0000
0000
0000
0102
0000
0000
0003
1200
0000
0000
0300
2100
0000
0010
3000
,
0100
0000
0001
0010
1000
0100
0001
1000
,
0100
0000
0001
0000
0100
1000
0001
0100
,
0110
0000
1000
0001
0100
0000
0010
0000
,
1002
0000
0000
0003
2100
0000
0000
3000
0210
0000
0000
0300
1020
0000
0000
0030
,
2010
0000
0100
0000
0010
3001
0100
2002
,
0000
0000
0000
0000
0000
3003
0000
0000
,
0100
0001
0010
1000
0000
0011
0000
1100
,
0000
0000
0000
0000
0020
0000
0000
0030
0002
0000
0000
0003
2000
0000
0000
3000
,
0020
0000
0001
1000
0100
0030
0012
0000
0000
0000
0000
0000
0000
0000
0100
1000
,
0010
0000
1000
0013
0100
0000
1000
0100
0011
0000
1100
0000
0011
0000
0110
0000
,
1000
0100
0001
0010
0000
0011
0000
1100
,
0000
0000
0000
0000
0020
0000
0000
0030
2000
0000
0000
3000
0002
0000
0000
0003
,
0200
0000
0000
0000
1000
0300
0020
0000
0100
0000
0000
0030
0002
0000
0000
0003
,
0201
0000
0000
0000
1000
0000
0000
0000
0010
0000
0000
0300
0001
0000
0100
0010
,
0001
0100
0010
0001
0000
0011
0000
2200
,
0000
0000
0000
3300
0020
0000
0000
0030
2000
0000
0000
3000
0200
0000
0000
0300
,
2000
0000
0000
3000
0100
0000
0001
0000
0000
0000
0002
0000
0000
0003
2100
0000
,
0000
0000
0000
3000
0011
0010
1000
0100
,
0001
0000
1000
0000
0100
0000
0010
0000
0011
0000
0000
0000
2200
0000
0000
3300
,
0011
0000
0000
0000
0010
0000
0000
0000
0011
0000
0000
0000
0001
0000
0010
0001
,
1001
0000
0010
0000
1100
0000
0001
0000
0010
0000
1001
0000
0010
0000
1001
0010
,
0100
1000
0011
0100
1010
0000
0101
1000
,
0011
0000
0010
0000
1100
0000
1000
0100
0010
0000
1010
0000
0100
0000
1010
0000
,
0010
0000
0001
0000
1100
0000
0010
0100
0011
0000
0000
0000
1100
0000
0001
0010
,
1100
0000
0001
0000
0011
0000
0100
0000
0010
0000
0110
0000
1000
0000
0110
0001
,
0010
1000
0011
1000
0110
0000
0101
0001
,
1000
0000
0001
0000
0110
0000
1000
0100
0001
0000
0110
0000
1000
0000
0110
0001
,
0100
0011
1100
0110
1001
0000
1001
0000
;

//---------------dance-single - ----------------
#NOTES:
     dance-single:
     :
     Medium:
     6:
     0.604,0.599,0.618,0.473,0.065,1016.000,200.000,153.000,0.000,0.000:
0000
0000
0000
0000
,
0001
0100
0010
1000
0000
1001
0000
1001
,
0000
0001
1000
0010
0001
0000
1000
0001
,
1000
0100
0010
0001
0000
0101
0000
0101
,
0000
1000
0001
0100
1000
0000
0001
1000
,
0001
1000
0100
0010
0000
0110
0000
0110
,
0000
0001
1000
0001
0100
0000
0010
1000
,
0001
1000
0100
0001
0000
0110
0000
0110
,
0000
1000
0001
0010
0100
0000
0010
1000
,
0001
1000
0001
0010
0000
1001
0000
1001
,
0000
0010
1000
0100
0001
0000
1000
0001
,
1000
0010
0100
0001
0000
1001
0000
1001
,
0000
1000
0001
0100
1000
0000
0001
1000
,
0001
0010
0100
1000
0000
1010
0000
1010
,
0000
0001
1000
0010
0001
0000
1000
0001
,
1000
0001
0010
0100
0000
0110
0000
0110
,
0000
1000
0001
1000
0010
0000
0100
0001
,
1000
0001
0010
1000
0000
0110
0000
0110
,
0000
0000
0001
0000
1000
0001
1000
0000
1001
0000
0000
0000
1001
0000
0000
0000
,
1001
0001
0101
0100
,
1100
1000
1001
0001
,
0011
0000
0000
0000
0001
0000
0000
0001
0100
0000
0000
0000
0001
0000
0000
0000
,
0101
0000
0000
0000
0100
0000
0000
0100
0010
0000
0000
0000
0001
0000
0000
0000
,
1001
1000
1001
0001
,
0101
0100
1100
0100
,
0110
0000
0000
0000
0010
0000
0000
0010
1000
0000
0000
0000
1000
0000
0000
0000
,
1001
0000
0000
0000
0001
0000
0000
0001
0100
0000
0000
0000
0100
0000
0100
0010
,
1010
0010
0011
0001
,
1001
1000
1100
0100
,
0110
0000
0000
0000
0010
0000
0000
0010
1000
0000
0000
0000
1000
0000
0000
0000
,
1100
0000
0000
0000
0100
0000
0000
0100
0001
0000
0000
0000
0001
0000
0000
0000
,
0101
0100
0110
0100
,
1100
0100
0101
0001
,
0011
0000
0000
0000
0010
0000
0000
0010
0100
0000
0000
0000
0100
0000
0000
0000
,
0101
0000
0000
0000
0001
0000
0000
0001
1000
0000
0000
0000
1000
0000
1000
0100
,
0110
0001
1000
0010
0100
1000
0001
1000
,
1001
0001
0100
0010
0001
1000
0100
0010
,
0011
0000
0001
0000
0010
0000
0100
1000
0010
0000
0100
0000
0001
0000
1000
0000
,
1010
0000
0010
0000
0100
0000
0001
0010
0100
0000
1000
0000
0001
0000
1000
0000
,
1010
0010
0001
1000
0001
0100
1000
0001
,
0101
0100
1000
0010
1000
0100
0001
0100
,
0101
0000
0001
0000
1000
0000
0100
1000
0010
0000
0001
0000
0010
0000
1010
0000
,
0000
0000
0010
0000
1010
0000
0100
0010
0001
0000
1000
0000
0100
0000
0010
0100
,
0010
1000
0001
0100
0000
1001
0000
1001
,
0000
0000
0000
0000
2000
0000
0000
3000
0200
0000
0000
0300
0002
0000
0000
0003
,
0020
0000
0000
0000
0000
0030
2000
0000
0010
0000
0000
0000
0100
0000
0000
0000
,
0001
3000
1000
0000
1010
0000
0010
0100
,
0001
0000
1000
0001
0000
0110
0000
1001
,
0000
0000
0000
0000
0002
0000
0000
0003
2000
0000
0000
3000
0220
0000
0000
0330
,
2000
0000
0000
0000
0010
3000
0020
0000
1000
0000
0000
0030
2000
0000
0000
3000
,
1002
0000
0100
0000
0010
0003
0100
0001
,
1000
0001
1000
0100
0000
1001
0000
1001
,
0000
0000
0000
0000
0200
0000
0000
0300
0020
0000
0000
0030
2002
0000
0000
3003
,
2002
0000
0000
3003
0010
0000
0110
0000
0000
0000
0110
0000
0000
0000
0002
0000
,
1000
0000
0013
0000
0110
0010
1000
0001
,
0100
0001
1000
0010
0100
0001
0110
0000
,
2000
0000
0000
3000
0002
0000
0000
0003
0200
0000
0000
0300
0002
0000
0000
0003
,
2010
0000
0000
0000
0001
0000
0000
0000
0100
3000
0001
0000
1000
0000
0101
0000
,
0000
0000
1000
0000
0001
0000
0101
0000
0000
0000
0100
0000
0001
0000
1000
0001
,
1000
0010
0100
0001
0000
0110
0000
1001
,
0000
0000
0000
0000
0200
0000
0000
0300
0020
0000
0000
0030
0002
0000
0000
0003
,
0200
0000
0000
0000
0001
0300
0020
0000
1000
0000
0000
0000
0001
0000
0000
0000
,
0100
0000
0000
0030
1000
0000
0000
0000
0110
0000
0000
0000
0010
0000
1000
0000
,
0001
1000
0010
0100
0000
0110
0000
1001
,
0000
0000
0000
0000
0200
0000
0000
0300
0002
0000
0000
0003
0020
0000
0000
0030
,
2000
0000
0000
0000
0001
3000
0200
0000
1000
0000
0000
0300
0020
0000
0000
0030
,
2010
0000
0000
0000
0001
0000
0000
0000
0100
0000
0000
3000
0010
0000
1000
0100
,
0010
1000
0100
0010
0000
0110
0000
2002
,
0000
0000
0000
3003
0200
0000
0000
0300
0002
0000
0000
0003
2000
0000
0000
3000
,
0002
0000
0000
0003
1000
0000
0010
0000
0000
0000
0020
0000
0000
0030
2002
0000
,
0000
0000
0000
3003
0110
0100
0001
1000
,
0010
0000
0001
0000
1000
0000
0100
0000
0110
0000
0000
0000
2002
0000
0000
3003
,
0110
0100
0110
0010
,
0001
0100
0010
1000
0000
1001
0000
1001
,
0000
0001
1000
0010
0001
0000
1000
0001
,
1000
0100
0010
0001
0000
0101
0000
0101
,
0000
0000
1000
0000
0001
1000
0001
0000
1001
0000
0000
0000
1001
0000
0000
0000
,
1001
1000
1010
0010
,
0011
0001
1001
1000
,
1100
0000
0000
0000
1000
0000
0000
1000
0010
0000
0000
0000
1000
0000
0000
0000
,
1010
0000
0000
0000
0010
0000
0000
0010
0100
0000
0000
0000
1000
0000
0000
0000
,
1001
0001
1001
1000
,
1010
0010
0011
0010
,
0110
0000
0000
0000
0100
0000
0000
0100
0001
0000
0000
0000
0001
0000
0000
0000
,
1001
0000
0000
0000
1000
0000
0000
1000
0010
0000
0000
0000
0010
0000
0010
0100
,
0101
0100
1100
1000
,
1001
0001
0011
0010
,
0110
0000
0000
0000
0100
0000
0000
0100
0001
0000
0000
0000
0001
0000
0000
0000
,
0011
0000
0000
0000
0010
0000
0000
0010
1000
0000
0000
0000
1000
0000
0000
0000
,
1010
0010
0110
0010
,
0011
0010
1010
1000
,
1100
0000
0000
0000
0100
0000
0000
0100
0010
0000
0000
0000
0010
0000
0000
0000
,
1010
0000
0000
0000
1000
0000
0000
1000
0001
0000
0000
0000
0001
0000
0001
0010
,
0110
1000
0001
0100
0010
0001
1000
0001
,
1001
1000
0010
0100
1000
0001
0010
0100
,
1100
0000
1000
0000
0100
0000
0010
0001
0100
0000
0010
0000
1000
0000
0001
0000
,
0101
0000
0100
0000
0010
0000
1000
0100
0010
0000
0001
0000
1000
0000
0001
0000
,
0101
0100
1000
0001
1000
0010
0001
1000
,
1010
0010
0001
0100
0001
0010
1000
0010
,
1010
0000
1000
0000
0001
0000
0010
0001
0100
0000
1000
0000
0100
0000
0101
0000
,
0000
0000
0100
0000
0101
0000
0010
0100
1000
0000
0001
0000
0010
0000
0100
0010
,
0100
0001
1000
0010
0000
1001
0000
1001
,
0000
0000
0000
0000
0002
0000
0000
0003
0020
0000
0000
0030
2000
0000
0000
3000
,
0200
0000
0000
0000
0000
0300
0002
0000
0100
0000
0000
0000
0010
0000
0000
0000
,
1000
0003
0001
0000
0101
0000
0100
0010
,
1000
0010
0001
1000
0000
0110
0000
1001
,
0000
0000
0000
0000
2000
0000
0000
3000
0002
0000
0000
0003
0220
0000
0000
0330
,
0002
0000
0000
0000
0100
0003
0200
0000
0001
0000
0000
0300
0002
0000
0000
0003
,
2001
0000
0010
0000
0100
3000
0010
1000
,
0001
1000
0001
0010
0000
1001
0000
1001
,
0000
0000
0000
0000
0020
0000
0000
0030
0200
0000
0000
0300
2002
0000
0000
3003
,
2002
0000
0000
3003
0100
0000
0110
0000
0000
0000
0110
0000
0000
0000
2001
0000
,
0000
0010
3010
0000
0110
0100
0001
1000
,
0010
1000
0001
0100
0010
1000
0110
0000
,
0002
0000
0000
0003
2000
0000
0000
3000
0020
0000
0000
0030
2000
0000
0000
3000
,
0102
0000
0000
0000
1000
0000
0000
0000
0010
0003
1000
0000
0001
0000
1010
0000
,
0000
0000
0001
0000
1000
0000
1010
0000
0000
0000
0010
0000
1000
0000
0001
1000
,
0001
0100
0010
1000
0000
0110
0000
1001
,
0000
0000
0000
0000
0020
0000
0000
0030
0200
0000
0000
0300
2000
0000
0000
3000
,
0020
0000
0000
0000
1000
0030
0200
0000
0001
0000
0000
0000
1000
0000
0000
0000
,
0010
0000
0000
0300
0001
0000
0000
0000
0110
0000
0000
0000
0100
0000
0001
0000
,
1000
0001
0100
0010
0000
0110
0000
1001
,
0000
0000
0000
0000
0020
0000
0000
0030
2000
0000
0000
3000
0200
0000
0000
0300
,
0002
0000
0000
0000
1000
0003
0020
0000
0001
0000
0000
0030
0200
0000
0000
0300
,
0102
0000
0000
0000
1000
0000
0000
0000
0010
0000
0000
0003
0100
0000
0001
0010
,
0100
0001
0010
0100
0000
0110
0000
2002
,
0000
0000
0000
3003
0020
0000
0000
0030
2000
0000
0000
3000
0002
0000
0000
0003
,
2000
0000
0000
3000
0001
0000
0100
0000
0000
0000
0200
0000
0000
0300
2002
0000
,
0000
0000
0000
3003
0110
0010
1000
0001
,
0100
0000
1000
0000
0001
0000
0010
0000
0110
0000
0000
0000
2002
0000
0000
3003
,
0110
0010
0110
0100
,
0202
0000
0000
0000
0000
0000
0303
0101
,
0000
0000
0000
0000
1000
0000
0000
0000
0010
0000
0000
0000
1000
0000
0010
1000
,
0100
0001
0010
0100
1000
0100
0001
0010
,
0100
0000
0001
0000
1000
0000
0100
0000
0010
0000
1000
0000
0100
0000
0001
0100
,
0010
0000
0001
0000
0100
0000
0010
0000
1000
0000
0100
0000
0001
0000
0010
0100
,
1000
0000
0100
0000
0010
0000
1010
0000
0000
0000
1000
0000
0010
0000
1000
0010
,
0100
0010
0001
0100
1000
0001
0010
0001
,
0100
0010
1000
0100
0001
0010
0001
0010
,
0100
1000
1100
0000
0001
1000
0010
0001
,
0100
0010
1000
0001
0010
0100
0001
1000
,
1100
0000
1100
0000
0001
0010
0100
1000
,
0100
0010
0001
0010
1000
0100
0010
0001
,
0100
0100
0100
1000
0100
0001
0010
0100
,
1000
0100
0001
0010
1000
0100
0001
1000
,
0010
0010
0010
0010
0001
0010
1000
0200
,
0000
0300
0001
0000
1000
0000
2002
0000
0000
0000
0000
0000
0000
0000
0000
3003
,
0001
0000
0010
0100
0000
1000
0000
0001
,
0000
0000
0000
0000
0200
0000
0000
0300
0020
0000
0000
0030
0002
0000
0000
0003
,
0200
0000
0000
0000
0020
0300
2000
0030
0002
0000
0000
0003
0200
0000
0000
0300
,
3002
0000
0000
0000
0000
0003
2002
0000
0000
0000
0000
0000
0000
3003
0001
0000
,
1000
0000
0100
0001
0000
0010
0000
0001
,
0000
0000
0000
0000
2000
0000
0000
3000
0200
0000
0000
0300
0020
0000
0000
0030
,
0002
0000
0000
0000
0000
0003
0200
0000
0000
0000
0000
0300
0020
0000
0000
0030
,
2002
0000
0000
0000
0000
0003
0200
3000
0000
0000
0000
0300
2000
0000
0001
3000
,
1100
0000
0010
0001
1000
0100
0001
1000
,
0100
0000
0000
0000
0102
0000
0000
0003
1200
0000
0000
0300
2100
0000
0010
3000
,
0100
0000
0001
0010
1000
0100
0001
1000
,
0100
0000
0001
0000
0100
1000
0001
0100
,
0110
0000
1000
0001
0100
0000
0010
0000
,
1002
0000
0000
0003
2100
0000
0000
3000
0210
0000
0000
0300
1020
0000
0000
0030
,
2010
0000
0100
0000
0010
3001
0100
2002
,
0000
0000
0000
0000
0000
3003
0000
0000
,
0100
0001
0010
1000
0000
0011
0000
1100
,
0000
0000
0000
0000
0020
0000
0000
0030
0002
0000
0000
0003
2000
0000
0000
3000
,
0020
0000
0000
0000
1000
0030
0002
0000
0100
0000
0000
0000
1000
0000
0000
0000
,
0010
0000
0000
0003
0100
0000
0000
0000
0011
0000
0000
0000
0001
0000
0100
0000
,
1000
0100
0001
0010
0000
0011
0000
1100
,
0000
0000
0000
0000
0020
0000
0000
0030
2000
0000
0000
3000
0002
0000
0000
0003
,
0200
0000
0000
0000
1000
0300
0020
0000
0100
0000
0000
0030
0002
0000
0000
0003
,
0201
0000
0000
0000
1000
0000
0000
0000
0010
0000
0000
0300
0001
0000
0100
0010
,
0001
0100
0010
0001
0000
0011
0000
2200
,
0000
0000
0000
3300
0020
0000
0000
0030
2000
0000
0000
3000
0200
0000
0000
0300
,
2000
0000
0000
3000
0100
0000
0001
0000
0000
0000
0002
0000
0000
0003
1100
0000
,
0000
0001
1000
0010
0000
0010
1000
0100
,
0001
0000
1000
0000
0100
0000
0010
0000
0011
0000
0000
0000
2200
0000
0000
3300
,
0011
0010
0011
0001
,
1000
0010
0100
0001
0000
1001
0000
1001
,
0000
1000
0001
0100
1000
0000
0001
1000
,
0001
0010
0100
1000
0000
1010
0000
1010
,
0000
0001
1000
0010
0001
0000
1000
0001
,
1000
0001
0010
0100
0000
0110
0000
0110
,
0000
1000
0001
1000
0010
0000
0100
0001
,
1000
0001
0010
1000
0000
0110
0000
0110
,
0000
0000
0001
0000
1000
0001
1000
0000
1001
0000
0000
0000
1001
0000
0000
0000
;
