#TITLE:Take Me Back;
#SUBTITLE:;
#ARTIST:KaW;
#TITLETRANSLIT:;
#SUBTITLETRANSLIT:;
#ARTISTTRANSLIT:;
#CREDIT:;
#BANNER:takemeback-bn.png;
#BACKGROUND:takemeback-bg.png;
#LYRICSPATH:;
#CDTITLE:;
#MUSIC:Take Me Back.mp3;
#OFFSET:-0.100;
#SAMPLESTART:43.800;
#SAMPLELENGTH:13.000;
#SELECTABLE:YES;
#BPMS:0.000=175.000;
#STOPS:;
#BGCHANGES:;
// cache tags:
#FIRSTBEAT:16.000;
#LASTBEAT:349.500;
#SONGFILENAME:Songs/stepmix .10/Take Me Back (2)/Take Me Back.sm;
#HASMUSIC:1;
#HASBANNER:1;
#MUSICLENGTH:123.593;
// end cache tags

//---------------dance-single - ----------------
#NOTES:
     dance-single:
     :
     Challenge:
     10:
     0.740,1.000,0.194,0.736,0.267,525.000,24.000,91.000,34.000,0.000:













0000
0000
0000
0000
,
0000
0000
0000
0000
,
0000
0000
0000
0000
,
0000
0000
0000
0000
,
1000
0001
0100
0010
0000
1000
0001
1000
,
0001
0100
0010
0100
0000
0000
0000
0000
,
0100
0001
0100
0001
0000
1000
0100
0010
,
0001
0000
0000
0000
,
1001
0000
0001
1000
0001
0000
0001
0100
0001
0000
0001
1000
0001
0000
1000
0100
,
1000
0000
0100
0010
0100
0000
1000
0010
1000
0000
1000
0001
0100
0000
0001
1000
,
0100
0000
1000
0001
1000
0000
1000
0100
1000
0000
0001
0100
0001
0000
1000
0001
,
1000
0000
1000
0100
1000
0000
1000
0010
1000
0000
1000
0001
1000
0000
0000
0000
,
1100
0000
1000
1000
0000
0101
0000
0100
,
0100
0000
0010
0010
0000
0000
0000
0000
,
0110
0000
0100
0001
0000
0100
0000
0100
,
0010
0000
0000
0000
0000
0000
0000
0000
1000
0000
0001
0000
0001
0100
0001
0000
,
1000
0001
0100
0010
0000
1000
0010
0100
,
0010
0001
0010
2020
0000
3030
0000
0000
,
1000
0001
1000
0001
0000
0010
0001
0100
,
0020
0000
0000
0000
0030
0000
0000
0000
0000
M000
0M00
00M0
000M
0000
0000
0000
,
1000
0100
0010
0100
0000
1000
0001
0100
,
0010
1000
0010
0100
0000
0000
0000
0000
,
0001
1MM0
0001
1MM0
0000
0010
M10M
0010
,
M20M
0000
M0MM
0000
0001
0001
0301
0000
,
0002
0000
0010
0013
0000
0001
0000
1000
,
0010
0000
1000
0001
0100
0100
0100
0000
,
0002
0000
0010
0013
0000
0001
0000
1000
,
0001
0000
0001
1000
0100
0100
0100
0000
,
1000
0001
0100
0010
0000
0010
0000
0010
,
0100
0000
0001
1000
0100
0100
0100
0000
,
1000
0000
0000
0000
0000
0000
0000
0000
0000
0000
0000
0000
0100
0000
0000
0000
0000
0000
0010
0000
0000
0000
0000
0000
0000
0000
0000
0000
0000
0000
1001
0000
0000
0000
0000
0000
0000
0000
0000
0000
0000
0000
0001
0000
MM00
0010
0000
0000
,
0001
0000
0000
00MM
0000
0000
0000
0000
,
1000
0100
0000
0000
0000
0000
1000
0100
0000
0000
0000
0000
1000
0001
0000
0000
0000
0000
1000
0001
0000
0000
0000
0000
1000
0100
0000
0000
0000
0000
1000
0010
0000
0000
0000
0000
1000
0100
0000
0000
0000
0000
0010
0000
0000
0000
0000
0000
,
0000
0100
0000
1000
0001
0000
0001
0000
,
0001
1000
0000
0000
0000
0000
0001
0010
0000
0000
0000
0000
0001
0010
0000
0000
0000
0000
0001
0100
0000
0000
0000
0000
0001
0010
0000
0000
0000
0000
0001
0100
0000
0000
0000
0000
0001
1000
0000
0000
0000
0000
0001
0010
0000
0000
0000
0000
,
0000
0100
0000
0010
0001
0000
1000
0000
,
1000
0001
0010
0100
0010
0001
1000
0001
,
0000
0001
1000
0100
0010
0000
1001
0000
,
1001
0001
0100
0010
1000
0100
0010
0100
,
0000
0000
0000
0100
0010
0000
0110
0000
,
1001
0000
1000
0001
0000
0100
0000
0010
,
1000
0000
0000
0000
0100
0100
0100
0000
,
1100
0000
0010
0001
0000
1010
0000
0010
,
0100
0000
0000
0000
0010
0010
0010
0000
,
1000
0000
0001
0000
0100
0010
0100
0000
0010
0000
1000
0000
0001
0000
1000
0000
,
0000
1100
1000
0000
2000
0000
0002
3003
,
0100
0000
0010
0000
1000
0000
0010
0000
1000
0100
1000
0000
0100
0000
1000
0000
,
0020
0030
2000
3000
0020
0000
0130
0000
,
0002
0203
0320
2030
3000
2000
3002
2003
,
3200
0320
0230
0320
0030
0000
0000
0000
,
0020
0032
2003
3002
0003
0020
0230
0320
,
0230
0000
0000
0300
0000
0000
0000
0000
0000
0000
0000
0000
0000
0000
0MM0
0000
0000
0000
0000
0000
0000
0000
0000
0000
,
2000
3200
0320
0230
0300
2000
3002
0203
,
0320
2030
3020
2030
3000
0000
M0M0
0000
,
2000
3200
0320
0032
0003
2000
3200
0302
,
0203
0000
0300
0000
0000
0000
1100
0000
0000
0000
0101
0000
0000
0000
1M00
0001
,
1000
0100
0010
0100
0000
0100
1000
0100
,
0010
0001
0010
0100
0000
0000
0MM0
0000
,
0002
2003
3020
0230
,
0302
1000
1003
0100
0000
0000
MMMM
0000
,
0002
0000
0000
1000
2003
0002
3000
0000
,
0013
0100
0010
0100
1100
1000
1000
0000
,
0001
1000
0100
1000
0100
0010
0100
0010
0100
1000
0001
0100
0010
1000
0001
0100
,
0010
0100
0010
0100
0010
0100
0001
0100
0001
0100
0001
0000
2000
0000
3000
0000
,
1000
0001
0000
0000
0000
0000
1000
0100
0000
0000
0000
0000
0100
0010
0000
0000
0000
0000
0010
0001
0000
0000
0000
0000
0001
0100
0000
0000
0000
0000
0100
0000
0001
0000
0000
0000
0001
1000
0000
0000
0000
0000
1000
0001
0000
0000
0000
0000
,
0000
1000
0000
0100
0010
0000
1001
0000
,
0001
1000
0000
0000
0000
0000
0001
0010
0000
0000
0000
0000
0001
0010
0000
0000
0000
0000
0001
0100
0000
0000
0000
0000
0001
0100
0000
0000
0000
0000
0001
0010
0000
0000
0000
0000
0001
0000
0000
0000
0000
0000
1000
0000
0000
0000
0000
0000
,
0000
0100
0000
0010
0011
0000
1000
0000
,
0010
0100
0010
1000
0010
1000
0001
0101
,
0000
0010
0000
1001
1000
0000
0010
0000
,
1000
0001
0100
0010
1000
0010
0100
0010
,
0000
1001
0000
1000
0001
0000
0101
0000
,
0001
0001
0001
0001
0001
0001
0001
1000
,
0100
0010
0100
1000
0100
0010
0100
1000
,
0001
0001
0001
0001
0001
0001
0000
1000
,
0000
1000
0000
1000
0200
0000
0300
0000
,
1000
1000
1000
1000
1000
1000
1000
0100
,
0010
0100
0001
0100
0010
0100
1000
0100
,
1000
1000
1000
1000
1000
1000
0000
0100
,
0000
0100
0000
0010
1001
0000
0000
0000
,
2000
3200
0320
0032
0003
2000
3002
0203
,
0320
0230
0320
2030
0000
0000
3000
0000
,
0002
0203
0320
2030
3000
0002
2003
3200
,
2300
0000
0000
0000
0000
3000
0000
0000
0000
0000
0000
0000
,
2000
3002
0203
0320
0030
2000
3200
2300
,
3002
0203
0302
0200
0000
0303
0000
0000
,
0020
0130
0020
0130
0000
0010
1000
0010
,
1010
0000
0000
MMMM
0000
0000
0000
0000
;

//---------------dance-single - Blank----------------
#NOTES:
     dance-single:
     Blank:
     Hard:
     8:
     0.516,0.634,0.138,0.081,0.061,419.000,17.000,10.000,0.000,0.000:

0000
0000
0000
0000
,
0000
0000
0000
0000
,
0000
0000
0000
0000
,
0000
0000
0000
0000
,
0001
0000
0001
0100
0000
0100
0010
0100
,
0001
0000
0001
0010
0000
0000
0000
0000
,
1001
0000
1000
0100
0000
0100
0010
0001
,
0010
0000
0000
0000
,
1001
0000
0000
1000
0010
0000
0000
0010
0100
0000
0000
0100
0001
0000
0000
0001
,
0010
0000
0000
0010
0100
0000
0000
0100
0010
0000
0000
0010
0001
0000
0000
0001
,
1000
0000
0000
1000
0100
0000
0000
0100
0010
0000
0000
0010
0001
0000
0000
0001
,
1000
0000
0000
1000
0001
0000
0000
0001
0010
0000
0000
0010
0100
0000
0000
0000
,
0100
0000
0010
0100
0000
1000
0000
0001
,
0100
0000
0100
0010
0000
0000
0000
0000
,
1000
0000
0001
1000
0000
1000
0000
0100
,
0010
0000
0010
0002
0000
0000
0003
0000
,
1001
0000
1000
0100
0000
0100
0010
0100
,
1000
0000
1000
0010
0000
0000
0000
0000
,
0101
0000
0001
0100
0000
0100
0010
1000
,
0010
0000
0000
0000
0100
0100
0100
0000
,
0010
1000
0100
0010
0000
0000
0000
0000
,
0001
1000
0001
1000
0000
0000
0000
0000
,
0001
1000
0100
0010
0000
0000
0000
0000
,
1001
0000
0000
0000
0001
0100
0010
0000
,
1010
0010
1000
0100
,
0010
0001
0010
0001
1000
0000
1000
0000
,
1001
1000
1000
0010
,
1000
0000
0001
0000
1000
0001
0100
0000
,
1001
0000
1000
0010
0000
0010
0000
0010
,
1000
0000
0001
0010
0000
0000
0000
0000
,
0001
0000
1000
0100
0000
0100
0000
0100
,
0010
0000
0000
0000
,
0001
1000
0100
0010
0001
0100
0010
1000
,
0000
0100
0000
0100
1000
0000
1001
0000
,
1000
0001
0100
0001
0100
0010
0100
0001
,
0000
0001
0000
0001
1000
0000
1100
0000
,
1000
0100
0010
0001
0010
0100
1000
0001
,
0000
0001
0100
0000
0100
0000
0001
0000
,
1001
1000
0100
0010
0001
0010
0100
0010
,
0000
0000
0000
0001
0100
0000
0100
0000
,
1001
0000
0000
1000
0000
1000
0000
0000
,
0010
0000
0000
0000
0010
0100
0010
0000
,
1000
0000
0000
0100
0000
0100
0000
0000
,
0010
0000
0000
0000
0010
0001
0010
0000
,
0100
1000
0100
1000
0001
0100
0010
0100
,
0000
0010
0000
1000
0100
0000
0101
0000
,
0001
1000
0100
0010
0100
1000
0010
1000
,
0002
0003
2000
3000
0002
0003
2000
3000
,
0110
0000
0000
0100
0000
0001
0000
0000
,
0100
0000
0000
0001
0000
1000
0000
0000
,
0110
0000
0000
0010
0000
0100
0000
0000
,
0100
0000
0000
0010
0000
0010
0000
0000
,
1001
0001
1000
0001
1000
0001
1000
0001
,
1000
0100
0001
0100
0010
0100
0001
0100
,
1000
0001
1000
0001
1000
0001
1000
0001
,
1000
0000
0000
0100
0000
0100
0000
0000
,
0200
0010
0010
0310
,
0001
0100
0010
1000
0000
0000
0000
0000
,
0010
0100
0001
1000
,
1000
0100
0010
0001
0000
0000
0000
0000
,
2000
0000
0001
3001
,
0001
1000
0001
0020
0000
0000
0030
0000
,
0100
0010
0001
1000
0100
0010
0001
0010
,
0001
1000
0001
0100
0010
0100
0002
0003
,
0010
0001
0010
0001
0100
0010
1000
0001
,
0000
0001
0000
0100
0010
0000
0010
0000
,
1000
0001
0100
0010
0100
0001
1000
0100
,
0000
0100
0000
0100
0010
0000
0000
0000
,
0001
1000
0100
0010
0001
0010
0001
0100
,
0000
0100
0000
0001
1000
0000
0100
0000
,
0100
0010
0100
1000
0100
0010
0001
0100
,
0000
0100
0000
0100
0010
0000
0000
0000
,
1000
0001
0100
0000
0001
1000
0100
0000
,
1000
0001
1000
0000
0001
0100
0001
0000
,
0001
1000
0100
0010
0001
0100
0001
0010
,
0000
0010
0000
0010
0100
0000
0000
0000
,
1000
0001
1000
0001
1000
0001
1000
0100
,
0010
0100
0010
0100
0010
0100
0010
0001
,
1000
0001
1000
0001
1000
0100
0000
1000
,
0000
0002
0000
0003
1000
0000
0000
0000
,
1000
0000
1000
0100
0000
0100
0010
0100
,
0010
0000
0010
0001
0000
0000
0000
0000
,
0001
0000
1000
0100
0000
0100
0010
0100
,
0010
0000
0000
0000
,
0001
0000
0001
0100
0000
0100
0010
0100
,
0001
0000
0001
1000
0000
0000
0000
0000
,
1100
0000
0100
0010
0000
0001
1000
0100
,
0010
0000
0000
0000
;

//---------------dance-single - Blank----------------
#NOTES:
     dance-single:
     Blank:
     Medium:
     6:
     0.388,0.458,0.283,0.138,0.000,284.000,35.000,17.000,8.000,0.000:




0000
0000
0000
0000
,
0000
0000
0000
0000
,
0000
0000
0000
0000
,
0000
0000
0000
0000
,
1001
0000
1000
0100
0000
0000
0000
0000
,
0110
0000
0100
0010
0000
0000
0000
0000
,
1001
0000
0001
0100
0000
0100
0010
0100
,
0010
0000
MMMM
0000
,
0001
0000
1000
0100
0010
0000
0001
0010
,
0001
0000
0100
0010
0100
0000
0001
0100
,
0010
0000
1000
0010
0100
0000
0100
0010
,
0100
0000
0001
1000
0100
0000
0100
0000
,
0110
0001
1000
0100
,
0010
0100
1000
1000
,
0100
0010
0001
0010
,
0100
0000
0010
0000
0001
0001
2000
0000
,
3001
0000
0000
0100
0000
0100
0000
0000
,
0010
0000
0000
0000
1000
1000
1000
0000
,
1000
0000
0000
0100
0000
0100
0000
0000
,
0010
0000
0000
0000
0001
1000
0001
0000
,
1000
0001
1000
0100
,
0010
0001
0100
0010
,
1000
0000
0001
0000
1000
0000
1000
0100
,
0010
0000
0000
0000
0001
0001
0001
0000
,
0011
0000
0101
0000
,
1001
0000
0100
0100
,
0110
0000
1010
0000
,
1001
0000
0001
0100
,
0110
0000
0101
0000
,
1010
0000
1000
0001
,
0110
0001
0001
0001
,
0100
0000
0000
M0MM
0M00
0000
0000
0000
,
1000
0000
0100
0000
1000
0000
0001
1000
,
0000
0000
0001
0001
,
1000
0000
0100
0000
0010
0000
0100
1000
,
0000
0000
0100
0100
,
0101
0000
0000
0100
0000
0100
0000
0000
,
1100
0000
0000
0000
0100
1000
0100
0000
,
1000
0000
0000
0100
0000
0010
0000
0000
,
0011
0000
1100
0000
,
0001
0000
0000
0100
0000
0100
0000
0000
,
1100
0000
0000
0000
0100
1000
0010
0000
,
1000
0000
1000
0100
0000
0100
0000
0000
,
0110
0000
0010
0100
,
0010
0000
0000
0001
0000
0001
0000
0000
,
1000
0000
1100
0011
,
0101
0000
0000
0100
0000
0010
0000
0000
,
1000
0100
1000
0000
0001
0100
0001
0000
,
1000
0100
0010
0001
,
0100
0010
1000
1000
,
0001
1000
0100
0010
,
0110
0000
0000
0001
0000
0001
0000
0000
,
0101
0000
0000
0001
0000
0100
0000
0000
,
0001
0000
0000
1000
0000
0100
0000
0000
,
0010
0000
0000
0100
0000
0010
0000
0000
,
0001
0000
0000
1000
0000
0100
0000
0010
,
0022
0000
0000
0033
,
0202
0000
0000
0303
,
2000
3000
0002
0003
,
0200
0300
0020
0030
,
0220
0000
0000
0330
,
2002
0000
0000
3003
,
1000
0100
0010
0001
,
2000
0000
3000
0000
,
0001
0100
0010
1000
,
0001
1000
0100
0010
,
0100
1000
0001
1000
,
0010
1000
0100
0010
,
0001
0100
0010
0100
,
0001
0100
0010
1000
,
0001
1000
0001
0100
,
0002
0000
0203
0000
,
0300
0100
0010
0000
0000
0100
0001
0000
,
0000
0001
1000
0000
0000
1000
0010
0000
,
0000
0010
0100
0000
0000
0100
0010
0000
,
0000
1000
0010
0000
0000
0010
0100
0000
,
0100
0001
1000
0001
,
0100
0010
1000
1000
,
0001
0100
0010
0100
,
0002
0000
1003
0000
,
0110
0000
0100
0010
0000
0000
0000
0000
,
1001
0000
1000
0001
0000
0000
0000
0000
,
0110
0000
0000
0010
0000
0100
0010
0100
,
0010
0000
0000
0000
,
1100
0000
0100
0010
0000
0000
0000
0000
,
0110
0000
0001
1000
0000
0000
0000
0000
,
1100
0000
0000
0100
0000
0100
0010
0100
,
0010
0000
0000
0000
;

//---------------dance-single - Blank----------------
#NOTES:
     dance-single:
     Blank:
     Easy:
     4:
     0.368,0.459,0.113,0.283,0.000,269.000,14.000,35.000,0.000,0.000:





0000
0000
0000
0000
,
0000
0000
0000
0000
,
0000
0000
0000
0000
,
0000
0000
0000
0000
,
1000
0001
1000
0000
,
0100
0010
0100
0000
,
0010
0001
0100
0000
,
0200
0300
0000
0000
,
0010
0100
0010
0100
,
0001
0100
0010
1000
,
0100
0010
0001
0100
,
0010
0100
0010
0100
,
0010
0100
0010
1000
,
0010
0100
0010
1000
,
0100
0010
0100
0010
,
0001
1000
2000
0000
,
3001
0100
0100
0100
,
0010
0010
0020
0000
,
1030
1000
1000
0100
,
0200
0000
0300
0000
,
0010
0100
0010
0001
,
0100
0010
1000
0001
,
0100
0010
1000
0100
,
0020
0000
0000
0000
0130
0010
0100
0000
,
2000
3000
0200
0300
,
0020
0030
0002
0003
,
0001
0100
0001
0010
,
0200
0300
0000
0000
,
1001
1000
0001
1000
,
0110
0100
0010
0100
,
1001
0001
1000
0001
,
0110
0000
0000
0000
,
1000
0100
1000
0001
,
0100
0010
1000
0100
,
1000
0001
0100
0001
,
1000
0100
0010
0001
,
1001
1000
0001
0100
,
0010
0100
0001
0100
,
0010
0000
1000
0000
0001
0000
0010
0200
,
0000
0000
0010
0310
,
0001
0000
1000
0000
,
0100
0000
0010
0000
,
0100
0000
1000
0000
,
0001
0000
0100
0000
,
0010
1000
0001
0100
,
0020
0000
0130
0100
,
0001
0100
0010
1000
,
0020
2030
3002
0203
,
0301
1000
0001
0100
,
0010
1000
0001
1000
,
0100
0010
0001
0010
,
0200
0000
0000
1000
0000
1300
0000
0000
,
0001
0100
0010
0100
,
0001
1000
0100
0010
,
0001
1000
0001
1000
,
0020
0000
0000
0100
0000
0100
0030
0000
,
2002
0000
0000
3003
,
0220
0000
0000
0330
,
0001
1000
0001
1000
,
0002
0000
0000
0003
,
0220
0000
0000
0330
,
2002
0000
0000
3003
,
0100
0010
0100
0010
,
0200
0000
0000
0300
,
0001
0100
0010
1000
,
0001
0100
1000
0100
,
0010
0100
0001
1000
,
0200
0000
0320
0000
,
0031
1000
0001
0100
,
0010
0100
0001
0000
,
1000
1000
0100
0100
,
0020
0000
0031
0000
,
1001
0001
1000
0001
,
0110
0100
0010
0100
,
1001
1000
0001
1000
,
0220
0330
1001
0100
,
0010
0100
0001
0001
,
1000
0001
0100
0100
,
0010
0100
0001
1000
,
0100
0100
0010
0001
,
1000
0001
0100
0000
,
0100
0010
1000
0000
,
0100
0010
0001
1000
,
0002
0003
0000
0000
,
0100
0010
1000
0000
,
0001
1000
0100
0000
,
0100
0010
0010
0001
,
2000
3000
0000
0000
;

//---------------dance-single - Blank----------------
#NOTES:
     dance-single:
     Blank:
     Beginner:
     1:
     0.127,0.246,0.057,0.000,0.000,103.000,7.000,0.000,0.000,0.000:







0000
0000
0000
0000
,
0000
0000
0000
0000
,
0000
0000
0000
0000
,
0000
0000
0000
0000
,
1000
0000
0000
0000
,
0001
0000
0000
0000
,
0100
0000
0000
0000
,
0010
0000
0000
0000
,
1000
1000
1000
0000
,
0001
0001
0001
0000
,
0010
0010
0010
0000
,
0100
0100
0100
0000
,
0001
0000
0001
0000
,
0001
0000
0001
0000
,
1000
0000
1000
0000
,
1000
0000
0000
0000
,
0100
0000
0000
0000
,
0010
0000
0000
0000
,
1000
0000
0000
0000
,
0001
0000
0000
0000
,
0010
0000
0000
0000
,
0100
0000
0000
0000
,
1000
0000
0000
0000
,
0001
0000
0000
0000
,
0001
0000
0000
0000
,
0001
0000
0000
0000
,
0100
0000
0000
0000
,
0100
0000
0000
0000
,
1000
0000
0000
0000
,
1000
0000
0000
0000
,
0001
0000
0000
0000
,
0001
0000
0000
0000
,
0100
0000
0000
0000
,
0010
0000
0000
0000
,
1000
0000
0000
0000
,
0001
0000
0000
0000
,
1001
0000
0000
0000
,
1000
0000
0000
0000
,
0001
0000
0000
0000
,
1000
0000
0000
0000
,
0110
0000
0000
0000
,
0001
0000
0000
0000
,
1000
0000
0000
0000
,
0010
0000
0000
0000
,
0100
0000
0000
0000
,
0100
0000
0000
0000
,
0100
0000
0000
0000
,
0010
0000
0000
0000
,
0010
0000
0000
0000
,
1000
0000
0000
0000
,
0001
0000
0000
0000
,
1000
0000
0000
0000
,
1000
1000
1000
0000
,
1000
1000
1000
0000
,
0001
0001
0001
0000
,
0010
0000
0000
0000
,
1001
0000
0000
0000
,
0001
0000
0000
0000
,
1001
0000
0000
0000
,
0110
0000
0000
0000
,
0001
0000
0000
0000
,
0001
0000
0000
0000
,
1000
0000
0000
0000
,
1000
0000
0000
0000
,
0100
0000
0000
0000
,
0001
0000
0000
0000
,
1000
0000
0000
0000
,
0010
0000
0000
0000
,
1001
0000
0000
0000
,
1000
0000
0000
0000
,
0110
0000
0000
0000
,
0010
0010
0010
0000
,
0000
1000
0000
0000
,
0000
1000
0000
0000
,
0000
0100
0000
0000
,
0000
0100
0000
0000
,
0000
0001
0000
0000
,
0000
0001
0000
0000
,
0000
0010
0000
0000
,
0000
0100
0000
0000
,
1000
0000
0000
0000
,
0001
0000
0000
0000
,
1000
0000
0000
0000
,
0001
0000
0000
0000
,
0100
0000
0000
0000
,
0010
0000
0000
0000
,
0100
0000
0000
0000
,
0010
0000
0000
0000
;

//---------------dance-double - Blank----------------
#NOTES:
     dance-double:
     Blank:
     Challenge:
     10:
     0.614,0.741,0.251,0.299,0.073,463.000,31.000,37.000,0.000,57.000:











00000000
00000000
00000000
00000000
,
00000000
00000000
00000000
00000000
,
00000000
00000000
00000000
00000000
,
00000000
00000000
00000000
00000000
,
10000000
00010000
10000000
00010000
00000000
10000000
00010000
01000000
,
00010000
00100000
00001000
00010000
00000000
00000000
00000000
00000000
,
00010000
00001000
00010000
00001000
00000000
00010000
00000100
00000010
,
00000001
00000000
00000000
00000000
,
00022000
00100000
00000010
00100000
,
00000010
00100000
00000010
00133000
,
02002000
00100000
00010000
00100000
,
00010000
00100000
00010000
03103000
,
22000000
00100000
00010000
00100000
,
00010000
00100000
00010000
33100000
,
00022000
00000000
00100000
00000010
00000000
00000010
00000000
00000010
,
00133000
00000000
00000000
00000000
00001000
01000000
00002000
00000000
,
10003000
10000000
01000000
00100000
00010000
01000000
00001000
00010000
,
00000100
00010000
00000010
00001000
00000001
00000100
00000010
00001000
,
00000100
00010000
00001000
00100000
00010000
01000000
00100000
10000000
,
00020000
00000000
00000000
00030000
,
10000000
01000000
00100000
00010000
00100000
00001000
00100000
00001000
,
01000000
00000100
00000010
00000001
00000010
00000100
00001000
00000001
,
00001000
00000100
00010000
00001000
01000000
00100000
10000000
00010000
,
02000000
00000000
00000000
00000000
00000000
00000000
00000000
03000000
,
00010000
00000000
10000000
01000000
00000000
01000000
00000000
01000000
,
00100000
00000000
00100000
00020000
00000000
00030000
00000000
00000000
,
00010000
00000000
00100000
00001000
00000000
00001000
00000000
00010000
,
00000200
00000300
00000000
00000000
,
00011000
00000000
00010000
00000100
00000000
00000100
00000000
00000100
,
00000010
00000000
00000010
00000002
00000000
00000003
00000000
00000000
,
00000001
00000000
00000100
00000010
00000000
00001000
00000000
00000100
,
00020000
00000000
00000000
00030000
00000000
00000000
00000000
00000000
,
00010000
00001000
00010000
00000100
00010000
00000010
00010000
00001000
,
00000000
00010000
00000000
00010000
00000100
00000000
00000010
00000000
,
00000001
00000100
00000010
00001000
00000100
00010000
00001000
01000000
,
00000000
00100000
00000000
10000000
01000000
00000000
01100000
00000000
,
00011000
00001000
00010000
00001000
00010000
00000100
00010000
00000010
,
00000000
00100000
00001000
00100000
00001000
00000000
00100000
00000000
,
00000010
00000100
00000001
00000010
00000100
00001000
00000001
00001000
,
00000000
00000000
00000000
00000100
00000010
00000000
00001001
00000000
,
00022000
00000000
00100000
00000010
00000000
00000010
00000000
00000010
,
00100000
00000000
00000000
00000000
00100000
00000010
00133000
00000000
,
00020200
00000000
00000010
00000001
00000000
00000001
00000000
00000001
,
00000010
00000000
00000000
00000000
00000010
00000001
00030310
00000000
,
00010000
00000000
00001000
00000000
00010000
00000000
00000100
00000000
00010000
00001000
00010000
00000000
00000100
00000000
00000010
00000000
,
00000000
00000010
00000000
00000010
00000001
00000000
00000011
00000000
,
00000001
00000000
00000010
00000000
00000100
00000000
00001000
00000000
00000100
00010000
00001000
00000000
00010000
00000000
00001000
00000000
,
01000000
00100000
10000000
01000000
00100000
01000000
00100000
00000000
,
00110000
00000000
00100000
00001000
00000000
00001000
00000000
00001000
,
01000000
00000000
00000000
01000000
00000000
00100000
00000000
00000000
,
00011000
00000000
00010000
00001000
00000000
00001000
00000000
00001000
,
01000000
00000000
00000000
01001000
00000000
10100000
00000000
01000000
,
00100000
10000000
01000000
00100000
00010000
00100000
00001000
00010000
,
00000100
00000000
00000010
00000000
00000001
00000000
00000010
00000000
00000100
00001000
00000100
00000000
00001000
00000001
00001000
00000000
,
00000001
00000100
00000010
00001000
00000010
00010000
00001000
01000000
,
00100000
10000000
00010000
10000000
00010000
01000000
00001000
00100000
,
00000200
00000000
00002300
00000000
,
00003002
00000203
00000320
00002030
00003000
00000000
00000000
00000000
,
00000202
00001000
00000010
00001000
,
00000010
00000010
00001000
00001000
00000303
00000000
00000000
00000000
,
00022000
00000000
00000000
00100000
00000010
00100000
00000000
00100000
,
00000010
00100000
00000010
00100000
00000000
00000000
00033000
00000000
,
00110000
11000000
01010000
00011000
,
00010000
00000100
00000010
00000002
00000000
00000000
00000000
00000000
,
00000103
00000000
00000010
00000000
00001000
00000100
00001000
00000000
00000001
00000000
00000100
00000000
00000010
00000000
00001000
00000010
,
00001000
00000001
00001000
00000000
00000100
00000000
00000010
00000000
00000001
00000000
00000010
00000000
00000100
00001000
00000100
00000000
,
00000010
00000000
00000001
00000000
00001000
00000000
00001000
00000000
00000010
00001000
00000001
00001000
00000010
00000000
00001000
00000000
,
00000100
00010000
00001000
00010000
00000100
00010000
00011000
00000000
,
01010000
00000000
00010000
00000000
00010000
00000000
00010000
00000000
10000000
01000000
10000000
00000000
00010000
00000000
01000000
00000000
,
00010000
00000000
01000000
00000000
00100000
10000000
00010000
01000000
00100000
00000000
10000000
00000000
01000000
00000000
01000000
00000000
,
00100000
00010000
00001000
01000000
00010000
01000000
00001000
00011000
,
00000000
00010010
00000000
00000000
00022000
00000000
00033000
00000000
,
00010000
00000000
00000100
00000000
00010000
00000000
00000010
00000000
00010000
00000100
00010000
00000000
00000100
00000000
00000010
00000000
,
00000000
00000001
00000100
00000010
00001000
00000001
00001000
00000100
,
00000010
00000001
00000100
00000000
00000010
00000000
00000100
00000000
00000010
00000000
00001000
00000000
00000001
00000000
00002000
00000000
,
00000000
00003100
00000000
00000000
00000011
00000000
00000101
00000000
,
00000001
00000000
00000100
00000000
00000010
00000000
00001000
00000000
00000100
00010000
00001000
00000000
00010000
00000000
00010000
00000000
,
00000000
00010100
00000000
00000010
00000010
00000000
00000001
00000000
,
00000010
00000000
00000010
00000000
00000001
00000100
00000010
00001000
00000001
00000000
00000100
00000000
00000000
00000000
00000010
00000000
,
00000000
00000020
00000000
00000000
00000032
00000000
00000000
00000003
,
00000001
00000010
00001000
00000001
00000000
00000001
00000100
00000001
,
00001000
00000100
00010000
00001000
00000000
00000000
00000000
00000000
,
00100000
00001000
00010000
00001000
00000000
00010000
00000100
00000010
,
00000001
00000000
00000000
00000000
,
00011000
00010000
00000100
00000010
00000000
00000010
00000001
00000010
,
00000001
00001000
00000100
00010000
00000000
00000000
00000000
00000000
,
00000100
00010000
00001000
00100000
00000000
00100000
00001000
01000000
,
02020000
03030000
00000000
00000000
;

//---------------dance-double - Blank----------------
#NOTES:
     dance-double:
     Blank:
     Medium:
     7:
     0.408,0.563,0.348,0.218,0.000,283.000,43.000,27.000,0.000,6.000:


00000000
00000000
00000000
00000000
,
00000000
00000000
00000000
00000000
,
00000000
00000000
00000000
00000000
,
00000000
00000000
00000000
00000000
,
10000000
00000000
00000000
00010000
00000000
00000000
00000010
00000000
,
00000001
00000000
00000000
00000100
00000000
00000000
00000000
00000000
,
00000100
00000000
00000000
00000010
00000000
00000000
00010000
00000000
,
00000100
00000000
00000000
00000000
,
10010000
01100000
00011000
00000110
,
00001001
00000110
00010010
00000000
,
00011000
00010010
00010100
00000110
,
00010100
00000000
00000000
00000000
,
00002000
02003000
23000000
30200000
,
00302000
00023000
00032000
00003000
,
00011000
01000000
00000100
00100000
,
00000010
00000000
00000000
00000000
00010000
00001000
00010000
00000000
,
00001000
01000000
00100000
01000000
,
00100000
10000000
00100000
01000000
00000000
00000000
00000000
00000000
,
00000100
00000000
00000010
00000000
00000010
00000000
00000001
00000100
,
00000001
00000000
00000000
00000000
,
01000000
00010000
00100000
00001000
,
01000000
00100000
10000000
00010000
01000000
00000000
00000000
00000000
,
01000000
00000000
00001000
00000000
00100000
00000000
00000100
00000010
,
00000100
00000000
00000000
00000000
00001000
00000100
00001000
00000000
,
00020200
00000000
00000000
00030300
,
02002000
00000000
00000000
03003000
,
00010000
00001000
00010000
00001000
,
00000010
00000000
00000001
00000000
00000010
00000001
00000010
00000000
,
00000001
00001000
00000100
00000010
,
00000001
00000000
00001000
00000000
00000100
00010000
00001000
00000000
,
01000000
00001000
00000010
00000001
,
00000110
00000000
00000000
00000000
,
00010000
00001000
00000010
00000001
,
00000001
00000100
00000010
00000010
,
00010000
00001000
01000000
01000000
,
00100000
10000000
01000000
01000000
,
00100000
00001000
00010000
00010000
,
00000100
00001000
00000001
00000001
,
00000100
00000010
00010000
00010000
,
00001000
00000000
01001000
00010100
,
00010000
00000100
00010000
00000000
00010000
00000010
00010000
00000000
,
00000001
00000100
00000001
00000000
00001001
00000000
00000110
00000000
,
00001000
00000100
00010000
00000000
00001000
01000000
00100000
00000000
,
00100000
01000000
00100000
00000000
10010000
00000000
01100000
00000000
,
10000000
01000000
01000000
00100000
,
00001000
01000000
00100000
00100000
,
10000000
00010000
10000000
01000000
,
00020000
00000000
00030200
00000000
,
00000310
00000000
00000000
00000001
00000000
00000001
00000000
00000000
,
00000100
00000000
00000000
00000010
00000000
00001000
00000000
00000000
,
00000100
00000000
00000000
00010000
00000000
00001000
00000000
00000000
,
01000000
00000000
00000000
00100000
00000000
10000000
00000000
00000000
,
22000000
00000000
00000000
00100000
00000000
33010000
00000000
00000000
,
02020000
00000000
00000000
10000000
00000000
03130000
00000000
00000000
,
00022000
00000000
00000000
00100000
00000000
00033010
00000000
00000000
,
00011000
00000000
00000000
00000100
00000000
00010000
00000000
00000000
,
00202000
00000000
00000000
00303000
,
00020020
00000000
00000000
00030030
,
00100000
00001000
01000000
00000000
01000000
00100000
01000000
00000000
,
01000000
00001000
00010000
00000010
00000000
00000000
00000000
00000000
,
00002002
00000000
00000000
00003003
,
00002200
00000000
00000000
00003300
,
00001000
00000100
00000010
00000001
,
00001000
00000001
00001000
00000110
,
00001001
00000001
00000001
00000001
,
00001000
00001000
00001000
00001000
,
00000100
00000100
00000100
00000100
,
00010000
00000000
00010000
00000000
,
00000100
00000010
00000001
00000010
,
00000100
00001000
00000010
00010000
,
00001000
01000000
00010000
00100000
,
00001000
00000000
00010000
00000000
,
00000100
00000110
00000100
00001100
,
00001000
00001001
00001000
00001010
,
00000010
00001010
00001000
00010100
,
00010000
01001000
00011000
00010100
,
00000100
00000010
00000001
00000010
,
00000100
00000010
00000100
00010000
,
00000100
00010000
00001000
01000000
,
00100000
10000000
10010000
00000000
,
01000000
00000000
00000000
00001000
00000000
00000000
00100000
00000000
,
00001000
00000000
00000000
01000000
00000000
00000000
00000000
00000000
,
00010000
00000000
00000000
01000000
00000000
00000000
00001000
00000000
,
00010000
00000000
00000000
00000000
,
00000100
00000000
00000000
00000010
00000000
00000000
00000001
00000000
,
00000100
00000000
00000000
00000010
00000000
00000000
00000000
00000000
,
00001000
00000000
00000000
00000100
00000000
00000000
00010000
00000000
,
00011000
00000000
00000000
00000000
;

//---------------dance-double - Blank----------------
#NOTES:
     dance-double:
     Blank:
     Hard:
     9:
     0.474,0.529,0.388,0.170,0.000,341.000,48.000,21.000,2.000,0.000:












00000000
00000000
00000000
00000000
,
00000000
00000000
00000000
00000000
,
00000000
00000000
00000000
00000000
,
00000000
00000000
00000000
00000000
,
00100000
00001000
01000000
00200000
00000000
00000000
00000000
00300000
,
00000000
00000000
00000000
00000000
,
01000000
00010000
10000000
01000000
00000000
01000000
00100000
01000000
,
00000000
00000000
00000000
00000000
,
00011000
00000000
00100000
00110000
00000000
00100000
00002000
00010000
,
00000000
00010000
00013000
01000000
,
01100000
00000000
01000000
01010000
00000000
10000000
00010000
01000000
,
00002000
00010000
00013000
00000000
,
00000001
00000000
00000100
00000010
00000000
00000100
00001000
01000000
,
00000000
01000000
01000000
00000000
,
10010000
00000000
01000000
01001000
00000000
00010000
00000100
00000010
,
00000001
00000000
00000000
00000000
00000100
00000010
00000200
00000000
,
00000301
00000000
00000001
00000100
00000000
00000100
00000010
00000100
,
00000001
00000000
00000001
00001000
00000000
00000000
00000000
00000000
,
00000100
00000000
00000100
00010000
00000000
00010000
00001000
00100000
,
00001000
00000000
00000000
00000000
00100000
00010000
00100000
00000000
,
00011000
00000000
00010000
00000100
00000000
00000100
00000010
00000100
,
00000010
00000000
00000001
00000100
00000000
00000000
00000000
00000000
,
00000100
00000000
00000010
00010000
00000000
00001000
00010000
00001000
,
00010000
00000000
01100000
00011000
,
00010000
00000100
00000010
00000001
,
00000010
00000000
00000100
00000000
00001000
00000001
00001000
00000000
,
00000110
00000001
00001000
00000100
,
00010000
00000000
00001000
00000000
00010000
00001000
00010000
00000000
,
00010100
00000000
00000100
00000010
00000000
00000010
00000000
00000010
,
00000001
00000000
00000001
00000100
00000010
00000010
00000010
00000000
,
00000101
00000000
00000001
00000100
00000000
00000100
00000000
00000100
,
00001000
00000000
00000000
0000M000
00000000
0000M000
00000000
00000000
,
00001001
00000000
00000001
00000000
00000000
00000100
00000110
00000000
,
00000100
00000010
00001000
00000000
00000000
00000100
00010000
00000000
,
00011000
00000000
00010010
00000000
00000000
00001000
00011000
00000000
,
00001000
01000000
00100000
00000000
00000000
01000000
01100000
00000000
,
01010000
00000000
10100000
00000000
00000000
10000000
11000000
00000000
,
01000000
00100000
00010000
00000000
00000000
01000000
00001000
00000000
,
00011000
00000000
00101000
00000000
00000000
00100000
01100000
00000000
,
01000000
10000000
00010000
00000000
00000000
00010000
01010000
00000000
,
01000000
00000100
00000010
00000001
00000010
00000100
00001000
00000001
,
00000000
00000001
00000000
00000001
00000100
00000000
00000100
00000000
,
00000100
00000010
00001000
00000100
00010000
00001000
00010000
00000100
,
00000000
00001000
00000000
00000001
00000100
00000000
00000110
00000000
,
00001000
00000100
00000010
00000001
,
00000100
00000010
00001000
00000000
00001000
00000000
00000100
00000000
,
00000010
00000000
00000001
00000000
00000100
00000010
00001000
00000100
,
00000020
00000030
00000002
00000003
00000200
00000300
00000020
00000030
,
00010000
00000000
00010000
00000100
00000000
00000100
00000010
00000100
,
00000010
00000000
00000010
00000001
00000000
00000000
00000000
00000000
,
00000100
00000000
00000010
00010000
00000000
00010000
00001000
01000000
,
00100000
00000000
00000000
10010000
00000000
01100000
00000000
00000000
,
10000000
01000000
00100000
00000000
00100000
00010000
00100000
00000000
,
00001000
01000000
00001000
00000000
00010000
00000100
00000010
00000000
,
00000010
00000001
00000010
00000000
00000001
00000100
00000010
00010000
,
00001000
00000000
00000000
00011000
00000000
01100000
00000000
00000000
,
20000000
00000000
00000000
00000000
00000000
30000000
02000000
00000000
00000000
00000000
03000000
00000000
,
00100000
00001000
01000000
00100000
00000000
00000000
00000000
00000000
,
10010000
01010000
00011000
00101000
,
00001000
00010000
00000100
00000010
00000000
00000000
00000000
00000000
,
00000002
00000000
00000000
00000003
00000200
00000000
00000000
00000310
,
00001000
00000010
00000100
00000010
00000000
00000000
00000000
00000000
,
00001001
00010100
00101000
01010000
,
10000000
01000000
00100000
00010000
00000000
00000000
00000000
00000000
,
00011000
00000000
01010000
00000000
,
00011000
00000000
00000110
00001000
,
00000101
00000000
00001100
00000000
,
00011000
00000000
00110000
00100000
,
00010100
00001000
00000100
00000010
,
00000001
00000000
00000100
00000000
00000010
00000000
00001000
00000100
,
00001000
00000100
00010000
00001000
,
01000000
00100000
10000000
00010000
01000000
00000000
01010000
00000000
,
02000000
00000000
00000000
00000000
00000000
00000000
03000000
00020000
,
00000000
00000000
00000000
00000000
,
00030020
00000000
00000000
00000000
00000000
00000000
00000030
00000001
,
00000000
00000200
00000000
00000000
00000010
00000300
00001000
00000000
,
00000002
00000000
00000000
00000000
00000000
00000003
00000000
00002000
,
00000000
00000000
00000000
00000000
00000000
00003000
00000000
00000000
,
00200000
00000000
00000000
00000000
00000000
00300000
00000000
20000000
,
00000000
00000000
00000000
00000000
01000000
30000000
01000000
00000000
,
00100000
00000000
00100000
00001000
00000000
00001000
00010000
00000100
,
00000010
00000000
00000010
00000001
00000000
00000000
00000000
00000000
,
00000001
00000000
00000001
00000100
00000000
00000100
00000010
00001000
,
00000010
00000000
00000000
00000000
,
00010000
00000000
00010000
00000100
00000000
00000100
00000010
00000100
,
00000010
00000000
00000010
00000001
00000000
00000000
00000000
00000000
,
00000001
00000000
00000001
00000100
00000000
00000010
00001000
00000010
,
00002000
00003000
00000000
00000000
;

//---------------dance-double - Blank----------------
#NOTES:
     dance-double:
     Blank:
     Easy:
     3:
     0.358,0.387,0.186,0.146,0.000,269.000,23.000,18.000,0.000,0.000:



00000000
00000000
00000000
00000000
,
00000000
00000000
00000000
00000000
,
00000000
00000000
00000000
00000000
,
00000000
00000000
00000000
00000000
,
10000000
00010000
10000000
00000000
,
00001000
00010000
00001000
00000000
,
00001000
01000000
00001000
01000000
,
01000000
00000000
00000000
00000000
,
10010000
01000000
00100000
01000000
,
00010000
00100000
00001000
00000010
,
00000001
00000100
00000001
00001000
,
00000100
00010000
00001000
01000000
,
00200000
10000000
10000000
10300000
,
20000000
00010000
00010000
30010000
,
00000020
00000001
00000001
00000031
,
00000100
00000000
00000020
00001030
,
00001001
00000100
00000010
00001000
,
00000100
00010000
00001000
00000000
,
00011000
00000100
00000010
00000001
,
00000010
00000000
00000200
00001300
,
00000001
00000010
00000100
00001000
,
00010000
00100000
01000000
10000000
,
10010000
01000000
00100000
01000000
,
10010000
00000000
00020000
00031000
,
00000100
00000010
00000001
00000010
,
00000100
00001000
00000002
00000103
,
00000101
00000100
00000010
00000100
,
00000010
00001000
00000100
01000000
,
00100000
01000000
00100000
10000000
,
10000000
01000000
00100000
00010000
,
10010000
10000000
10000000
10000000
,
10010000
00000000
00000000
00000000
,
00010000
00000000
00000000
00000000
00000000
00000000
01000000
00001000
,
00000000
00000000
00000010
00000010
,
00001001
00000000
00000000
00000000
00000000
00000000
00000100
00010000
,
00000000
00000000
00010000
00010000
,
01100000
00000000
00000000
00000000
00000000
00000000
01000000
00100000
,
00000000
00000000
00010000
00010000
,
10000000
00000000
00000000
00000000
00000000
00000000
01000000
00100000
,
00000000
00000000
10010000
10010000
,
00010000
01000000
00001000
00010000
,
00000100
00000000
00000010
00000010
,
00000001
00001000
00000100
00000010
,
00000001
00000000
00001000
00001000
,
00000100
00000010
00000100
00000001
,
00000100
00000000
00000010
00000010
,
00000001
00000100
00000010
00001000
,
00100000
00100000
01000000
01000000
,
10010000
00000000
00000000
00010000
00000000
00010000
00000000
00000000
,
00011000
00000000
00000000
00001000
00000000
00001000
00000000
00000000
,
00000110
00000000
00000000
00000010
00000000
00000010
00000000
00000000
,
00001001
00000000
00000000
00000100
00000000
00000010
00000000
00000000
,
00000110
00000100
00000001
00000100
,
00000010
00001000
00000100
00000010
,
00000001
00000100
00010000
00100000
,
01000000
00000000
00000000
00100000
00000000
00100000
00000000
00000000
,
20020000
00000000
00000000
30030000
,
02200000
00000000
00000000
03300000
,
00022000
00000000
00000000
00033000
,
00000220
00000000
00000000
00000330
,
00000002
00000000
00000000
00000003
,
00000200
00000000
00000000
00000300
,
00000020
00000000
00000000
00000030
,
00001000
00000100
00000010
00000001
,
00000100
00000010
00010000
00000100
,
01000000
00000000
00100000
00100000
,
10000000
01000000
00100000
00010000
,
01000000
00000000
00001000
00001000
,
01000000
00100000
01000000
00010000
,
01000000
00000000
10010000
01100000
,
01000000
00100000
10000000
01000000
,
00100000
00010000
01000000
00001000
,
00001000
00010000
00000100
00000010
,
00000001
00000010
00000100
00001000
,
00000001
00001000
00000100
00000010
,
00000100
00000100
00001000
00000010
,
00010000
00000100
00010000
00001000
,
01000000
00001000
00100000
00010000
,
10000000
01000000
00100000
00001000
,
00010000
00010000
00010000
00000000
,
00001000
00010000
00001000
00000000
,
00001000
01000000
00100000
00000000
,
00100000
10000000
01000000
00100000
,
00100000
00000000
00000000
00000000
,
01000000
00100000
01000000
00000000
,
00100000
00001000
01000000
00000000
,
00010000
00000010
00000010
00000001
,
00001000
00000000
00000000
00000000
;
