#TITLE:Cry For Eternity;
#SUBTITLE:Inhuman Rampage (2006);
#ARTIST:Dragonforce;
#TITLETRANSLIT:;
#SUBTITLETRANSLIT:;
#ARTISTTRANSLIT:;
#CREDIT:;
#BANNER:Cry For Eternity.png;
#BACKGROUND:Cry For Eternity-bg.png;
#LYRICSPATH:;
#CDTITLE:!ElectricWerewolf.png;
#MUSIC:Dragonforce - Cry For Eternity.mp3;
#OFFSET:-0.255;
#SAMPLESTART:112.180;
#SAMPLELENGTH:12.000;
#SELECTABLE:YES;
#BPMS:0.000=139.930,96.000=200.000,928.000=170.000,1024.000=200.000;
#STOPS:;
#BGCHANGES:;
// cache tags:
#FIRSTBEAT:0.000;
#LASTBEAT:1570.000;
#SONGFILENAME:Songs/Astronomic Metal Collection/Cry For Eternity (ElectricWerewolf)/Cry For Eternity.sm;
#HASMUSIC:1;
#HASBANNER:1;
#MUSICLENGTH:492.669;
// end cache tags

//---------------dance-single - ----------------
#NOTES:
     dance-single:
     :
     Hard:
     13:
     1.000,1.000,1.000,0.205,1.000,4281.000,796.000,101.000,0.000,0.000:
1001
0100
0010
0100
1000
0001
0010
1000
0010
0001
0100
0010
1000
0100
0010
0001
,
0001
0100
1000
0100
0001
1000
0010
1000
0001
0010
0100
0010
1000
0010
0100
1000
,
1001
0010
0100
0001
0100
0001
1000
0010
0100
0001
1000
0100
0010
0001
0100
0010
,
0010
1000
0100
1000
0010
1000
0100
0001
0100
1000
0010
1000
0001
0100
0001
1000
,
1001
0100
0001
0100
0010
0100
1000
0100
0010
0100
0001
0100
1000
0010
1000
0001
,
0001
0100
0010
1000
0001
0100
0010
0100
0001
0100
0010
1000
0100
0010
0001
1000
,
1001
0010
0100
0001
1000
0100
0010
0100
0001
0100
0010
0100
1000
0001
0010
0100
,
0100
0010
0001
1000
0001
0010
1000
0010
0001
0100
1000
0100
0010
1000
0001
1000
,
1000
0100
0010
0100
0001
0100
0010
0001
1000
0010
0100
0001
0010
0100
0010
0001
,
0001
0100
0010
1000
0001
1000
0100
0010
0001
0100
0001
1000
0010
0100
0001
0100
,
0100
0010
1000
0100
0010
0001
1000
0010
0100
0001
0010
0100
1000
0001
0100
0010
,
0010
0100
0001
0010
0100
1000
0010
0100
0001
1000
0100
0010
0001
0100
0001
1000
,
1000
0100
0010
1000
0010
0001
0100
0010
1000
0001
0010
0100
0010
0100
1000
0010
,
0010
0100
0010
1000
0001
1000
0100
1000
0001
0010
0100
1000
0010
0100
0010
1000
,
1000
0100
0010
0100
1000
0001
0010
1000
0010
0001
0100
0010
1000
0010
0100
0001
,
0001
0010
0100
0001
0100
0010
0001
0100
0010
1000
0100
1000
0010
0100
0001
0010
,
0110
0000
0100
0100
1000
0001
0100
0010
1010
0000
0001
0001
0010
0100
1000
0001
,
0101
0000
0010
0010
1000
0100
0010
0001
1001
0000
0010
0010
0100
0001
1000
0100
,
0110
0000
1000
1000
0010
0100
0001
0010
0110
0000
0100
0100
1000
0001
0100
0010
,
1010
0000
1000
1000
0001
0100
0010
1000
1100
0000
0010
0010
0001
0100
0010
1000
,
1001
0000
0001
0001
0100
0010
1000
0100
1100
0000
1000
1000
0010
0100
0001
0010
,
0110
0000
0100
0100
1000
0001
0100
0010
1010
0000
1000
1000
0100
0010
0001
0100
,
0110
0000
0001
0001
1000
0100
0010
0100
1100
0000
0010
0010
1000
0001
0010
0100
,
1100
0000
1000
1000
0010
0100
0001
0010
0011
0000
0100
0100
1000
0010
0100
0001
,
1001
0000
0001
0100
0001
0000
1000
0000
0010
0000
0100
0000
0010
0000
1000
0000
,
0011
1000
0100
0000
0010
0001
0100
0000
,
1010
0000
1000
0001
1000
0000
0100
0000
0010
0000
0001
0000
0100
0000
0010
0000
,
2100
0000
0000
0000
0000
0000
0000
0000
0001
0000
0000
0000
0000
0000
0000
0100
0000
0000
0000
0000
0000
0000
0000
0000
0020
0000
0000
0000
0000
0000
0000
0000
0000
0000
0000
0000
0000
0000
0000
0000
0000
0000
0000
0000
0000
3030
0000
0000
,
1001
0000
0100
0010
0001
0000
0100
0000
0010
0000
1000
0000
0010
0000
0100
0000
,
0011
0000
1000
0000
0001
0010
0100
1000
0010
0000
0100
0000
0001
1000
0010
0100
,
1010
0001
0100
0010
1000
0100
0010
0100
1000
0010
1000
0001
0010
0100
0010
0001
,
1100
0000
0010
0000
0001
0000
1000
0000
0000
0100
0000
0000
0011
0000
1000
0000
0100
0000
0010
0000
0000
0001
0000
0000
1010
0000
0000
0000
0000
0000
0101
0000
0000
0000
0000
0000
0110
0000
0000
0000
0000
0000
0000
0000
0000
0000
0000
0000
,
1001
0000
1001
0000
0100
1000
0011
0000
1001
0000
0011
0000
1100
0010
0001
0000
,
0110
0000
0110
0000
0001
0100
1010
0000
0110
0000
0101
0000
0101
0010
1000
0000
,
0101
0000
0101
0000
1000
0001
1100
0000
1100
0000
1010
0000
0110
1000
0101
0000
,
0011
0000
1010
0000
0101
0010
1001
0000
1000
0000
0011
0000
1100
0010
0001
0000
,
1010
0000
1010
0000
0100
1000
0101
0000
1010
0000
0101
0000
1010
0100
1001
0000
,
1010
0000
1010
0000
0100
0010
0101
0000
1010
0000
0101
0000
1100
0001
0010
0000
,
1001
0000
0001
0000
0100
1000
0011
0000
0010
0000
1000
0000
0101
0010
1000
0000
,
1100
0000
0011
0000
0100
0010
1001
0000
0001
0010
0001
0010
0100
0010
0100
0010
,
1001
0000
1001
0000
0100
0001
1010
0000
1001
0000
1010
0000
0110
1000
0001
0000
,
0101
0000
0101
0000
1000
0001
0110
0000
0101
0000
1100
0000
1100
0001
0010
0000
,
0001
0000
1001
0000
1001
0010
0100
0000
1001
0000
0110
0000
0011
1000
0011
0000
,
0011
0000
1010
0000
0110
1000
0101
0000
1000
0000
0011
0000
1000
0010
1000
0000
,
0101
0010
0001
0100
0010
0100
0001
1000
0100
1000
0010
0100
0010
1000
0100
0010
,
0001
1000
0001
1000
0010
0100
0001
1000
0010
0100
0001
1000
0001
1000
0010
0100
,
0001
0010
0001
0010
0100
1000
0010
1000
0001
0100
0010
1000
0001
0010
0100
1000
,
0102
0000
0010
0000
,
0100
0000
1000
0003
,
1001
0000
1000
0010
0100
0001
0010
0100
0010
0001
0100
0010
0100
0001
1000
0100
,
1000
0100
0010
0100
1000
0010
1000
0001
0010
0100
0010
0001
1000
0000
1000
0000
,
0010
0000
0010
0100
0001
1000
0100
0010
0100
1000
0001
0100
0001
0010
0001
0100
,
0010
0100
0001
1000
0010
0100
0010
1000
0100
0000
0100
0010
0001
0100
0010
0000
,
0100
0000
0100
0001
0100
0010
1000
0100
1000
0001
0010
0001
0100
0010
1000
0010
,
0100
0001
1000
0010
1000
0100
1000
0000
0010
0000
0000
0000
0100
0001
0100
0000
,
0010
0000
1000
0000
0001
0010
0100
0000
0010
0000
0001
0000
0100
0010
1000
0000
,
0001
0010
0100
1000
0100
0010
0001
0100
0010
1000
0001
0100
0010
0100
0001
1000
,
0011
0100
0001
1000
0001
0100
0001
1000
0001
1000
0001
0100
0001
1000
0001
1000
,
0010
0100
0001
0100
0001
0100
0010
0100
0001
0100
0001
0100
0010
0100
0001
0100
,
0010
1000
0010
1000
0001
1000
0001
1000
0010
1000
0001
1000
0001
1000
0010
1000
,
0010
0100
0010
0100
0010
1000
0010
0100
0010
1000
0010
0100
0010
0100
0010
1000
,
0001
0000
0100
0000
0010
1000
0001
0010
0100
1000
0100
0010
0001
0100
0001
0000
,
1000
0000
0100
0000
0010
0100
0010
0001
0100
0010
1000
0001
0010
0100
0010
0000
,
0001
1000
0001
1000
0100
0010
0100
0010
0001
0100
0001
0100
0010
1000
0010
1000
,
0001
0010
0100
1000
0001
0100
0010
1000
0010
0100
0010
0100
0010
1000
0100
0010
,
0101
0110
1010
0011
0110
0011
1100
0101
,
0110
1100
0011
1010
0101
0110
1010
0011
,
1000
0000
0101
0000
0010
1000
0001
0000
1000
0000
1100
0000
0001
0100
0010
0000
,
1000
0000
0011
0000
0100
0010
1000
0000
1000
0010
1000
0100
0010
0001
0100
0010
,
1001
0011
0110
0101
1010
0011
1100
0110
,
0101
1100
1010
0011
0110
1001
0101
0110
,
1010
0011
1100
0101
0110
1100
0011
1010
,
0100
0001
0010
0100
1000
0010
0100
0001
1000
0001
0010
0100
1000
0010
0100
0001
,
1010
0000
0000
0000
,
0101
0000
0000
0000
,
1001
0001
0101
0100
0110
0010
0011
0010
,
1010
1000
1100
1000
1001
0001
0101
0100
,
1100
0000
0000
0000
,
0011
0000
0000
0000
,
1001
0100
1100
1100
1100
1100
1100
1100
,
0011
0011
0011
0011
0011
0011
0011
0011
,
1001
0110
0110
0110
0110
0110
0110
0110
,
1000
0100
0010
0001
0100
0010
1000
0100
0010
0001
0100
0010
1000
0001
0010
0100
,
1001
0000
0011
0000
0100
0001
1000
0000
0010
0000
0101
0000
1000
0001
0100
0000
,
1010
0000
0101
0000
1000
0100
0010
0000
1000
0000
0101
0000
0010
1000
0001
0000
,
1010
0000
0101
0000
0010
1000
0010
0000
0100
0000
0011
0000
1000
0001
1000
0000
,
0101
0000
1001
0000
1000
0100
0010
0000
0001
0000
0101
0000
0001
0010
0001
0000
,
1001
0000
1010
0000
0001
0100
0010
0000
1000
0000
0101
0000
0010
0100
0010
0000
,
1001
0000
1100
0000
0010
0100
0001
0000
1000
0000
0101
0000
0001
0010
0001
0000
,
0101
0000
1100
0000
0001
1000
0001
0000
1000
0000
0011
0000
0100
0010
1000
0000
,
0011
0100
0001
1000
0100
0010
0100
1000
0010
0100
0001
1000
0100
0010
0100
1000
,
0101
0000
1010
0000
0001
0100
0010
0000
1000
0000
0101
0000
0001
1000
0100
0000
,
1010
0000
0011
0000
0010
0100
0001
0000
1000
0000
1100
0000
0001
0100
0001
0000
,
1010
0000
0011
0000
0010
0100
1000
0000
0001
0000
0101
0000
1000
0001
0100
0000
,
0110
0000
1001
0000
1000
0100
1000
0000
0010
0000
0101
0000
0010
1000
0100
0000
,
1001
0100
0010
0001
0100
0010
1000
0001
0010
0100
0010
0001
0100
0010
0100
0001
,
1000
0100
0010
0100
1000
0010
1000
0001
0100
0010
0100
0001
0010
0100
1000
0001
,
0110
0000
0000
0000
,
0000
0000
0000
0000
,
1001
0100
1000
0100
0010
0001
0010
0001
0100
0010
0100
0010
1000
0001
1000
0001
,
0010
0100
0010
0100
1000
0010
1000
0010
0100
0001
0100
0001
0010
0100
0010
0100
,
1000
0001
1000
0001
0010
0100
0010
0100
1000
0010
1000
0010
0100
0001
0100
0001
,
1000
0100
1000
0100
0010
0001
0010
0001
0100
0010
1000
0100
0010
0100
1000
0001
,
0100
0000
0010
0000
1000
0000
0001
0000
0010
0000
0100
0000
1000
0000
0000
0100
0000
0000
0010
0000
0000
0001
0000
0000
0100
0000
0010
0000
1000
0000
0100
0000
0010
0000
0001
0000
1000
0000
0000
0010
0000
0000
0100
0000
0000
0001
0000
0000
,
0010
0100
0010
0100
1000
0100
0010
0100
1000
0001
1000
0001
0100
0001
1000
0001
,
0100
0000
1010
0000
0001
0010
1100
0000
0011
0000
1010
0000
0101
0010
1001
0000
,
1000
0010
1000
0001
0010
0001
0100
0010
0100
0001
1000
0100
0010
0001
0100
0010
,
1001
0010
0100
1000
0001
0100
0010
1000
0001
0010
0100
1000
0001
0100
0010
1000
,
0001
0010
0100
1000
0001
0100
0010
1000
0001
0010
0100
1000
0001
0100
0010
1000
,
0100
0010
0001
1000
0100
0010
0001
0010
0100
1000
0010
1000
0100
0010
0001
0010
,
0100
1000
0010
1000
0100
0010
0001
0010
0100
0010
0100
1000
0010
1000
0001
0100
,
0001
0000
0010
0000
0100
0000
1000
0000
0000
0010
0000
0000
0100
0000
0001
0000
1000
0000
0010
0000
0000
0100
0000
0000
0010
0000
1000
0000
0001
0000
0100
0000
0000
0001
0000
0000
1000
0000
0100
0000
0010
0000
0001
0000
0000
0100
0000
0000
,
0001
0000
0010
0000
0100
0000
1000
0000
0000
0010
0000
0000
1000
0000
0010
0000
0100
0000
0001
0000
0000
0010
0000
0000
0100
0000
1000
0000
0001
0000
0010
0000
0000
0001
0000
0000
0100
0000
0010
0000
1000
0000
0001
0000
0000
0010
0000
0000
,
0001
1000
0110
0000
1000
0100
0011
0000
1010
0000
1001
0000
1010
0001
0110
0000
,
1000
0100
0010
0001
0010
0001
0100
0001
1000
0010
1000
0100
0010
0001
0100
0010
,
1001
0000
0020
0000
,
0230
0000
0000
0000
0000
0000
0000
0000
0000
0000
0000
0300
,
1001
0000
0001
0010
0100
0010
0100
1000
0010
1000
0001
0100
0001
0010
0100
0010
,
0001
0100
0010
1000
0100
0010
0001
0100
0001
1000
0100
1000
0001
0000
0001
0000
,
0100
0000
0100
0010
1000
0100
1000
0001
0010
0001
0100
0010
1000
0010
0100
0001
,
0010
0100
1000
0010
0100
0010
1000
0001
1000
0000
1000
0010
0100
0001
0010
0000
,
0100
0000
0100
1000
0010
1000
0001
0100
0010
0100
0001
0010
0100
1000
0010
0100
,
0001
0010
0001
1000
0100
1000
0010
0000
0100
0000
0000
0000
0001
0010
0001
0000
,
1000
0000
0010
0000
0100
0001
0100
0000
0001
0000
1000
0000
0100
0010
0100
0000
,
1000
0010
0100
0001
0100
0001
1000
0100
0010
0100
1000
0010
0100
0001
1000
0001
,
1100
0001
0100
0010
1000
0100
0010
0100
1000
0010
0100
0010
1000
0001
0010
0001
,
0100
0001
1000
0010
1000
0100
0010
0100
1000
0010
0100
0001
0010
0100
1000
0001
,
1000
0010
1000
0001
0100
0010
1000
0010
0100
0001
0010
0100
1000
0100
0010
0001
,
0100
0010
0100
0001
1000
0010
1000
0100
1000
0001
0010
0100
0010
0001
0100
0010
,
1000
0000
0100
0000
0010
0100
1000
0001
0100
0010
0100
0001
1000
0100
1000
0000
,
0010
0000
0100
0000
0001
1000
0001
0010
0100
1000
0010
0100
0010
1000
0100
0000
,
1000
0001
0100
0010
1000
0100
0010
0100
1000
0010
0100
0001
0010
0001
1000
0010
,
0100
0001
0100
0010
1000
0010
0100
0001
0100
0010
1000
0010
0100
0001
0010
0100
,
1001
0101
0110
1100
0011
1010
0101
0110
,
0101
1100
0110
0011
0110
1010
0011
1100
,
0001
0000
0011
0000
0100
0001
1000
0000
0010
0000
1100
0000
0001
0100
0001
0000
,
1000
0000
0011
0000
0100
0010
1000
0000
0001
0000
1001
0000
0010
0100
0001
0000
,
1010
0101
1100
0011
0110
0101
1010
0011
,
1100
0101
0110
1001
1010
0011
0110
1001
,
0101
0110
1100
0110
1001
1010
0011
0110
,
0101
0010
1000
0100
0010
0100
1000
0001
0100
0010
1000
0001
0010
0001
0100
0010
,
1001
0000
0000
0000
,
1001
0000
0000
0000
,
0100
0000
1010
0000
0001
1000
0010
0000
0100
0000
0011
0000
1000
0100
0010
0000
,
0001
0000
1100
0000
0010
0100
1000
0000
0001
0010
0100
1000
0001
0100
0010
1000
,
0110
0000
0000
0000
,
0110
0000
0000
0000
,
1001
0100
0101
0101
0101
0101
0101
0101
,
1010
1010
1010
1010
1010
1010
1010
1010
,
1001
0110
0110
0110
0110
0110
0110
0110
,
0001
1000
0001
1000
0001
1000
0001
1000
0001
1000
0001
1000
0010
0100
0001
0010
,
1100
0000
0011
0000
0100
0001
1000
0000
0010
0000
0101
0000
1000
0001
1000
0000
,
1001
0000
0110
0000
0001
0100
0010
0000
1000
0000
1010
0000
0100
0010
0001
0000
,
1100
0000
0110
0000
0001
1000
0010
0000
0100
0000
0011
0000
1000
0100
1000
0000
,
1010
0000
0101
0000
0010
0100
0001
0000
1000
0000
1100
0000
0010
0100
0010
0000
,
0101
0000
1010
0000
0001
0010
0001
0000
0100
0000
0110
0000
0010
1000
0010
0000
,
1001
0000
0011
0000
0100
0010
0100
0000
0001
0000
1010
0000
1000
0100
0010
0000
,
1100
0000
0011
0000
0001
0010
0100
0000
0010
0000
1010
0000
0001
0100
0001
0000
,
1010
0001
0100
0010
1000
0100
0010
0100
1000
0010
0100
0010
1000
0001
0010
0100
,
1001
0000
0110
0000
0001
0100
0001
0000
1000
0000
1100
0000
0010
0001
0010
0000
,
0110
0000
1010
0000
0001
0100
0001
0000
1000
0000
0011
0000
0100
0010
1000
0000
,
0110
0000
1001
0000
0001
0010
0001
0000
0100
0000
1010
0000
1000
0100
0010
0000
,
0011
0000
1001
0000
1000
0010
1000
0000
0001
0000
0110
0000
0010
1000
0100
0000
,
0011
0100
0001
1000
0100
0010
0100
1000
0010
1000
0001
0100
0001
0010
0100
0010
,
0001
1000
0100
1000
0010
0100
0010
1000
0001
0010
0100
1000
0001
0100
0010
1000
,
0110
0000
0000
0000
,
0000
0000
0000
0000
,
1001
0100
0001
0100
0010
1000
0010
1000
0001
0010
0001
0010
0100
1000
0100
1000
,
0001
0100
0001
0100
0010
1000
0010
1000
0100
0010
0100
0010
0001
1000
0001
1000
,
0010
0100
0010
0100
0001
0010
0001
0010
0100
1000
0100
1000
0010
0100
0010
0100
,
0001
1000
0001
1000
0100
0010
0100
0010
0001
0010
0100
1000
0010
0100
0010
1000
,
0001
0000
0100
0000
0010
0000
1000
0000
0000
0100
0000
0000
0010
0000
0000
0100
0000
0000
1000
0000
0000
0010
0000
0000
0100
0000
0000
0010
0000
0000
1000
0000
0000
0001
0000
0000
0010
0000
0000
0001
0000
0000
0100
0000
0000
0010
0000
0000
,
0100
0001
0010
0100
1000
0010
0100
0001
1000
0100
1000
0010
0100
0001
0010
0100
,
0010
0000
1100
0000
0010
0100
1001
0000
0011
0000
1010
0000
0011
0100
1001
0010
,
0100
1000
0100
1000
0001
0010
0100
1000
0001
0010
0100
1000
0100
1000
0010
0100
,
1001
0100
0010
0001
1000
0010
0100
0001
1000
0100
0010
0001
1000
0010
0100
0001
,
1000
0100
0010
0001
1000
0010
0100
0001
1000
0100
1000
0001
0010
0001
1000
0010
,
0100
0001
0010
0001
0100
0010
1000
0010
0100
0001
0010
0001
0100
0010
1000
0010
,
0100
0001
0010
0001
0100
0010
1000
0010
0100
0001
0010
0001
0100
0010
1000
0100
,
0010
0000
0100
0000
1000
0000
0001
0000
0000
0100
0000
0000
0010
0000
1000
0000
0001
0000
0100
0000
0000
0001
0000
0000
0010
0000
0100
0000
1000
0000
0001
0000
0000
0100
0000
0000
0010
0000
1000
0000
0001
0000
0100
0000
0000
0001
0000
0000
,
1000
0010
1000
0001
1000
0010
0100
0010
0100
0001
0100
0010
1000
0001
1000
0010
,
0100
0001
0110
0000
1000
0001
1100
0000
0110
0000
0011
0000
0110
0001
1100
0000
,
0001
0100
0010
1000
0100
1000
0001
0010
0001
0100
0010
1000
0010
0100
0001
1000
,
0220
0000
0000
0000
0000
0330
0000
0000
0000
0000
0000
0000
,
0001
0001
0010
0001
0000
0010
0000
0001
,
0000
0001
0000
0010
0001
0001
0010
0000
,
0010
0010
0100
0010
0000
0100
0000
0010
,
0000
0010
0000
0100
0010
0010
0100
0000
,
0100
0100
1000
0100
0000
1000
0000
0100
,
0000
0100
0000
1000
0100
0100
1000
0000
,
0010
0010
0100
0010
0000
0010
0000
0010
,
0100
0100
0010
0000
0020
0000
0000
0030
,
0001
0001
0010
0001
0000
0010
0000
0001
,
0000
0001
0000
0010
0001
0001
0010
0000
,
0010
0010
0100
0010
0000
0100
0000
0010
,
0000
0010
0000
0100
0010
0010
0100
0000
,
0100
0100
1000
0100
0000
1000
0000
0100
,
0000
0100
0000
1000
0100
0100
1000
0000
,
0010
0010
0100
0010
0000
0010
0000
0010
,
0100
0100
0010
0000
0020
0000
0000
0030
,
1001
1001
1100
0011
0110
1010
0110
0101
,
0101
0101
1100
0011
1100
0101
0110
1100
,
1100
1100
0110
0011
1010
0101
0110
1001
,
1001
1001
1100
0110
0011
1010
0110
0101
,
0101
0101
1010
0110
0011
1100
0110
1001
,
1001
1001
0101
1010
1001
1100
0110
0011
,
0011
0000
0011
0000
1001
0000
0011
0000
0110
0000
1100
0000
1010
0000
1000
0100
,
0010
0001
0010
0100
1000
0001
0010
0001
0100
0010
1000
0001
0100
0001
1000
0100
,
0011
0011
0110
1100
0101
1010
0110
1010
,
1010
1010
0101
1100
0011
0110
0011
1010
,
1010
1010
0101
0110
1001
0011
0110
1001
,
1001
1001
1001
0101
0101
0101
1010
0110
,
1001
1001
0110
0011
1100
0011
1010
0101
,
0101
0101
1100
0011
0101
1010
0101
0110
,
1000
0001
0100
0010
1000
0100
0010
0001
1010
0000
1010
0000
0100
0010
0100
0001
,
1000
0010
1000
0010
0100
0001
1000
0010
1000
0010
0100
0001
1000
0010
0100
0001
,
1010
1010
0101
1010
0011
0110
1100
0110
,
0011
0110
1100
0110
1001
1001
1010
0101
,
0101
0101
1010
1100
0011
1100
0101
0110
,
1010
0110
1010
1100
0011
0011
0110
1100
,
1100
1100
1001
1100
0011
1100
0110
1100
,
1010
0110
0101
0011
1001
1001
1010
0101
,
0101
0101
1100
0011
0110
0011
1100
0110
,
0010
1000
0001
0010
0100
0010
0001
0100
0010
0100
0001
0010
0001
1000
0010
0100
,
1001
1001
1010
0101
0110
1010
0110
0101
,
0101
0101
1100
0110
0011
0101
0110
1010
,
1001
1001
0110
1001
1010
0101
1010
0011
,
0011
0011
0110
0011
1010
1010
0110
0101
,
0101
0101
1010
0110
0011
1100
0110
1001
,
1001
1001
0101
1010
1100
0011
1100
0110
,
0001
1000
0010
0100
0010
1000
0001
0100
0001
1000
0100
0010
0100
1000
0010
0100
,
0001
0010
0001
0100
0010
0100
0001
1000
0100
0010
0001
0100
0010
1000
0100
0010
,
1001
0000
1000
1000
1000
0010
0100
0001
0010
0100
1000
1000
0010
0100
0001
1000
,
0101
0000
0000
0000
0001
0000
0001
0000
0001
0000
0010
0000
0100
0000
1000
0000
0010
0000
0100
0000
0001
0000
0010
0000
0001
0000
1000
0100
0010
0000
0000
0000
,
0011
0000
0010
0010
0010
0100
1000
0010
0100
0001
1000
0100
0010
0100
1000
0010
,
0101
1000
0010
0100
0001
0010
0100
0010
0001
0100
0010
1000
0100
1000
0001
0100
,
1010
0000
0010
0010
0010
0100
0010
0100
0001
1000
0100
0010
0100
1000
0010
1000
,
0011
0100
0010
0001
0010
0100
1000
0010
0100
0001
0100
0010
0100
0000
0000
0000
,
0110
0000
0010
0010
0010
1000
0010
0100
0001
1000
0100
0010
0100
1000
0010
0100
,
1001
0010
1000
0001
0100
0001
1000
0010
0100
0001
0010
0001
0100
0010
1000
0001
,
0200
0000
0000
0302
2003
0000
0000
0000
,
0000
0000
3002
0023
,
0032
0000
0000
0023
0000
0000
0230
0000
2300
0000
0000
3200
0000
0000
0320
0000
,
0230
0000
0000
0000
,
0310
0000
0001
0000
0010
0000
0100
0000
0000
0010
0000
0000
0100
0000
0000
1000
0000
0000
0001
0000
0000
0100
0000
0000
0001
0000
0000
1000
0000
0000
0100
0000
0000
0010
0000
0000
0001
0000
0000
0010
0000
0000
0100
0000
0000
0010
0000
0000
,
0010
0100
1000
0001
1000
0100
1000
0010
1000
0001
0100
0010
0100
0001
1000
0100
,
0020
0000
0000
0000
0000
0030
0020
0000
0000
0000
0000
0000
0032
0000
0000
0000
2003
0000
0000
0000
0000
0000
3200
0000
0000
0000
0000
0000
0320
0000
0000
0000
,
0031
0100
0001
1000
0110
1000
0001
0100
0001
1000
0110
1000
0001
0010
0100
1000
,
0020
0000
1000
0000
0230
0001
1000
0000
0320
0000
0001
2030
0000
0100
3002
0000
,
0023
0000
1000
0000
0000
0001
1000
0000
0032
0000
0100
2003
0000
0001
3020
0000
,
0230
0000
0001
0000
0000
1000
0010
0000
0302
0000
1000
0023
0000
1000
0130
0000
,
0200
0000
0010
0000
0000
0001
0010
0000
2300
0000
0100
0010
0000
0010
0100
0000
,
3020
0000
0100
0000
2030
0001
0100
0000
3020
0000
1000
0230
0000
0010
0302
0000
,
0023
0000
0100
0000
0000
0001
1000
0000
0032
0000
0010
0203
0000
1000
0320
0000
,
2030
0000
0001
0000
0000
0100
0010
0000
3002
0000
1000
0203
0000
1000
0310
0000
,
1000
0010
1000
0010
0100
0001
1000
0100
0011
0000
0011
0000
0010
0100
0010
0100
,
1001
0010
0100
0010
1000
0010
0100
0010
1000
0010
1000
0010
0100
0010
0100
0010
,
1001
1100
1001
0011
,
0110
0001
0010
0100
1000
0010
0100
0001
1000
0010
0100
0010
1000
0001
0010
0001
,
0100
0010
0100
0001
1000
0100
0010
0001
0100
0001
0010
0100
1000
0010
1000
0001
,
0100
0010
1000
0010
0100
0001
0010
0100
0010
0001
1000
0100
1000
0010
0100
0010
,
1000
0001
0100
0010
0100
0001
0010
0100
1000
0010
0100
0001
0100
0010
1000
0100
,
0010
0100
0010
0001
0100
0001
1000
0010
0100
0001
0100
0010
1000
0100
0010
0001
,
0100
0010
0100
0001
0010
0001
1000
0010
0100
0010
1000
0100
0010
0001
0100
0010
,
0100
0001
1000
0100
0010
0001
0010
0100
1000
0010
0100
0010
1000
0001
0010
0100
,
0010
0001
0100
0010
0100
0001
1000
0100
0010
0001
0010
0001
0100
0010
0100
0001
,
1000
0100
0010
0001
1000
0010
0100
0001
0100
0000
1010
0000
0001
0000
0011
0000
,
0001
0010
0100
1000
0001
0100
0010
1000
0100
0000
0110
0000
0001
0000
0011
0000
,
1100
1100
0001
0101
1100
0110
1100
0110
,
0011
0000
1010
0000
0001
1000
0010
0000
0120
0000
1000
0000
0001
0000
1000
0000
,
0130
1000
0100
0010
0001
0010
0001
0010
0100
1000
0100
0010
0001
0010
0001
0010
,
0100
1000
0010
0100
0001
1000
0100
1000
0012
0000
0010
0000
0010
0000
0010
0003
,
1000
0001
1000
0001
0100
0010
1000
0001
1000
0001
0100
0010
1000
0001
0100
0010
,
1001
0000
0000
0000
,
0011
0100
1000
0100
0010
0001
0010
0100
0010
0100
1000
0100
0010
0001
0010
0100
,
1000
0010
0100
0001
0010
0100
1000
0010
0100
0010
1000
0001
1000
0010
0100
0001
,
1000
0010
1000
0001
1000
0010
0100
0010
1000
0001
0100
0010
0100
0001
0100
0010
,
0100
0010
0100
0001
0100
0010
1000
0001
0100
0010
0100
0001
1000
0010
1000
0001
,
0100
0010
1000
0010
0100
0010
0100
0001
0001
1000
0001
0100
0010
0100
0001
0010
,
0100
0000
0100
0010
0100
1000
0001
1000
0100
0000
0100
0010
0100
1000
0001
1000
,
0100
1000
0100
0010
0001
0100
0010
0001
1000
0010
1000
0001
1000
0010
0100
0001
,
0010
0100
1000
0001
0100
0010
1000
0100
0010
0100
0010
0001
1000
0010
0100
0001
,
0110
0000
0101
0000
0000
0000
0012
0000
0000
0003
0201
0000
0000
0300
0110
0000
,
1010
0000
1100
0000
0000
0000
2100
0000
0000
3000
1200
0000
0000
0300
1100
0000
,
0101
0000
0000
0000
0000
0000
1010
0000
0000
0000
0000
0000
0000
0000
0000
0000
0000
0000
0102
0000
0000
0000
0000
0000
0000
0000
0000
0003
0000
0000
1010
0000
0000
0000
0000
0000
1000
0000
0002
0000
0000
0000
0000
0000
0000
0003
0000
0000
,
0011
1100
0000
0210
0000
0000
0000
0000
,
0310
0001
0010
0100
1000
0001
0100
0010
0010
1000
0001
0010
0100
0010
0001
0100
,
0010
1000
0001
0100
0001
1000
0100
0010
0100
1000
0010
0100
0001
0010
0100
1000
,
0101
0000
0000
0000
,
0000
0000
0000
0000
,
1100
0000
0000
0001
0000
0000
0100
0000
0000
0010
0000
0000
1000
0000
0000
0100
0000
0000
0010
0000
0001
0000
0100
0000
0010
0000
1000
0000
0001
0000
0010
0000
0000
0100
0000
0000
1000
0000
0000
0010
0000
0000
0100
0000
0000
0001
0000
0000
,
1000
0000
0000
0100
0000
0000
0010
0000
0000
0100
0000
0000
1000
0000
0000
0010
0000
0000
0100
0000
0001
0000
1000
0000
0100
0000
0010
0000
0001
0000
0100
0000
0000
0010
0000
0000
1000
0000
0000
0001
0000
0000
0010
0000
0000
0100
0000
0000
,
1000
0000
0000
0010
0000
0000
1000
0000
0000
0001
0000
0000
0100
0000
0000
0010
0000
0000
1000
0000
0100
0000
0010
0000
0001
0000
0010
0000
0100
0000
1000
0000
0000
0010
0000
0000
0100
0000
0000
0001
0000
0000
0010
0000
0000
0001
0000
0000
,
1000
0000
0000
0100
0000
0000
1000
0000
0000
0010
0000
0000
0100
0000
0000
0010
0000
0000
1000
0000
0001
0000
0010
0000
0100
0000
1000
0000
0010
0000
0100
0000
0000
0001
0000
0000
1000
0000
0000
0100
0000
0000
0010
0000
0000
0100
0000
0000
,
1000
0000
0000
0010
0000
0000
0100
0000
0000
0010
0000
0000
1000
0000
0000
0001
0000
0000
0010
0000
0100
0000
1000
0000
0001
0000
1000
0000
0100
0000
0010
0000
0000
0001
0000
0000
0100
0000
0000
0010
0000
0000
1000
0000
0000
0100
0000
0000
,
1000
0000
0000
0010
0000
0000
0100
0000
0000
0010
0000
0000
1000
0000
0000
0001
0000
0000
0100
0000
0010
0000
1000
0000
0001
0000
0010
0000
0100
0000
1000
0000
0000
0010
0000
0000
0100
0000
0000
0001
0000
0000
1000
0000
0000
0100
0000
0000
,
0010
0000
0000
0100
0000
0000
1000
0000
0000
0010
0000
0000
0100
0000
0000
0001
0000
0000
1000
0000
0100
0000
0010
0000
0001
0000
0010
0000
0100
0000
1000
0000
0000
0010
0000
0000
0100
0000
0000
0001
0000
0000
0010
0000
0000
0100
0000
0000
,
2020
0000
0000
3030
0202
0000
0000
0303
1100
0000
0011
0000
0220
0000
0000
0330
,
1001
0000
0010
1100
0001
0100
0011
0000
0100
0000
1010
0000
1001
0100
0010
0000
,
0011
0000
0100
0000
0010
1000
0001
0000
1010
0000
0100
0000
0011
1000
0001
0000
,
1001
0000
0100
0000
0010
1000
0101
0000
0010
0000
1000
0000
1100
0001
0010
0000
,
0110
0000
0001
0000
1000
0100
0011
0000
0001
0000
0100
0000
0010
1000
0010
0000
,
1001
0002
0203
0320
,
1030
0001
0010
0100
1000
0010
1000
0001
0100
0010
0100
0001
0010
0100
1000
0100
,
0010
0100
0010
0100
0010
0100
0010
0100
1000
0001
1000
0001
1000
0001
1000
0001
,
0100
0001
0100
0001
0100
0001
0100
0001
0020
0000
0130
0000
0020
0000
0130
0000
,
1000
0010
0100
0001
0010
0001
0100
0010
0100
0001
1000
0100
0010
0100
1000
0010
,
1000
0001
0010
0100
1000
0010
0100
0001
0100
0001
1000
0100
0010
0001
0100
0010
,
0100
0001
0010
0001
0100
0010
1000
0100
0010
0100
1000
0001
0010
0100
0010
0001
,
0100
0010
0100
0001
1000
0010
1000
0010
0100
0001
0100
0001
0010
0100
0010
0100
,
1000
0100
0010
0001
0100
0010
0100
0001
0010
0001
1000
0010
1000
0100
0010
0100
,
1000
0001
0100
0010
0100
0001
0010
0100
0010
0100
1000
0010
1000
0001
0100
0001
,
1000
0100
0010
0100
1000
0010
1000
0001
0010
0001
0100
0010
1000
0001
0010
0100
,
1000
0010
0100
0001
0010
0100
1000
0001
0100
0001
1000
0100
0010
0100
1000
0010
,
0202
0000
0000
0000
0000
0000
0000
0303
,
2020
0000
0000
0000
0000
0000
0000
3030
,
0220
0000
0000
0000
0000
0000
0000
0330
,
2002
0000
0000
0000
0000
0000
0000
3003
,
0022
0000
0000
0000
,
0000
0000
0000
0000
0000
0000
0000
0033
,
2200
0000
0000
0000
,
0000
0000
0000
0000
0000
0000
0000
3300
,
2020
0000
0000
0000
0000
0000
0000
3030
,
0202
0000
0000
0000
0000
0000
0000
0303
,
0022
0000
0000
0000
0000
0000
0000
0033
,
2200
0000
0000
0000
0000
0000
0000
3300
,
0220
0000
0000
0000
,
0000
0000
0000
0000
0000
0000
0000
0330
,
1001
0000
0000
0000
,
0000
0000
0000
0000
,
1100
0000
0000
0000
,
0011
0000
0000
0000
,
1010
0100
0101
0010
0011
1000
1001
0100
,
1100
0000
0010
0000
0110
0000
1000
0000
0001
0100
0001
1000
0100
0010
0001
0100
,
1010
0000
0000
0000
,
0101
0000
0000
0000
,
1001
0100
0011
0011
0011
0011
0011
0011
,
1100
1100
1100
1100
1100
1100
1100
1100
,
1001
1001
1001
1001
1001
1001
1001
1001
,
0010
0100
0010
1000
0001
0010
0100
1000
0010
0100
0001
1000
0100
1000
0010
0100
,
1001
0000
1010
0000
0001
0100
0001
0000
1000
0000
0011
0000
0100
0010
1000
0000
,
1001
0000
0110
0000
0001
0010
0100
0000
0010
0000
1010
0000
0001
0100
0001
0000
,
1100
0000
0110
0000
1000
0010
1000
0000
0001
0000
0011
0000
0100
0010
0100
0000
,
1010
0000
0101
0000
1000
0100
0010
0000
0001
0000
0101
0000
0010
1000
0001
0000
,
0011
0000
1100
0000
0100
0010
0100
0000
0010
0000
0011
0000
0100
0001
1000
0000
,
1010
0000
0101
0000
0010
0100
1000
0000
0001
0000
0101
0000
0010
0100
0001
0000
,
1001
0000
0101
0000
1000
0010
0100
0000
0001
0000
1010
0000
1000
0001
0100
0000
,
0011
0100
0001
1000
0100
0010
0100
1000
0010
1000
0001
0100
0010
0100
0001
0010
,
1100
0000
1001
0000
0001
0100
0010
0000
1000
0000
0011
0000
0100
0001
1000
0000
,
0101
0000
1010
0000
0100
0010
0001
0000
1000
0000
1001
0000
0010
0100
0001
0000
,
0011
0000
1100
0000
0010
0100
0010
0000
1000
0000
1100
0000
1000
0001
1000
0000
,
1001
0000
0011
0000
0100
0010
0001
0000
1000
0000
0110
0000
0100
0001
1000
0000
,
1001
0010
0100
0001
1000
0100
1000
0010
0100
0010
1000
0001
0010
0100
1000
0010
,
0100
0010
1000
0001
0010
0001
0100
0010
0100
0001
1000
0100
0010
0001
0100
0010
,
1001
0000
0000
0000
,
0000
0000
0000
0000
,
1001
0000
1001
0000
1001
0100
1001
0000
1001
0000
1001
0000
1001
0010
1001
0000
,
1100
0000
1001
0000
0100
0001
1100
0000
0001
0000
0101
0000
0010
1000
0001
0000
,
0110
0000
0110
0000
0101
1000
0110
0000
0001
0000
1010
0000
0001
1000
0110
0000
,
0001
0000
0101
0000
1001
0100
0010
0000
1000
0000
0010
0000
0100
0001
1000
0000
,
0001
0010
0001
0010
0100
0010
0100
0000
1000
0100
1000
0100
0010
0100
0010
0000
,
0001
0000
0000
0100
0000
0000
0010
0000
0000
1000
0000
0000
0001
0000
0010
0000
0100
0000
1000
0000
0010
0000
0000
0000
0100
0000
0000
0001
0000
0000
1000
0000
0000
0100
0000
0000
0010
0000
0100
0000
1000
0000
0001
0000
0100
0000
0000
0000
,
0010
0100
0001
1000
0100
0010
0100
1000
0010
0100
0001
1000
0001
0010
0100
1000
,
0011
0100
0001
1000
0100
0010
0001
0100
1010
0100
0001
1000
0100
1000
0010
0100
,
1001
0010
1000
0010
0100
0001
0100
0001
1000
0010
1000
0010
0100
0001
0100
0001
,
0010
0100
0010
0100
1000
0001
1000
0001
1000
0010
1000
0010
0100
0001
0100
0001
,
1000
0010
0100
0001
0010
0100
0010
0001
0100
0001
1000
0100
1000
0001
0100
0010
,
1000
0010
0100
0001
0010
0100
0010
0001
0100
0001
1000
0100
2000
0000
0000
3000
,
0110
0110
1100
0110
0000
0011
0000
2001
,
0000
3000
0101
0000
0110
0000
0101
0000
1000
0000
0101
0000
0101
0000
0101
0000
,
1000
0100
1000
0100
0010
0001
1000
0100
0010
0001
1000
0100
1000
0100
0010
0001
,
1000
0010
1000
0010
0100
0001
0010
0100
1000
0010
1000
0001
0010
0100
0010
0001
,
0110
0000
0000
0000
0000
0000
0000
0000
0000
0000
0000
0000
1000
0000
0000
0000
0000
0000
0001
0000
0000
0000
0000
0000
0100
0000
0000
0000
0000
0000
0000
0000
0000
0000
0000
0000
0001
0000
0000
0000
0000
0000
0000
0000
0000
0000
0000
0000
1000
0000
0000
0000
0000
0000
0000
0000
0000
0000
0000
0000
0100
0000
0000
0000
0000
0000
0000
0000
0000
0000
0000
0000
0010
0000
0000
0000
0000
0000
0000
0000
0000
0000
0000
0000
0100
0000
0000
0000
0000
0000
0010
0000
0000
0000
0000
0000
0001
0000
0000
0000
0000
0000
0000
0000
0000
0000
0000
0000
0100
0000
0000
0000
0000
0000
0000
0000
0000
0000
0000
0000
0010
0000
0000
0000
0000
0000
0000
0000
0000
0000
0000
0000
1000
0000
0000
0000
0000
0000
0000
0000
0000
0000
0000
0000
0100
0000
0000
0000
0000
0000
0000
0000
0010
0000
0000
0000
0000
0000
0000
0000
0001
0000
0000
0000
0000
0000
0000
0000
0100
0000
0000
0000
0000
0000
0010
0000
0000
0000
0000
0000
0000
0000
0000
0000
0000
0000
0000
0000
0000
0000
0000
0000
,
1000
0000
0000
0000
0000
0000
0000
0000
0100
0000
0000
0000
0000
0000
0000
0000
0010
0000
0000
0000
0000
0000
0000
0000
0001
0000
0000
0000
0000
0000
0000
0000
0010
0000
0000
0000
0000
0000
0000
0000
0100
0000
0000
0000
0000
0000
0000
0000
1000
0000
0000
0000
0000
0000
0000
0000
0100
0000
0000
0000
0000
0000
0000
0000
0010
0000
0000
0000
0000
0000
0000
0000
0001
0000
0000
0000
0000
0000
0000
0000
0100
0000
0000
0000
0000
0000
0000
0000
0010
0000
0000
0000
0000
0000
0000
0000
1000
0000
0000
0000
0000
0000
0000
0000
0100
0000
0000
0000
0000
0000
0000
0000
0010
0000
0000
0000
0000
0000
0000
0000
0001
0000
0000
0000
0000
0000
0000
0000
0010
0000
0000
0000
0000
0000
0000
0000
0100
0000
0000
0000
0000
0000
0000
0000
1000
0000
0000
0000
0000
0000
0000
0000
0100
0000
0000
0000
0000
0000
0000
0000
0010
0000
0000
0000
0000
0000
0000
0000
0001
0000
0000
0000
0000
0000
1000
0000
0000
0000
0000
0000
0100
0000
0000
0000
0000
0000
0010
0000
0000
0000
0000
0000
,
0001
0000
0000
0000
0000
0000
0000
0000
0000
0000
0000
0000
1000
0000
0000
0000
0000
0000
0000
0000
0000
0000
0000
0000
0010
0000
0000
0000
0000
0000
0000
0000
0000
0000
0000
0000
0100
0000
0000
0000
0000
0000
0000
0000
0000
0000
0000
0000
0010
0000
0000
0000
0000
0000
0000
0000
0000
0000
0000
0000
1000
0000
0000
0000
0000
0000
0000
0000
0000
0000
0000
0000
0100
0000
0000
0000
0000
0000
0000
0000
0010
0000
0000
0000
0000
0000
0000
0000
0001
0000
0000
0000
0000
0000
0000
0000
1000
0000
0000
0000
0000
0000
0000
0000
0100
0000
0000
0000
0010
0000
0000
0000
0000
0000
0000
0000
0000
0000
0000
0000
0001
0000
0000
0000
0000
0000
0000
0000
0000
0000
0000
0000
0100
0000
0000
0000
0000
0000
0000
0000
0000
0000
0000
0000
0010
0000
0000
0000
0000
0000
0000
0000
0000
0000
0000
0000
1000
0000
0000
0000
0000
0000
0100
0000
0000
0000
0000
0000
0010
0000
0000
0000
0000
0000
0000
0000
0000
0000
0000
0000
0100
0000
0000
0000
0000
0000
0000
0000
0000
0000
0000
0000
,
1000
0000
0000
0000
0000
0000
0000
0000
0001
0000
0000
0000
0000
0000
0000
0000
0010
0000
0000
0000
0000
0000
0000
0000
0100
0000
0000
0000
0000
0000
0000
0000
1000
0000
0000
0000
0000
0000
0000
0000
0010
0000
0000
0000
0000
0000
0000
0000
0100
0000
0000
0000
0000
0000
0000
0000
0000
0000
0000
0000
0001
0000
0000
0000
0000
0000
0010
0000
0000
0000
0000
0000
0100
0000
0000
0000
0000
0000
1000
0000
0000
0000
0000
0000
0000
0000
0000
0000
0000
0000
0000
0000
0000
0000
0000
0000
0001
0000
0000
0000
0000
0000
0000
0000
0100
0000
0000
0000
0000
0000
0000
0000
0010
0000
0000
0000
0000
0000
0000
0000
1000
0000
0000
0000
0000
0000
0000
0000
0100
0000
0000
0000
0000
0000
0000
0000
0010
0000
0000
0000
0000
0000
0000
0000
0001
0000
0000
0000
0000
0000
0000
0000
0100
0000
0000
0000
0000
0000
0000
0000
0001
0000
0000
0000
0000
0000
0000
0000
1000
0000
0000
0000
0000
0000
0000
0000
0010
0000
0000
0000
0000
0000
0000
0000
1000
0000
0000
0000
0000
0000
0000
0000
,
0100
0010
0001
0100
0010
1000
0001
0010
0001
0100
0010
1000
0100
0010
0001
1000
,
0001
0000
0000
0000
1000
0000
0000
0000
0010
0000
0000
0000
1000
0000
0000
0100
0000
0000
1000
0000
0000
0100
0000
0000
0010
0000
0000
0001
0000
0000
0100
0000
0010
0000
0100
0000
0001
0000
0000
0000
0010
0000
0100
0000
0000
0000
0000
0000
,
1000
0010
0100
0001
0010
0001
0100
0001
1000
0100
0010
0001
0100
0010
0100
0001
,
0010
0100
0010
0001
0100
0010
0100
0001
1000
0100
1000
0010
0100
0001
0010
0100
,
1001
1000
0000
1001
0000
1001
0000
1001
,
1001
1000
1001
1100
1001
0110
0011
0000
,
1001
1001
1000
1001
0000
1000
1001
1000
,
1001
1000
1001
0101
1001
0011
1010
0000
,
0100
0001
0100
0001
1000
0010
0100
0001
0100
0001
1000
0010
0100
0001
1000
0100
,
0010
0100
1000
0010
0100
0010
1000
0001
0010
0001
0100
0010
0100
0001
1000
0001
,
0110
0000
0000
0000
,
0000
0000
0000
0000
,
0011
0011
0000
0011
0101
0101
0000
0101
,
1010
1010
0000
1010
1100
1100
0000
1100
,
0220
0000
0000
0000
,
0000
0000
0000
0000
0000
0330
0110
0110
,
2002
0000
3003
0000
;

//---------------dance-single - ----------------
#NOTES:
     dance-single:
     :
     Challenge:
     15:
     1.000,1.000,1.000,0.205,1.000,4882.000,1601.000,101.000,0.000,46.000:
1001
0100
0010
0100
0001
1000
0100
1000
0010
0100
0001
1000
0010
0100
0010
1000
,
1000
0100
0010
0100
0001
0100
0010
0100
0001
0100
0010
0100
1000
0010
0100
0001
,
1001
0010
0100
1000
0010
1000
0100
0010
1000
0010
0001
0100
0010
1000
0010
0100
,
0100
0000
0000
0001
0000
0000
1000
0000
0000
0100
0000
0000
0010
0000
0000
0100
0000
0000
0001
0000
0000
0100
0000
0000
0011
0000
0000
0100
0001
0000
1000
0000
0000
0010
0000
0000
1100
0000
0000
0001
1000
0000
0010
0000
0000
0001
0000
0000
,
1001
0100
0010
1000
0001
0010
1000
0010
0001
0100
1000
0100
0010
1000
0001
0010
,
0010
0001
0100
0010
1000
0001
0100
0010
1000
0100
0001
0100
0010
0100
0010
0001
,
1001
0100
0010
1000
0001
1000
0100
1000
0010
0100
0001
0010
1000
0010
0100
1000
,
1000
0010
1100
0011
1001
0100
1010
0100
0011
0100
1001
0010
0100
0010
1000
0001
,
1001
0100
0011
0011
1100
1100
0110
0110
1010
0001
0101
0101
1010
1010
1001
1001
,
0110
0001
1100
1100
0011
0011
1010
1010
0101
1000
1001
1001
0110
0110
1010
1010
,
0101
0001
0011
0011
1100
1100
0110
0110
1010
0001
0101
0101
1100
1100
0110
0110
,
0011
1000
1010
1010
0101
0101
1001
1001
0110
0001
0011
0011
1100
1100
1010
1010
,
0101
1000
1100
1100
0110
0110
0011
0011
0110
0001
1010
1010
0110
0110
0101
0101
,
1100
0001
0011
0011
1010
1010
1001
1001
0110
0001
0101
0101
0110
0110
1010
1010
,
1001
0100
0110
0110
1100
1100
0101
0101
1010
0001
0011
0011
1100
1100
0110
0110
,
0101
1000
1100
1100
0011
0011
1001
1001
0110
0001
0011
0011
1100
1100
0110
0110
,
1001
0100
0011
1100
0101
1010
0110
1001
1100
0010
0011
1100
0101
1010
1001
0110
,
1100
0001
0101
1010
0110
1001
0011
0110
1100
0001
0101
0110
1010
1001
0110
1100
,
0011
0100
0011
0101
0110
1010
1100
0011
1001
0100
1010
0101
0110
1001
0011
1100
,
0101
1000
0011
0110
1100
1010
0101
1001
0110
0001
0011
1100
0110
1010
0101
1100
,
0011
1000
1100
1100
0011
0011
1010
1010
0101
1000
1001
1001
0110
0110
0101
0101
,
1010
0001
0011
0011
0110
0110
1100
1100
0101
1000
1010
1010
0101
0101
0110
0110
,
0011
0100
0110
0110
1001
1001
1010
1010
0101
1000
1100
1100
0011
0011
1010
1010
,
0101
1000
0110
0110
1100
1100
0011
0011
1010
0100
0101
0101
0110
0110
1010
1010
,
1001
0000
1000
1000
1000
0000
0100
0000
0010
0000
1000
0000
0010
0000
0001
0000
,
0101
0010
1000
0000
0001
0010
0100
0000
,
1001
0000
1000
1000
1000
0000
0100
0000
0010
0000
0001
0000
0010
0000
0100
0000
,
2001
0000
0000
0000
0000
0000
0000
0000
0100
0000
0000
0000
0000
0000
0000
0001
0000
0000
0000
0000
0000
0000
0000
0000
0020
0000
0000
0000
0000
0000
0000
0000
0000
0000
0000
0000
0000
0000
0000
0000
0000
0000
0000
0000
0000
3030
0000
0000
,
1001
0000
1000
1000
1000
0000
0100
0000
0010
0000
1000
0000
0010
0000
0001
0000
,
0101
0000
0010
0000
1000
0010
0100
1000
0001
0000
0010
0000
0100
0001
1000
0100
,
0011
1000
0100
0010
0001
1000
0100
0010
0001
1000
0100
0010
0001
1000
0100
0010
,
1001
0000
0010
0000
0100
0000
0001
0000
0000
1000
0000
0000
0101
0000
0010
0000
1000
0000
0001
0000
0000
0010
0000
0000
1100
0000
0000
0000
0000
0000
0110
0000
0000
0000
0000
0000
0011
0000
0000
0000
0000
0000
0000
0000
0000
0000
0000
0000
,
0011
0000
0011
0000
0001
0001
0110
0000
0011
0000
0110
0000
1100
0100
0010
0000
,
1001
0000
1001
0000
0100
0100
1010
0000
1001
0000
0101
0000
0101
0001
1000
0000
,
0101
0000
0101
0000
1000
1000
0101
0000
0101
0000
1100
0000
0110
0100
0011
0000
,
1010
0000
0110
0000
1001
1000
0110
0000
0100
0000
0011
0000
1001
0001
0100
0000
,
0110
0000
0110
0000
1000
1000
0101
0000
0110
0000
0101
0000
0110
0100
1010
0000
,
0110
0000
0110
0000
0010
0010
0101
0000
0110
0000
0101
0000
0110
0100
1010
0000
,
1001
0000
0001
0000
1000
1000
0011
0000
0100
0000
0001
0000
1100
1000
0010
0000
,
0101
0000
1010
0000
1000
1000
0101
0000
1100
0010
0101
1000
0100
0001
0100
0010
,
1001
0000
1001
0000
0001
0001
1010
0000
1001
0000
1010
0000
0101
0001
1000
0000
,
0110
0000
0110
0000
0100
0100
0011
0000
0110
0000
1100
0000
1100
1000
0001
0000
,
0100
0000
1100
0000
1100
0100
1100
0000
1100
0000
0110
0000
0011
0010
0011
0000
,
0011
0000
1010
0000
0110
0010
0101
0000
1000
0000
1002
0000
0100
0100
0010
0003
,
1000
0001
1010
0001
0100
0010
0101
1000
0001
1000
0011
0100
0010
1000
0101
0010
,
1001
0010
1100
0010
0001
0100
0011
1000
0001
0010
1100
0010
1001
0100
0010
1000
,
0101
0010
0101
1000
0001
0010
0100
1000
0001
0010
0100
1000
0001
0010
0100
1000
,
2100
0000
0001
0000
,
0010
0000
0100
3000
,
1001
0000
0011
0100
0001
1000
0110
0001
0100
0010
1100
0001
0010
1000
0101
0010
,
1000
0001
1010
0100
0010
1000
0110
0001
1000
0100
0011
1000
0001
0100
1010
0000
,
0001
0000
0011
1000
0100
0001
1100
0010
0001
1000
0011
0100
0010
1000
0101
0010
,
1000
0001
1100
0010
0001
1000
0110
0001
1000
0000
1100
0010
0001
0100
0011
0000
,
0100
0000
1010
0001
0100
0010
1001
0100
0010
0100
1001
0010
1000
0001
1010
0100
,
0010
1000
0101
0010
1000
0001
0110
0000
0001
0000
1010
0000
1000
1000
0110
0000
,
0001
0000
0011
0000
0100
0100
1010
0000
0001
0000
1100
0000
1000
1000
0101
0000
,
0101
0010
1100
0001
0110
1000
0011
0100
1000
0010
0100
0001
1010
0001
0110
1000
,
0101
1000
0011
0100
0001
1000
0101
1000
0010
0100
0011
1000
0100
0010
0101
1000
,
0010
0001
1100
0010
0100
0001
1010
0100
0010
0001
1100
0001
1000
0001
0110
1000
,
0100
0010
0101
0010
1000
0001
1100
0010
0100
0010
0101
1000
0100
0010
1001
0100
,
0010
0100
1010
0001
1000
0100
0011
1000
0010
0100
1001
0010
0100
0001
1010
0100
,
0001
0100
0011
1000
0001
0100
1010
0001
0100
0010
1001
0100
0010
1000
0101
0010
,
1000
0001
0110
1000
0100
0010
1001
0100
0010
1000
0011
0100
0010
0001
1100
0010
,
1001
0100
1010
0001
0100
0010
1000
0100
0011
1000
0110
0001
0100
0010
1000
0001
,
0110
1000
0001
0010
1000
0010
0001
0100
0010
1000
0100
0010
1000
0010
0001
0100
,
0011
0100
1010
0100
1001
0100
1010
0100
1010
0100
1001
0100
0011
0100
1010
0100
,
1001
0100
1001
0100
0011
0100
1010
0100
0011
0100
1001
0100
1010
0100
0011
0100
,
0001
0000
1100
0000
0010
0010
0101
0000
1000
0000
0011
0000
0001
0001
1100
0000
,
0010
0000
1001
0000
0001
0001
0110
0000
1001
0010
0101
1000
0011
0100
1001
0010
,
1100
0001
1010
0001
0110
0001
0110
0001
1100
0001
1010
0001
1010
0001
1010
0001
,
1100
0001
0110
0001
1010
0001
0110
0001
0110
0001
1100
0001
1010
0001
1100
0001
,
0110
0001
1010
0001
1100
0001
1100
0001
1100
0001
0110
0001
1010
0001
1010
0001
,
0110
1000
0011
0100
0001
1000
0100
0010
1001
0100
1010
0001
0100
0010
0001
1000
,
0110
0000
0000
0000
,
0110
0000
0000
0000
,
1001
0100
0010
1000
0011
0100
0001
1000
0110
0001
1000
0001
1100
0010
0001
0100
,
1010
0001
0100
0010
1001
0100
0010
0100
1001
0010
0100
1000
0101
0010
1000
0001
,
1010
0000
0000
0000
,
1010
0000
0000
0000
,
1001
0100
1100
1100
1100
1100
1100
1100
,
0011
0011
0011
0011
0011
0011
0011
0011
,
1001
1001
1001
1001
1001
1001
1001
1001
,
0011
0100
1010
0001
0100
0010
1001
0010
1100
0001
0100
0010
1001
0010
0101
1000
,
0011
0000
1010
0000
0100
0100
0011
0000
1000
0000
0101
0000
0001
0001
1010
0000
,
1001
0000
0110
0000
1000
1000
0011
0000
0100
0000
1010
0000
0001
0001
0110
0000
,
1001
0000
1100
0000
0010
0010
0101
0000
1000
0000
1001
0000
0100
0100
0011
0000
,
1010
0000
0101
0000
0010
0010
1100
0000
0001
0000
0011
0000
0100
0100
1010
0000
,
0101
0000
1100
0000
0010
0010
1001
0000
0100
0000
1010
0000
0001
0001
1010
0000
,
1100
0000
0011
0000
0010
0010
0101
0000
0010
0000
0011
0000
1000
1000
0101
0000
,
0011
0000
1100
0000
0001
0001
1010
0000
0100
0000
0101
0000
0010
0010
1100
0000
,
0011
0100
1010
0001
0100
0010
1000
0100
0011
1000
0101
0010
1000
0001
0010
0100
,
1001
0000
1010
0000
0001
0001
1100
0000
0010
0000
0101
0000
1000
1000
0110
0000
,
1100
0000
0011
0000
0100
0100
1010
0000
0001
0000
0101
0000
0010
0010
1100
0000
,
0110
0000
0011
0000
0100
0100
1001
0000
0010
0000
1010
0000
0100
0100
1010
0000
,
1001
0000
0101
0000
1000
1000
0011
0000
0100
0000
1010
0000
0001
0001
1010
0000
,
0011
0100
0001
1000
0110
0001
0100
0010
1001
0100
0010
0001
1100
0001
0100
0010
,
1001
0100
0001
0010
1100
0001
1000
0100
1010
0001
0100
0010
1001
0100
0010
1000
,
0101
0000
0000
0000
,
0000
0000
0000
0000
,
1001
1000
0001
0001
0100
0100
0001
0001
1000
1000
0001
0001
0100
0100
0001
0001
,
1000
1000
0001
0001
0100
0100
0001
0001
1000
1000
0001
0001
0100
0100
0001
0001
,
0010
0010
1000
1000
0001
0001
1000
1000
0010
0010
1000
1000
0001
0001
1000
1000
,
0010
0010
1000
1000
0001
0001
1000
1000
0010
0010
1000
1000
0001
0001
1000
1000
,
0010
0000
0100
0000
0010
0000
1000
0000
0001
0000
0010
0000
0001
0000
0000
0100
0000
0000
0010
0000
0000
1000
0000
0000
0100
0000
0010
0000
0100
0000
1000
0000
0001
0000
0010
0000
0001
0000
0000
0100
0000
0000
0010
0000
0000
1000
0000
0000
,
0100
1000
0100
1000
0010
1000
0100
1000
0001
0010
0001
0010
0100
0010
0001
0010
,
0100
0000
1010
0000
0001
0001
0110
0000
1010
0000
0110
0000
0101
0100
1001
0000
,
0011
0100
1010
0001
0110
1000
0101
0010
1000
0001
0100
0010
1001
0100
1010
0001
,
1010
1000
0010
0010
0100
0100
0010
0010
0001
0001
0010
0010
0100
0100
0010
0010
,
1000
1000
0010
0010
0100
0100
0010
0010
1000
1000
0010
0010
0100
0100
0010
0010
,
0001
0001
0100
0100
0001
0001
0100
0100
0010
0010
0100
0100
0001
0001
0100
0100
,
0010
0010
0100
0100
0001
0001
0100
0100
0010
0010
0100
0100
0001
0001
0100
0100
,
0010
1000
0100
0010
0001
0100
0001
1000
0010
0100
0010
1000
0100
0010
0001
0100
0010
0100
0001
0010
0100
1000
0010
1000
,
0100
0010
0001
0100
0010
0100
0001
1000
0010
0100
0001
0010
0100
0010
0001
0100
0010
1000
0100
1000
0001
0100
0001
0010
,
0100
1000
0011
0000
1000
1000
0110
0000
0011
0000
1010
0000
0011
0001
1100
0000
,
0101
1000
0011
0100
0001
1000
0110
0001
1010
0100
1001
0100
1010
0101
1010
0101
,
1001
0000
0000
0000
0000
0000
0000
0000
0000
0000
0000
0000
0000
0000
0000
0000
1000
0001
0010
0001
0100
0010
1000
0000
0020
0000
0000
0000
0000
0000
0000
0000
,
0230
0000
0000
0000
0000
0000
0000
0000
0000
0000
0000
0300
,
1001
0000
1010
0001
0100
0010
1001
0100
0010
1000
0011
0100
0001
0100
1010
0001
,
0100
0010
1001
0100
0010
1000
0101
0010
1000
0001
1010
0001
0100
0010
1001
0000
,
0100
0000
1100
0010
0001
0100
0011
1000
0001
0100
1010
0001
0100
0010
1001
0100
,
0010
1000
0110
1000
0001
0100
0011
1000
0100
0000
0011
1000
0001
0100
1010
0000
,
0001
0000
0101
0010
1000
0001
1100
0010
0001
0100
0011
1000
0010
0100
1001
0010
,
0100
0001
1100
0010
0001
1000
0011
0100
1000
0000
0011
0000
0100
0100
1001
0000
,
0100
0000
0011
0000
0001
0001
1100
0000
0010
0000
0101
0000
1000
1000
0110
0000
,
1001
0100
1010
0001
1100
0010
1001
0100
0010
1000
0100
0010
1001
0010
0101
1000
,
0011
0100
1010
0001
0100
0010
1001
0100
0010
1000
0011
0100
0001
0010
1100
0010
,
1000
0001
1010
0100
1000
0010
0101
1000
0001
0100
1001
0010
0100
0001
0110
1000
,
0010
0100
0011
1000
0100
0010
1100
0001
0100
0010
1001
0010
0001
1000
0011
0100
,
0010
0001
1010
0001
0100
0010
1001
0100
0010
1000
0101
0010
0001
1000
0110
0001
,
0100
0010
1001
0100
0010
1000
0101
0010
1000
0001
0110
1000
0100
0010
1001
0100
,
0010
0001
1100
0010
1000
0001
1100
0010
0001
1000
0011
0100
0010
1000
0101
0010
,
1001
0100
1010
0001
0100
0010
1001
0100
0011
1000
0110
0001
0100
0010
1000
0100
,
0011
1000
0110
0001
0100
0010
1001
0100
1010
0001
0100
0010
1001
0100
0010
1000
,
0101
1000
0011
1000
0110
1000
0101
1000
0101
1000
0011
1000
0110
1000
0011
1000
,
0011
1000
0011
1000
0101
1000
0110
1000
0110
1000
0101
1000
0110
1000
0011
1000
,
0100
0000
1010
0000
0001
0001
0110
0000
1000
0000
1100
0000
0010
0010
0101
0000
,
1000
0000
1001
0000
0001
0001
1010
0000
0100
0000
0110
0000
0010
0010
1100
0000
,
0101
0010
1100
0010
1001
0010
1100
0010
1100
0010
1001
0010
0101
0010
1001
0010
,
1001
0010
0101
0010
1100
0010
0101
0010
1001
0010
1001
0010
0101
0010
1100
0010
,
1001
0010
0101
0010
0101
0010
0101
0010
1100
0010
1001
0010
1100
0010
0101
0010
,
1100
0001
0110
1000
0001
0100
0011
1000
0110
0001
0100
0010
1001
0100
0010
1000
,
0101
0000
0000
0000
,
0101
0000
0000
0000
,
0001
0100
0011
1000
0001
0100
1010
0001
0100
0010
1001
0100
0010
1000
0011
0100
,
0001
0010
1100
0010
0001
1000
0110
0001
0100
0010
1001
0100
0010
0100
0011
1000
,
0110
0000
0000
0000
,
0110
0000
0000
0000
,
1001
0100
0101
0101
0101
0101
0101
0101
,
1010
1010
1010
1010
1010
1010
1010
1010
,
1001
1001
1001
1001
1001
1001
1001
1001
,
1010
0100
0011
1000
0101
0010
1100
0001
0110
1000
0001
0100
1010
0001
0100
0010
,
1001
0000
0011
0000
0010
0010
1001
0000
0100
0000
1010
0000
1000
1000
0011
0000
,
1001
0000
1100
0000
0010
0010
0101
0000
1000
0000
1100
0000
0010
0010
0101
0000
,
1010
0000
0011
0000
0100
0100
1010
0000
0001
0000
0011
0000
0100
0100
1010
0000
,
0101
0000
1100
0000
0010
0010
0101
0000
1000
0000
1010
0000
0001
0001
0110
0000
,
1100
0000
0011
0000
0010
0010
0101
0000
0001
0000
1010
0000
0100
0100
1001
0000
,
0011
0000
1100
0000
0010
0010
0101
0000
1000
0000
1010
0000
0001
0001
0110
0000
,
0101
0000
1010
0000
0001
0001
1100
0000
0010
0000
0110
0000
1000
1000
0011
0000
,
0100
0000
1010
0000
0101
0010
1100
0001
0010
0000
1100
0000
0011
1000
0110
0001
,
1010
0000
0011
0000
0010
0010
1001
0000
0100
0000
1010
0000
0001
0001
1100
0000
,
0011
0000
1010
0000
0001
0001
0110
0000
1000
0000
1100
0000
0010
0010
0101
0000
,
1010
0000
0110
0000
0001
0001
1100
0000
0010
0000
0011
0000
0100
0100
1010
0000
,
1100
0000
0011
0000
0100
0100
1010
0000
0001
0000
0011
0000
1000
1000
0110
0000
,
1001
0010
0101
1000
0010
0100
1010
0001
0100
0010
1001
0010
1100
0001
0100
0010
,
1001
0010
0100
0001
0010
1000
0100
0010
0001
0100
0010
1000
0001
0010
0100
0001
,
1010
0000
0000
0000
,
0000
0000
0000
0000
,
1001
1000
0001
0001
0100
0100
0001
0001
1000
1000
0001
0001
0100
0100
0001
0001
,
1000
1000
0001
0001
0100
0100
0001
0001
1000
1000
0001
0001
0100
0100
0001
0001
,
0010
0010
1000
1000
0001
0001
1000
1000
0010
0010
1000
1000
0001
0001
1000
1000
,
0010
0010
1000
1000
0001
0001
1000
1000
0010
0010
1000
1000
0001
0001
1000
1000
,
0001
0000
0100
0000
0010
0000
0100
0000
0000
0001
0000
0000
0010
0000
0000
1000
0000
0000
0010
0000
0000
0100
0000
0000
1000
0000
0000
0001
0000
0000
0100
0000
0000
0010
0000
0000
1000
0000
0000
0100
0000
0000
0001
0000
0000
0010
0000
0000
,
0100
1000
0010
0100
0010
1000
0001
0100
0010
0001
0100
0010
1000
0001
1000
0010
,
0100
0000
0110
0000
1000
1000
0110
0000
0011
0000
0110
0000
1001
0010
0101
1000
,
0101
0010
1001
0100
0010
1000
0011
0100
0001
0010
1100
0001
1010
0001
0100
0010
,
1001
1000
0010
0010
0100
0100
0010
0010
1000
1000
0010
0010
0100
0100
0010
0010
,
1000
1000
0010
0010
0100
0100
0010
0010
1000
1000
0010
0010
0100
0100
0010
0010
,
0001
0001
0100
0100
0001
0001
0100
0100
0010
0010
0100
0100
0001
0001
0100
0100
,
0010
0010
0100
0100
0001
0001
0100
0100
0010
0010
0100
0100
0001
0001
0100
0100
,
0010
1000
0100
0010
0001
0100
0001
1000
0010
0100
0010
1000
0100
0010
0001
0100
0010
0100
0001
0010
0100
1000
0010
1000
,
0001
0100
0100
0010
0010
1000
1000
0001
0001
0001
0001
1000
1000
1000
0010
0010
,
1001
0100
0011
0000
0001
0001
0110
0000
0011
0000
1010
0000
0011
0001
0110
0000
,
0101
1010
0101
1010
0101
1000
0001
0100
1010
0001
1100
0010
1001
0110
1001
0110
,
2002
0000
0000
0000
0000
3003
0000
0000
0000
0000
0000
0000
,
0201
0001
0010
0001
0000
0010
0000
0001
,
0000
0001
0000
0010
0001
0001
0010
0000
,
2310
0010
0100
0010
0000
0100
0000
0010
,
0000
0010
0000
0100
0010
0010
0100
0000
,
3102
0100
1000
0100
0000
1000
0000
0100
,
0000
0100
0000
1000
0100
0100
1000
0000
,
2013
0010
0100
0010
0000
0010
0000
0010
,
0100
0100
0010
0000
0020
0000
0000
0030
,
3201
0001
0010
0001
0000
0010
0000
0001
,
0000
0001
0000
0010
0001
0001
0010
0000
,
2310
0010
0100
0010
0000
0100
0000
0010
,
0000
0010
0000
0100
0010
0010
0100
0000
,
3102
0100
1000
0100
0000
1000
0000
0100
,
0000
0100
0000
1000
0100
0100
1000
0000
,
2013
0010
0100
0010
0000
0010
0000
0010
,
0100
0100
0010
0000
0020
0000
0000
0030
,
3011
0011
0110
1001
1100
1010
1100
0101
,
0101
0101
0110
1001
0110
0101
1100
0110
,
0110
0110
1100
1001
1010
0101
1100
0011
,
0011
0011
0110
1100
1001
1010
1100
0101
,
0101
0101
1010
1100
1001
0110
1100
0011
,
0011
0011
0101
1010
0011
0110
1100
1001
,
1001
0000
1001
0000
0011
0000
1001
0000
1100
0000
0110
0000
1010
0000
0110
1000
,
0011
0100
0011
0100
0011
1000
0110
0001
0110
1000
0011
1000
0110
0001
1100
0010
,
1001
1001
1100
0110
0101
1010
1100
1010
,
1010
1010
0101
0110
1001
1100
1001
1010
,
1010
1010
0101
1100
0011
1001
1100
0011
,
0011
0011
0011
0101
0101
0101
1010
1100
,
0011
0011
1100
1001
0110
1001
1010
0101
,
0101
0101
0110
1001
0101
1010
0101
1100
,
1010
0001
1100
0001
0110
0001
1100
0010
0101
0000
1100
0000
0110
0001
1100
0010
,
1001
0100
1001
0010
1001
0100
0011
1000
0011
0100
1001
0010
1100
0001
0110
0001
,
1010
1010
0101
1010
1001
1100
0110
1100
,
1001
1100
0110
1100
0011
0011
1010
0101
,
0101
0101
1010
0110
1001
0110
0101
1100
,
1010
1100
1010
0110
1001
1001
1100
0110
,
0110
0110
0011
0110
1001
0110
1100
0110
,
1010
1100
0101
1001
0011
0011
1010
0101
,
0101
0101
0110
1001
1100
1001
0110
1100
,
0101
0010
1100
0010
0101
1000
0110
0001
1010
0001
0110
1000
0101
0010
1001
0100
,
0011
0011
1010
0101
1100
1010
1100
0101
,
0101
0101
0110
1100
1001
0101
1100
1010
,
0011
0011
1100
0011
1010
0101
1010
1001
,
1001
1001
1100
1001
1010
1010
1100
0101
,
0101
0101
1010
1100
1001
0110
1100
0011
,
0011
0011
0101
1010
0110
1001
0110
1100
,
1100
0001
1100
0010
0101
0010
1100
0001
0110
0001
1100
0010
0101
1000
0110
0001
,
1010
0001
0110
0001
1010
0100
1001
0100
1010
0100
0011
1000
0110
0001
1100
0010
,
1001
1000
1000
1000
1000
0010
0100
0001
1000
0100
0010
0010
0001
0100
0010
1000
,
0101
0000
0000
0000
0001
0000
0000
0000
0001
0000
0000
0000
0001
0000
0000
0000
0001
0000
0000
0000
0100
0000
0000
0000
0010
0000
0000
0000
1000
0000
0000
0000
0010
0000
0000
0000
1000
0000
0000
0000
0100
0000
0000
0000
0010
0000
0000
0000
0100
0000
0000
1000
0000
0010
0000
0100
0000
0000
0000
0000
0000
0000
0000
0000
,
1010
0010
0010
0010
0010
0100
0001
1000
0100
0010
1000
0010
0001
0100
0010
1000
,
0101
0010
1000
0010
0100
0001
0010
0100
0010
0001
0100
0001
1000
0100
0010
0100
,
1001
1000
1000
1000
1000
0010
0100
0010
1000
0001
0010
0100
0010
0100
1000
0010
,
0101
0010
0100
0001
0010
1000
0010
0100
1000
0010
0100
0001
1000
0000
0000
0000
,
0101
0100
0100
0100
0100
0010
1000
0010
0001
0010
1000
0100
0010
0001
0100
0010
,
1001
0100
0010
0001
0100
0010
1000
0100
0001
0100
1000
0010
0100
0001
0010
0100
,
2001
0000
0010
0000
0000
0010
3201
0000
1320
0000
0001
0100
0000
0100
0001
0000
,
1000
0000
0100
0000
0000
1000
0001
0000
0132
0000
0010
0100
2003
0100
0010
0000
,
3102
0000
0010
2003
0000
0100
3021
0000
1230
0000
0010
1302
0000
0100
1023
0000
,
0132
0000
0010
0000
0000
1000
0010
0000
0100
0000
1000
0010
0000
0010
1000
0000
,
0013
0000
0001
0000
0010
0000
0100
0000
0000
0010
0000
0000
0100
0000
0000
1000
0000
0000
0001
0000
0000
0100
0000
0000
0001
0000
0000
1000
0000
0000
0100
0000
0000
0010
0000
0000
0001
0000
0000
0010
0000
0000
0100
0000
0000
0010
0000
0000
,
0010
0100
1000
0001
1000
0100
1000
0010
1000
0001
0100
0010
0100
0001
1000
0100
,
0020
0000
0000
0000
0000
0000
0000
0000
0000
0000
0000
0030
0020
0000
0000
0000
0000
0000
0000
0000
0000
0000
0000
0000
0032
0000
0000
0000
0000
0000
0000
0000
0203
0000
0000
0000
0000
0000
0000
0000
0000
0000
0000
0000
0320
0000
0000
0000
0000
0000
0000
0000
0000
0000
0000
0000
2030
0000
0000
0000
0000
0000
0000
0000
,
3011
0100
1010
0001
0100
0010
1001
0010
1100
0001
0100
0010
1001
0100
0011
1000
,
0120
0000
1000
0000
2030
0001
0100
0000
3021
0000
1000
0231
0000
1000
0312
0000
,
0123
0000
0001
0000
0000
1000
0100
0000
1032
0000
0010
2103
0000
0100
3021
0000
,
1230
0000
0001
0000
0000
0010
0001
0000
1302
0000
0100
1023
0000
1000
0131
0000
,
1200
0000
0010
0000
0000
1000
0001
0000
2310
0000
0100
0010
0000
0001
0100
0000
,
3021
0000
1000
0000
0230
1000
0001
0000
1320
0000
0001
2130
0000
0100
3012
0000
,
1023
0000
0100
0000
0000
1000
0001
0000
1230
0000
0001
2310
0000
0001
3120
0000
,
0231
0000
1000
0000
0000
1000
0010
0000
1302
0000
0100
2013
0000
0010
3101
0000
,
1010
0001
0110
1000
0001
0100
0010
1000
0101
0000
0101
0000
0110
0001
1010
0100
,
1001
0010
0100
0001
1000
0100
0010
1000
0001
0100
0010
0001
0100
0010
1000
0001
,
1010
0101
1010
0110
,
1000
0100
0010
0001
1000
0100
0010
0001
1000
0100
0010
0001
1000
0100
0010
0001
1000
0100
0010
0001
1000
0100
0010
0001
1000
0100
0010
0001
1000
0100
0010
0001
,
1000
0100
0010
0001
1000
0100
0010
0001
1000
0100
0010
0001
1000
0100
0010
0001
1000
0100
0010
0001
1000
0100
0010
0001
1000
0100
0010
0001
1000
0100
0010
0001
,
1000
0010
0100
0001
1000
0010
0100
0001
1000
0010
0100
0001
1000
0010
0100
0001
1000
0010
0100
0001
1000
0010
0100
0001
1000
0010
0100
0001
1000
0010
0100
0001
,
1000
0010
0100
0001
1000
0010
0100
0001
1000
0010
0100
0001
1000
0010
0100
0001
1000
0010
0100
0001
1000
0010
0100
0001
1000
0010
0100
0001
1000
0010
0100
0001
,
0010
0100
1000
0001
0010
0100
1000
0001
0010
0100
1000
0001
0010
0100
1000
0001
0010
0100
1000
0001
0010
0100
1000
0001
0010
0100
1000
0001
0010
0100
1000
0001
,
0010
0100
1000
0001
0010
0100
1000
0001
0010
0100
1000
0001
0010
0100
1000
0001
0010
0100
1000
0001
0010
0100
1000
0001
0010
0100
1000
0001
0010
0100
1000
0001
,
0100
0010
1000
0001
0100
0010
1000
0001
0100
0010
1000
0001
0100
0010
1000
0001
0100
0010
1000
0001
0100
0010
1000
0001
0100
0010
1000
0001
0100
0010
1000
0001
,
0100
0010
1000
0001
0100
0010
1000
0001
0100
0010
1000
0001
0100
0010
1000
0001
0100
0010
1000
0001
0100
0010
1000
0001
0100
0010
1000
0001
0100
0010
1000
0001
,
1000
0100
0010
0001
1000
0100
0010
0001
1000
0001
1010
0100
0001
1000
0011
0100
,
0001
0010
0100
1000
0001
0010
0100
1000
0001
1000
0011
0100
1000
0001
1010
0100
,
0011
0100
0011
1000
0001
1000
0110
1000
0011
0100
1010
0100
0011
0100
1010
0001
,
0110
1000
0101
1000
0011
1100
0011
0100
2010
0100
0001
0010
0001
0100
0010
0100
,
3001
0000
0010
0000
0100
0000
1000
0000
0010
0100
0001
1000
0100
0010
0001
0100
0010
0000
1000
0000
0001
0000
0010
0000
0100
0010
0001
0100
0010
1000
0001
0010
,
0100
1000
0011
0100
0001
0010
1100
0001
2100
0010
0001
0010
0100
0010
0001
0010
,
3101
0010
1100
0001
0100
0010
1001
0100
1010
0001
1000
0100
0011
1000
0101
0010
,
1001
0100
0010
1000
0001
0010
0001
0100
0001
1000
0010
0100
0010
0100
0001
0100
0010
1000
0100
1000
0001
1000
0010
0100
,
1001
0100
1001
0100
0010
0001
1010
0100
0010
0100
1001
0100
0010
0001
1010
0100
,
1000
0010
1100
0001
0010
0100
1001
0010
0100
0010
1100
0001
1000
0010
1100
0001
,
1000
0010
1100
0001
1000
0010
0101
0010
1000
0001
1100
0010
0100
0001
1100
0010
,
0100
0010
1100
0001
0100
0010
1100
0001
0100
0010
1100
0001
1000
0010
1100
0001
,
0100
0010
1001
0010
0100
0010
1100
0001
0001
1000
0011
0100
0010
0100
1001
0010
,
0100
0000
0101
0010
0100
1000
0011
1000
0100
0000
0101
0010
0100
1000
0011
1000
,
0100
1000
0101
0010
0001
0100
1010
0001
1000
0010
1100
0001
1000
0010
1100
0001
,
0010
0100
1000
0001
0100
0010
1000
0100
0011
0100
1010
0001
1000
0010
0100
0001
,
0100
0000
1010
0000
0001
0001
1100
0000
0010
0000
0110
0000
1000
1000
0011
0000
,
0100
0000
0101
0000
0010
0010
1100
0000
0001
0000
0011
0000
1000
1000
0110
0000
,
0010
0000
0101
0000
0001
0001
1010
0000
0100
0000
0110
0000
0001
0001
1100
0000
,
0100
0000
1010
0000
0010
0010
0101
0000
1000
0000
0110
0000
0001
0001
0110
0000
,
1100
0001
0100
0010
1001
0100
0010
1000
0011
0100
0001
0010
0101
1000
0010
0100
,
1001
0010
1100
0001
0110
1000
0001
0100
0010
1000
0100
0001
0010
0100
1000
0010
,
1000
0001
0100
0010
1000
0001
0100
0010
1000
0001
0100
0010
1000
0001
0100
0010
1000
0001
0100
0010
1000
0001
0100
0010
1000
0001
0100
0010
1000
0001
0100
0010
,
1000
0001
0100
0010
1000
0001
0100
0010
1000
0001
0100
0010
1000
0001
0100
0010
1000
0001
0100
0010
1000
0001
0100
0010
1000
0001
0100
0010
1000
0001
0100
0010
,
1001
0100
0011
1000
0110
0001
1010
0001
0110
1000
0101
0010
1100
0001
0110
1000
,
0011
0100
1010
0001
0110
0001
1010
0100
0011
0100
1001
0010
1100
0001
0110
0001
,
1100
0010
1001
0010
0101
1000
0011
0100
1010
0001
0110
0001
1100
0010
0101
1000
,
0110
0001
1000
0100
0010
0001
1100
0010
0100
0001
1000
0100
0011
1000
0001
0010
,
1001
0100
0011
0100
1010
0001
0110
1000
0011
0100
1010
0001
0110
0001
1100
0010
,
1001
0100
1010
0001
0110
0001
1100
0010
0101
1000
0011
1000
0110
1000
0101
0010
,
1001
0100
1010
0001
0110
1000
0101
0010
0101
0010
1100
0010
0101
1000
0011
0100
,
2002
0000
0000
3003
2002
0000
0000
3003
1001
0000
1001
0000
0220
0000
0000
0330
,
1000
0000
1001
0110
1000
1000
0011
0000
0100
0000
1010
0000
0001
0001
1100
0000
,
0110
0000
0011
0000
1000
1000
0110
0000
1001
0000
0101
0000
1010
1000
0011
0000
,
0110
0000
1010
0000
0001
0001
0110
0000
1000
0000
0011
0000
0110
0100
1010
0000
,
1001
0000
0110
0000
0001
0001
1100
0000
0010
0000
0011
0000
0100
0100
1001
0000
,
1010
0011
0200
1310
0002
0113
2000
3101
,
0010
0001
0110
1000
0001
0100
0011
1000
0100
0001
1010
0100
0010
1000
0101
0010
,
0100
0010
1001
0100
0001
0010
1100
0001
1000
0100
0011
1000
0010
0100
1001
0010
,
1100
0001
1010
0100
0001
1000
0100
0010
0101
0010
1001
0100
0010
0001
0100
0010
,
1001
0100
0010
1000
0001
0010
0100
0010
0001
0100
0010
1000
0001
0100
0001
1000
0100
0010
0001
0100
0010
0100
0001
1000
,
0010
1000
0100
0010
0100
1000
0001
0100
0010
0100
0001
0010
0001
1000
0010
0100
0010
1000
0001
0100
0001
1000
0100
0010
,
0001
0100
0010
1000
0010
0100
0001
1000
0100
0010
0100
1000
0010
1000
0001
0010
0001
0100
0010
0100
0001
1000
0100
0010
,
0001
1000
0001
0100
0010
1000
0100
0010
0100
0010
0001
0100
0010
1000
0001
0010
0001
0010
0100
1000
0010
0100
0001
1000
,
0101
0010
1000
0001
1100
0010
0001
0100
0011
1000
0001
0100
1010
0001
0100
0010
,
1001
0100
0010
0100
1001
0010
0100
1000
0011
0100
0001
1000
0110
0001
0100
0010
,
1001
0100
0011
1000
0101
0010
1100
0001
0110
0001
1010
0100
0011
1000
0101
0010
,
1001
0100
1010
0001
0100
0010
1000
0001
0010
1000
0010
0100
1001
0010
0101
1000
,
0022
0000
0000
0000
0000
0000
0000
0000
0000
0000
0000
0000
0000
0000
0000
0033
,
2200
0000
0000
0000
0000
0000
0000
0000
0000
0000
0000
0000
0000
0000
0000
3300
,
0220
0000
0000
0000
0000
0000
0000
0000
0000
0000
0000
0000
0000
0000
0000
0330
,
2002
0000
0000
0000
0000
0000
0000
0000
0000
0000
0000
0000
0000
0000
0000
3003
,
2020
0000
0000
0000
,
0000
0000
0000
0000
0000
0000
0000
0000
0000
0000
0000
0000
0000
0000
0000
3030
,
0202
0000
0000
0000
,
0000
0000
0000
0000
0000
0000
0000
0000
0000
0000
0000
0000
0000
0000
0000
0303
,
2002
0000
0000
0000
0000
0000
0000
0000
0000
0000
0000
0000
0000
0000
0000
3003
,
0220
0000
0000
0000
0000
0000
0000
0000
0000
0000
0000
0000
0000
0000
0000
0330
,
2020
0000
0000
0000
0000
0000
0000
0000
0000
0000
0000
0000
0000
0000
0000
3030
,
0202
0000
0000
0000
0000
0000
0000
0000
0000
0000
0000
0000
0000
0000
0000
0303
,
0022
0000
0000
0000
,
0000
0000
0000
0000
0000
0000
0000
0000
0000
0000
0000
0000
0000
0000
0000
0033
,
1100
0000
0000
0000
,
0000
0000
0000
0000
,
0110
0000
0000
0000
,
0110
0000
0000
0000
,
1010
0001
0100
0010
1001
0100
0001
0010
1100
0001
1000
0100
0011
1000
0010
0100
,
1001
0100
0010
1000
0101
0010
1000
0001
0110
0001
0100
0010
1100
0001
1000
0100
,
1001
0000
0000
0000
,
1001
0000
0000
0000
,
1001
0010
1010
1010
1010
1010
1010
1010
,
0101
0101
0101
0101
0101
0101
0101
0101
,
1001
1001
1001
1001
1001
1001
1001
1001
,
0110
0001
1100
0010
0001
0100
0011
1000
0110
0001
0100
0010
1001
0100
1010
0001
,
0110
0000
0011
0000
1000
1000
0101
0000
0010
0000
1100
0000
0001
0001
0110
0000
,
1001
0000
1010
0000
0001
0001
0110
0000
0100
0000
0011
0000
1000
1000
0101
0000
,
1010
0000
1100
0000
0100
0100
1010
0000
0001
0000
0011
0000
1000
1000
0011
0000
,
0101
0000
1010
0000
0010
0010
1100
0000
0001
0000
0011
0000
1000
1000
0011
0000
,
0110
0000
1100
0000
0001
0001
0110
0000
1000
0000
0101
0000
0010
0010
1001
0000
,
1100
0000
0011
0000
0001
0001
1010
0000
1000
0000
0110
0000
0100
0100
0011
0000
,
1100
0000
0011
0000
0010
0010
1001
0000
0001
0000
0101
0000
1000
1000
0110
0000
,
1001
0100
0011
1000
0001
0100
0010
1000
0101
0010
1100
0001
0100
0010
1000
0001
,
1010
0000
0011
0000
0100
0100
1010
0000
0001
0000
0101
0000
0010
0010
1100
0000
,
0101
0000
1010
0000
0001
0001
1100
0000
0010
0000
0011
0000
0100
0100
1001
0000
,
0101
0000
1100
0000
0010
0010
0101
0000
1000
0000
1010
0000
0100
0100
0011
0000
,
1010
0000
1001
0000
0001
0001
0110
0000
0100
0000
0011
0000
1000
1000
0101
0000
,
1001
0010
0100
0001
1010
0100
0001
1000
0011
0100
0001
0010
1100
0001
0100
0010
,
1001
0100
0011
1000
0101
0010
1100
0001
0110
0001
0110
1000
0011
0100
1010
0001
,
0110
0000
0000
0000
,
0000
0000
0000
0000
,
1001
0000
0110
0000
0011
0001
1010
0000
1100
0000
0011
0000
0110
0010
0101
0000
,
1010
0000
1001
0000
0100
0100
1010
0000
0001
0000
0101
0000
1000
1000
0001
0000
,
0110
0000
0110
0000
1100
1000
0110
0000
0001
0000
0011
0000
1000
1000
0110
0000
,
0001
0000
1100
0000
1001
0001
0010
0000
0001
0000
1000
0000
0010
0010
0100
0000
,
0001
0001
0001
0001
0010
0001
0010
0000
0100
0100
0100
0100
1000
0100
1000
0000
,
0001
0100
0010
1000
0100
0010
1000
0010
0001
0100
0010
1000
0001
0100
0001
1000
0100
0010
0100
1000
0010
1000
0001
0100
,
0010
0001
1100
0010
0001
1000
0011
0100
0001
0010
0101
1000
0010
0001
0110
0001
,
1100
0010
0101
1000
0001
0100
0010
1000
0110
0001
0100
0010
1000
0100
0010
0001
,
1000
1000
0001
0001
0100
0100
0001
0001
1000
1000
0001
0001
0100
0100
0001
0001
,
0010
0010
0001
0001
0100
0100
0001
0001
1000
1000
0001
0001
0100
0100
0001
0001
,
1000
0010
0100
0001
0010
0100
0010
0001
0100
0001
1000
0100
1000
0001
0100
0010
,
0001
0100
0010
1000
0100
0010
0100
1000
0010
1000
0001
0010
0002
0000
0000
0003
,
0011
0000
0011
0000
0110
0100
0011
0000
0100
0000
1010
0000
0010
0010
2001
0000
,
0100
3000
0101
0000
0110
0010
0101
0000
1000
0000
0101
0000
1100
1000
0101
0000
,
1001
0100
0011
1000
0001
0100
1010
0001
0100
0010
1001
0010
0101
1000
0010
0100
,
1010
0100
0011
1000
0101
0010
1000
0001
1100
0010
0101
1000
0010
0100
0001
0010
,
0100
0000
0000
0000
0000
0000
0000
0000
0000
0000
0000
0000
0010
0000
0000
0000
0000
0000
1000
0000
0000
0000
0000
0000
0001
0000
0000
0000
0000
0000
0000
0000
0000
0000
0000
0000
0010
0000
0000
0000
0000
0000
0000
0000
0000
0000
0000
0000
1000
0000
0000
0000
0000
0000
0000
0000
0000
0000
0000
0000
0010
0000
0000
0000
0000
0000
0000
0000
0000
0000
0000
0000
0100
0000
0000
0000
0000
0000
0000
0000
0000
0000
0000
0000
0001
0000
0000
0000
0000
0000
0100
0000
0000
0000
0000
0000
0010
0000
0000
0000
0000
0000
0000
0000
0000
0000
0000
0000
1000
0000
0000
0000
0000
0000
0000
0000
0000
0000
0000
0000
0100
0000
0000
0000
0000
0000
0000
0000
0000
0000
0000
0000
0001
0000
0000
0000
0000
0000
0000
0000
0000
0000
0000
0000
0010
0000
0000
0000
0000
0000
0000
0000
0001
0000
0000
0000
0000
0000
0000
0000
0100
0000
0000
0000
0000
0000
0000
0000
1000
0000
0000
0000
0000
0000
0001
0000
0000
0000
0000
0000
0000
0000
0000
0000
0000
0000
0000
0000
0000
0000
0000
0000
,
0100
0000
0000
0000
0000
0000
0000
0000
1000
0000
0000
0000
0000
0000
0000
0000
0010
0000
0000
0000
0000
0000
0000
0000
1000
0000
0000
0000
0000
0000
0000
0000
0001
0000
0000
0000
0000
0000
0000
0000
0100
0000
0000
0000
0000
0000
0000
0000
0010
0000
0000
0000
0000
0000
0000
0000
1000
0000
0000
0000
0000
0000
0000
0000
0100
0000
0000
0000
0000
0000
0000
0000
0010
0000
0000
0000
0000
0000
0000
0000
1000
0000
0000
0000
0000
0000
0000
0000
0001
0000
0000
0000
0000
0000
0000
0000
1000
0000
0000
0000
0000
0000
0000
0000
0010
0000
0000
0000
0000
0000
0000
0000
0100
0000
0000
0000
0000
0000
0000
0000
1000
0000
0000
0000
0000
0000
0000
0000
0010
0000
0000
0000
0000
0000
0000
0000
1000
0000
0000
0000
0000
0000
0000
0000
0100
0000
0000
0000
0000
0000
0000
0000
0001
0000
0000
0000
0000
0000
0000
0000
1000
0000
0000
0000
0000
0000
0000
0000
0010
0000
0000
0000
0000
0000
0100
0000
0000
0000
0000
0000
0001
0000
0000
0000
0000
0000
1000
0000
0000
0000
0000
0000
,
0100
0000
0000
0000
0000
0000
0000
0000
0000
0000
0000
0000
0010
0000
0000
0000
0000
0000
0000
0000
0000
0000
0000
0000
1000
0000
0000
0000
0000
0000
0000
0000
0000
0000
0000
0000
0001
0000
0000
0000
0000
0000
0000
0000
0000
0000
0000
0000
0010
0000
0000
0000
0000
0000
0000
0000
0000
0000
0000
0000
0100
0000
0000
0000
0000
0000
0000
0000
0000
0000
0000
0000
0010
0000
0000
0000
0000
0000
0000
0000
0100
0000
0000
0000
0000
0000
0000
0000
1000
0000
0000
0000
0000
0000
0000
0000
0010
0000
0000
0000
0000
0000
0000
0000
0100
0000
0000
0000
0001
0000
0000
0000
0000
0000
0000
0000
0000
0000
0000
0000
1000
0000
0000
0000
0000
0000
0000
0000
0000
0000
0000
0000
0010
0000
0000
0000
0000
0000
0000
0000
0000
0000
0000
0000
0001
0000
0000
0000
0000
0000
0000
0000
0000
0000
0000
0000
0100
0000
0000
0000
0000
0000
1000
0000
0000
0000
0000
0000
0010
0000
0000
0000
0000
0000
0000
0000
0000
0000
0000
0000
0100
0000
0000
0000
0000
0000
0000
0000
0000
0000
0000
0000
,
0001
0000
0000
0000
0000
0000
0000
0000
0100
0000
0000
0000
0000
0000
0000
0000
0010
0000
0000
0000
0000
0000
0000
0000
1000
0000
0000
0000
0000
0000
0000
0000
0100
0000
0000
0000
0000
0000
0000
0000
0001
0000
0000
0000
0000
0000
0000
0000
0010
0000
0000
0000
0000
0000
0000
0000
0000
0000
0000
0000
1000
0000
0000
0000
0000
0000
0001
0000
0000
0000
0000
0000
0010
0000
0000
0000
0000
0000
1000
0000
0000
0000
0000
0000
0000
0000
0000
0000
0000
0000
0000
0000
0000
0000
0000
0000
0010
0000
0000
0000
0000
0000
0000
0000
1000
0000
0000
0000
0000
0000
0000
0000
0001
0000
0000
0000
0000
0000
0000
0000
1000
0000
0000
0000
0000
0000
0000
0000
0010
0000
0000
0000
0000
0000
0000
0000
0100
0000
0000
0000
0000
0000
0000
0000
0001
0000
0000
0000
0000
0000
0000
0000
0010
0000
0000
0000
0000
0000
0000
0000
1000
0000
0000
0000
0000
0000
0000
0000
0100
0000
0000
0000
0000
0000
0000
0000
0010
0000
0000
0000
0000
0000
0000
0000
0001
0000
0000
0000
0000
0000
0000
0000
,
1000
0100
1000
0010
0100
1000
0001
0010
0001
0100
0010
1000
0100
0001
0010
0100
,
0001
0000
0000
0000
0100
0000
0000
0000
0010
0000
0000
0000
1000
0000
0000
0010
0000
0000
0100
0000
0000
0001
0000
0000
1000
0000
0000
0100
0000
0000
0010
0000
0100
0000
0001
0000
0010
0000
0000
0000
1000
0000
0100
0000
0000
0000
0000
0000
,
0010
0100
0010
1000
0001
0010
0100
0001
1000
0010
0100
0001
0010
0100
1000
0001
,
0110
1000
0011
0100
1000
0010
0100
0001
1010
0100
1001
0010
0100
0001
1000
0100
,
0011
0000
1010
0000
0100
0100
1001
0000
0010
0000
0011
0000
1000
1000
0101
0000
,
0001
0000
0110
0000
0010
0010
1100
0000
0001
0000
0011
0000
0100
0100
1001
0000
,
1000
0000
1100
0000
0010
0010
1001
0000
0100
0000
0110
0000
0001
0001
1010
0000
,
1000
0000
0110
0000
1000
1000
0011
0000
0100
0000
0110
0000
0010
0010
1100
0000
,
1001
0100
1010
0001
0100
0010
1001
0100
0011
1000
0001
0100
0011
1000
0001
0100
,
1010
0001
0110
0001
1100
0010
1001
0100
0011
1000
0101
1000
0110
0001
1010
0100
,
1001
0010
0100
0001
1000
0100
0010
0100
1000
0010
1000
0001
0100
0010
0100
0001
1000
0100
0010
0002
0000
0000
0000
0000
,
1003
0010
0100
0010
1000
0001
0100
0010
1000
0001
0100
0001
0020
0000
0000
0030
,
0011
1000
0011
0100
1000
0100
0011
0100
1010
0001
1010
0001
0100
0001
0110
1000
,
0101
1000
0101
0010
1000
0010
0101
0010
1100
0001
1100
0001
0010
0001
1100
0010
,
1001
0100
0010
1000
0001
0010
1000
0100
0010
0001
0100
0010
1000
0100
1000
0001
,
0100
0001
0010
1000
0001
0010
0100
0010
0001
0100
0010
1000
0101
0010
1100
0000
,
2002
0000
3003
0000
;

//---------------dance-single - ----------------
#NOTES:
     dance-single:
     :
     Medium:
     12:
     1.000,1.000,1.000,0.205,1.000,4072.000,775.000,101.000,0.000,0.000:
1001
0100
0010
0100
1000
0001
0010
0100
0010
0001
0100
0010
1000
0100
0010
0001
,
0001
0100
0010
0100
0001
1000
0010
1000
0001
0010
0100
0010
0001
0010
0100
1000
,
1001
0010
0100
0001
0100
0001
1000
0010
0100
0001
1000
0100
0010
0001
0100
0010
,
0010
1000
0100
1000
0010
1000
0100
0010
0100
1000
0010
1000
0001
0100
0001
1000
,
1001
0100
1000
0100
0010
0100
1000
0100
0010
0100
1000
0100
1000
0010
1000
0001
,
0001
0100
0010
1000
0001
0100
0010
0100
0001
0100
0010
1000
0100
0010
0001
1000
,
1001
0010
0100
0001
1000
0100
0010
0100
1000
0100
0010
0100
1000
0001
0010
0100
,
0100
0010
0001
1000
0001
0010
0100
0010
0001
0100
0010
0100
0010
1000
0001
1000
,
1000
0100
0010
0100
1000
0100
0010
0001
1000
0010
0100
0001
0010
0100
0010
0001
,
0001
0100
0010
1000
0001
1000
0100
0010
0001
0100
0001
1000
0010
0100
0001
0100
,
0100
0010
1000
0100
0010
0001
1000
0010
0100
0001
0010
0100
1000
0001
0100
0010
,
0010
0100
0001
0010
0100
1000
0010
0100
0001
1000
0100
0010
0001
0100
0001
1000
,
1000
0100
0010
0100
0010
0001
0100
0010
1000
0001
0010
0100
0010
0100
1000
0010
,
0010
0100
0010
1000
0001
1000
0100
1000
0001
0010
0100
1000
0010
0100
0010
1000
,
1000
0100
0010
0100
1000
0001
0010
0100
0010
0001
0100
0010
1000
0010
0100
0001
,
0001
0010
0100
1000
0100
0010
0001
0100
0010
1000
0100
1000
0010
0100
0001
0010
,
0100
0000
0010
0100
1000
0001
0100
0010
1000
0000
1000
0001
0010
0100
1000
0001
,
0100
0000
0100
0010
1000
0100
0010
0001
1000
0000
1000
0010
0100
0001
1000
0100
,
0010
0000
0001
1000
0010
0100
0001
0010
0100
0000
0010
0100
1000
0001
0100
0010
,
1000
0000
0100
1000
0001
0100
0010
1000
0100
0000
0100
0010
0001
0100
0010
1000
,
0001
0000
0010
0001
0100
0010
1000
0100
1000
0000
0001
1000
0010
0100
0001
0010
,
0100
0000
1000
0100
1000
0001
0100
0010
1000
0000
0001
1000
0100
0010
0001
0100
,
0010
0000
0100
0001
1000
0100
0010
0100
1000
0000
1000
0010
1000
0001
0010
0100
,
1000
0000
0010
1000
0010
0100
0001
0010
0001
0000
0010
0100
1000
0010
0100
0001
,
1001
0000
0001
0100
0001
0000
1000
0000
0010
0000
0100
0000
0010
0000
1000
0000
,
0011
1000
0100
0000
0010
0001
0100
0000
,
1010
0000
1000
0001
1000
0000
0100
0000
0010
0000
0001
0000
0100
0000
0010
0000
,
2100
0000
0000
0000
0000
0000
0000
0000
0001
0000
0000
0000
0000
0000
0000
0100
0000
0000
0000
0000
0000
0000
0000
0000
0020
0000
0000
0000
0000
0000
0000
0000
0000
0000
0000
0000
0000
0000
0000
0000
0000
0000
0000
0000
0000
3030
0000
0000
,
1001
0000
0100
0010
0001
0000
0100
0000
0010
0000
1000
0000
0010
0000
0100
0000
,
0011
0000
1000
0000
0001
0010
0100
1000
0010
0000
0100
0000
0001
1000
0010
0000
,
1010
0000
0100
0010
1000
0100
0010
0100
1000
0010
1000
0001
0010
0100
0010
0000
,
1100
0000
0011
0000
1010
0101
0110
0000
,
1001
1001
0100
0011
1001
0011
1100
0001
,
0110
0110
0001
1010
0110
0101
0101
1000
,
0101
0101
1000
1100
1100
1010
0110
0101
,
0011
1010
0101
1001
1000
0011
1100
0001
,
1010
1010
0100
0101
1010
0101
1010
1001
,
1010
1010
0100
0101
1010
0101
1100
0010
,
1001
0001
0100
0011
0010
1000
0101
1000
,
1100
0000
0011
0000
0100
0000
1001
0000
0001
0010
0001
0010
0100
0010
0100
0010
,
0001
1001
0100
1010
1001
1010
0110
0001
,
0101
0101
1000
0110
0101
1100
1100
0010
,
0001
1001
1001
0100
1001
0110
0011
0011
,
0011
1010
0110
0101
1000
0011
1000
1000
,
0001
0010
0001
0100
0010
0100
0001
1000
0100
1000
0010
0100
0010
1000
0100
0010
,
0001
1000
0001
1000
0010
0100
0001
1000
0010
0100
0001
1000
0001
1000
0010
0100
,
0001
0010
0001
0010
0100
1000
0010
1000
0001
0100
0010
1000
0001
0010
0100
1000
,
0002
0000
0010
0000
,
0100
0000
1000
0003
,
1000
0000
1000
0010
0100
0001
0010
0100
0010
0001
0100
0010
0100
0001
1000
0100
,
1000
0100
0010
0100
1000
0010
1000
0001
0010
0100
0010
0001
1000
0000
1000
0000
,
0010
0000
0010
0100
0001
1000
0100
0010
0100
1000
0001
0100
0001
0010
0001
0100
,
0010
0100
0001
1000
0010
0100
0010
1000
0100
0000
0100
0010
0001
0100
0010
0000
,
0100
0000
0100
0001
0100
0010
1000
0100
1000
0001
0010
0001
0100
0010
1000
0010
,
0100
0001
1000
0010
1000
0100
1000
0000
0010
0000
0000
0000
0100
0001
0100
0000
,
0010
0000
1000
0000
0001
0010
0100
0000
0010
0000
0001
0000
0100
0010
1000
0000
,
0001
0010
0100
1000
0100
0010
0001
0100
0010
1000
0001
0100
0010
0100
0001
1000
,
0001
0100
0001
1000
0001
0100
0001
1000
0001
1000
0001
0100
0001
1000
0001
1000
,
0010
0100
0001
0100
0001
0100
0010
0100
0001
0100
0001
0100
0010
0100
0001
0100
,
0010
1000
0010
1000
0001
1000
0001
1000
0010
1000
0001
1000
0001
1000
0010
1000
,
0010
0100
0010
0100
0010
1000
0010
0100
0010
1000
0010
0100
0010
0100
0010
1000
,
0001
0000
0100
0000
0010
1000
0001
0010
0100
1000
0100
0010
0001
0100
0001
0000
,
1000
0000
0100
0000
0010
0100
0010
0001
0100
0010
1000
0001
0010
0100
0010
0000
,
0001
1000
0001
1000
0100
0010
0100
0010
0001
0100
0001
0100
0010
1000
0010
1000
,
0001
0010
0100
1000
0001
0100
0010
1000
0010
0100
0010
0100
0010
1000
0100
0010
,
0001
0110
1010
0011
0110
0011
1100
0101
,
0110
0000
1100
0000
0011
0000
1010
0000
0101
0000
0110
0000
1010
0000
0011
0100
,
0001
0000
0101
0000
0010
1000
0001
0000
1000
0000
1100
0000
0001
0100
0010
0000
,
1000
0000
0011
0000
0100
0010
1000
0000
1000
0010
1000
0100
0010
0001
0100
0010
,
1000
0011
0110
0101
1010
0011
1100
0110
,
0101
1100
1010
0011
0110
1001
0101
0110
,
1010
0011
1100
0101
0110
1100
0011
1010
,
0100
0001
0010
0100
1000
0010
0100
0001
1000
0001
0010
0100
1000
0010
0100
0000
,
1010
0000
0000
0000
,
0101
0000
0000
0000
,
1001
0001
0101
0100
0110
0010
0011
0010
,
1010
1000
1100
1000
1001
0001
0101
0100
,
1100
0000
0000
0000
,
0011
0000
0000
0000
,
1001
0100
1100
1100
1100
1100
1100
1100
,
0011
0011
0011
0011
0011
0011
0011
0011
,
1001
0110
0110
0110
0110
0110
0110
0110
,
1000
0100
0010
0001
0100
0010
1000
0100
0010
0001
0100
0010
1000
0001
0010
0100
,
1000
0000
0011
0000
0100
0001
1000
0000
0010
0000
0101
0000
1000
0001
0100
0000
,
1010
0000
0101
0000
1000
0100
0010
0000
1000
0000
0101
0000
0010
1000
0001
0000
,
1010
0000
0101
0000
0010
1000
0010
0000
0100
0000
0011
0000
1000
0001
1000
0000
,
0101
0000
1001
0000
1000
0100
0010
0000
0001
0000
0101
0000
0001
0010
0001
0000
,
1001
0000
1010
0000
0001
0100
0010
0000
1000
0000
0101
0000
0010
0100
0010
0000
,
1001
0000
1100
0000
0010
0100
0001
0000
1000
0000
0101
0000
0001
0010
0001
0000
,
0101
0000
1100
0000
0001
1000
0001
0000
1000
0000
0011
0000
0100
0010
1000
0000
,
0010
0100
0001
1000
0100
0010
0100
1000
0010
0100
0001
1000
0100
0010
0100
1000
,
0100
0000
1010
0000
0001
0100
0010
0000
1000
0000
0101
0000
0001
1000
0100
0000
,
1010
0000
0011
0000
0010
0100
0001
0000
1000
0000
1100
0000
0001
0100
0001
0000
,
1010
0000
0011
0000
0010
0100
1000
0000
0001
0000
0101
0000
1000
0001
0100
0000
,
0110
0000
1001
0000
1000
0100
1000
0000
0010
0000
0101
0000
0010
1000
0100
0000
,
1000
0100
0010
0001
0100
0010
1000
0001
0010
0100
0010
0001
0100
0010
0100
0001
,
1000
0100
0010
0100
1000
0010
1000
0001
0100
0010
0100
0001
0010
0100
1000
0001
,
0100
0000
0000
0000
,
0000
0000
0000
0000
,
1000
0100
1000
0100
0010
0001
0010
0001
0100
0010
0100
0010
1000
0001
1000
0001
,
0010
0100
0010
0100
1000
0010
1000
0010
0100
0001
0100
0001
0010
0100
0010
0100
,
1000
0001
1000
0001
0010
0100
0010
0100
1000
0010
1000
0010
0100
0001
0100
0001
,
1000
0100
1000
0100
0010
0001
0010
0001
0100
0010
1000
0100
0010
0100
1000
0001
,
0100
0010
1000
0001
0010
0100
0010
0001
0100
0001
1000
0100
1000
0010
0100
0001
,
0010
0100
0010
0100
1000
0100
0010
0100
1000
0001
1000
0001
0100
0001
1000
0001
,
0100
1010
0001
1100
0011
1010
0101
1001
,
1000
0010
1000
0001
0010
0001
0100
0010
0100
0001
1000
0100
0010
0001
0100
0000
,
1001
0000
0100
1000
0001
0100
0010
1000
0001
0010
0100
1000
0001
0100
0010
1000
,
0001
0010
0100
1000
0001
0100
0010
1000
0001
0010
0100
1000
0001
0100
0010
1000
,
0100
0010
0001
1000
0100
0010
0001
0010
0100
1000
0010
1000
0100
0010
0001
0010
,
0100
1000
0010
1000
0100
0010
0001
0010
0100
0010
0100
1000
0010
1000
0001
0100
,
0001
1000
0010
1000
0100
0010
0100
1000
0001
0100
0010
0100
0001
0010
0001
1000
,
0010
1000
0100
0010
0001
0100
0010
1000
0100
0010
0001
0100
0010
0100
0001
0010
,
0001
1000
0010
0000
1000
0100
0011
0000
1010
0000
1001
0000
1010
0000
0110
0000
,
1000
0100
0010
0001
0010
0001
0100
0001
1000
0010
1000
0100
0010
0001
0100
0010
,
1000
0000
0020
0000
,
0230
0000
0000
0000
0000
0000
0000
0000
0000
0000
0000
0300
,
0001
0000
0001
0010
0100
0010
0100
1000
0010
1000
0001
0100
0001
0010
0100
0010
,
0001
0100
0010
1000
0100
0010
0001
0100
0001
1000
0100
1000
0001
0000
0001
0000
,
0100
0000
0100
0010
1000
0100
1000
0001
0010
0001
0100
0010
1000
0010
0100
0001
,
0010
0100
1000
0010
0100
0010
1000
0001
1000
0000
1000
0010
0100
0001
0010
0000
,
0100
0000
0100
1000
0010
1000
0001
0100
0010
0100
0001
0010
0100
1000
0010
0100
,
0001
0010
0001
1000
0100
1000
0010
0000
0100
0000
0000
0000
0001
0010
0001
0000
,
1000
0000
0010
0000
0100
0001
0100
0000
0001
0000
1000
0000
0100
0010
0100
0000
,
1000
0010
0100
0001
0100
0001
1000
0100
0010
0100
1000
0010
0100
0001
1000
0001
,
0100
0001
0100
0010
1000
0100
0010
0100
1000
0010
0100
0010
1000
0001
0010
0001
,
0100
0001
1000
0010
1000
0100
0010
0100
1000
0010
0100
0001
0010
0100
1000
0001
,
1000
0010
1000
0001
0100
0010
1000
0010
0100
0001
0010
0100
1000
0100
0010
0001
,
0100
0010
0100
0001
1000
0010
1000
0100
1000
0001
0010
0100
0010
0001
0100
0010
,
1000
0000
0100
0000
0010
0100
1000
0001
0100
0010
0100
0001
1000
0100
1000
0000
,
0010
0000
0100
0000
0001
1000
0001
0010
0100
1000
0010
0100
0010
1000
0100
0000
,
1000
0001
0100
0010
1000
0100
0010
0100
1000
0010
0100
0001
0010
0001
1000
0010
,
0100
0001
0100
0010
1000
0010
0100
0001
0100
0010
1000
0010
0100
0001
0010
0100
,
1000
0101
0110
1100
0011
1010
0101
0110
,
0101
0000
1100
0000
0110
0000
0011
0000
0110
0000
1010
0000
0011
0000
1100
0100
,
1000
0000
0011
0000
0100
0001
1000
0000
0010
0000
1100
0000
0001
0100
0001
0000
,
1000
0000
0011
0000
0100
0010
1000
0000
0001
0000
1001
0000
0010
0100
0001
0000
,
1010
0101
1100
0011
0110
0101
1010
0011
,
1100
0101
0110
1001
1010
0011
0110
1001
,
0101
0000
0110
0000
1100
0000
0110
0000
1001
0000
1010
0000
0011
0000
0110
0010
,
0100
0010
1000
0100
0010
0100
1000
0001
0100
0010
1000
0001
0010
0001
0100
0000
,
1001
0000
0000
0000
,
1001
0000
0000
0000
,
0100
0000
1010
0000
0001
1000
0010
0000
0100
0000
0011
0000
1000
0100
0010
0000
,
0001
0000
1100
0000
0010
0100
1000
1000
0001
0010
0100
1000
0001
0100
0010
0000
,
0110
0000
0000
0000
,
0110
0000
0000
0000
,
1001
0100
0101
0101
0101
0101
0101
0101
,
1010
1010
1010
1010
1010
1010
1010
1010
,
1001
0110
0110
0110
0110
0110
0110
0110
,
0001
1000
0001
1000
0001
1000
0001
1000
0001
1000
0001
1000
0010
0100
0001
0010
,
0100
0000
0011
0000
0100
0001
1000
0000
0010
0000
0101
0000
1000
0001
1000
0000
,
1001
0000
0110
0000
0001
0100
0010
0000
1000
0000
1010
0000
0100
0010
0001
0000
,
1100
0000
0110
0000
0001
1000
0010
0000
0100
0000
0011
0000
1000
0100
1000
0000
,
1010
0000
0101
0000
0010
0100
0001
0000
1000
0000
1100
0000
0010
0100
0010
0000
,
0101
0000
1010
0000
0001
0010
0001
0000
0100
0000
0110
0000
0010
1000
0010
0000
,
1001
0000
0011
0000
0100
0010
0100
0000
0001
0000
1010
0000
1000
0100
0010
0000
,
1100
0000
0011
0000
0001
0010
0100
0000
0010
0000
1010
0000
0001
0100
0001
0000
,
0010
0001
0100
0010
1000
0100
0010
0100
1000
0010
0100
0010
1000
0001
0010
0100
,
1000
0000
0110
0000
0001
0100
0001
0000
1000
0000
1100
0000
0010
0001
0010
0000
,
0110
0000
1010
0000
0001
0100
0001
0000
1000
0000
0011
0000
0100
0010
1000
0000
,
0110
0000
1001
0000
0001
0010
0001
0000
0100
0000
1010
0000
1000
0100
0010
0000
,
0011
0000
1001
0000
1000
0010
1000
0000
0001
0000
0110
0000
0010
1000
0100
0000
,
0010
0100
0001
1000
0100
0010
0100
1000
0010
1000
0001
0100
0001
0010
0100
0010
,
0001
1000
0100
1000
0010
0100
0010
1000
0001
0010
0100
1000
0001
0100
0010
1000
,
0100
0000
0000
0000
,
0000
0000
0000
0000
,
0001
0100
0001
0100
0010
1000
0010
1000
0001
0010
0001
0010
0100
1000
0100
1000
,
0001
0100
0001
0100
0010
1000
0010
1000
0100
0010
0100
0010
0001
1000
0001
1000
,
0010
0100
0010
0100
0001
0010
0001
0010
0100
1000
0100
1000
0010
0100
0010
0100
,
0001
1000
0001
1000
0100
0010
0100
0010
0001
0010
0100
1000
0010
0100
0010
1000
,
0001
0000
0100
0000
0010
0000
1000
0000
0000
0100
0000
0000
0010
0000
0000
0100
0000
0000
1000
0000
0000
0010
0000
0000
0100
0000
0000
0010
0000
0000
1000
0000
0000
0001
0000
0000
0010
0000
0000
0001
0000
0000
0100
0000
0000
0010
0000
0000
,
0100
0001
0010
0100
1000
0010
0100
0001
1000
0100
1000
0010
0100
0001
0010
0100
,
0010
1100
0010
1001
0011
1010
0011
1001
,
0100
1000
0100
1000
0001
0010
0100
1000
0001
0010
0100
1000
0100
1000
0010
0000
,
1001
0000
0010
0001
1000
0010
0100
0001
1000
0100
0010
0001
1000
0010
0100
0001
,
1000
0100
0010
0001
1000
0010
0100
0001
1000
0100
1000
0001
0010
0001
1000
0010
,
0100
0001
0010
0001
0100
0010
1000
0010
0100
0001
0010
0001
0100
0010
1000
0010
,
0100
0001
0010
0001
0100
0010
1000
0010
0100
0001
0010
0001
0100
0010
1000
0100
,
0010
0100
1000
0010
1000
0001
0100
0001
0010
0100
0010
0100
1000
0001
0100
0001
,
1000
0010
1000
0001
1000
0010
0100
0010
0100
0001
0100
0010
1000
0001
1000
0010
,
0100
0001
0100
0000
1000
0000
1100
0000
0110
0000
0011
0000
0110
0000
1100
0000
,
0001
0100
0010
1000
0100
1000
0001
0010
0001
0100
0010
1000
0010
0100
0001
0000
,
0220
0000
0000
0000
0000
0330
0000
0000
0000
0000
0000
0000
,
0001
0001
0010
0001
0000
0010
0000
0001
,
0000
0001
0000
0010
0001
0001
0010
0000
,
0010
0010
0100
0010
0000
0100
0000
0010
,
0000
0010
0000
0100
0010
0010
0100
0000
,
0100
0100
1000
0100
0000
1000
0000
0100
,
0000
0100
0000
1000
0100
0100
1000
0000
,
0010
0010
0100
0010
0000
0010
0000
0010
,
0100
0100
0010
0000
0020
0000
0000
0030
,
0001
0001
0010
0001
0000
0010
0000
0001
,
0000
0001
0000
0010
0001
0001
0010
0000
,
0010
0010
0100
0010
0000
0100
0000
0010
,
0000
0010
0000
0100
0010
0010
0100
0000
,
0100
0100
1000
0100
0000
1000
0000
0100
,
0000
0100
0000
1000
0100
0100
1000
0000
,
0010
0010
0100
0010
0000
0010
0000
0010
,
0100
0100
0010
0000
0020
0000
0000
0030
,
1001
1001
1100
0011
0110
1010
0110
0101
,
0101
0101
1100
0011
1100
0101
0110
1100
,
1100
1100
0110
0011
1010
0101
0110
1001
,
1001
1001
1100
0110
0011
1010
0110
0101
,
0101
0101
1010
0110
0011
1100
0110
1001
,
1001
1001
0101
1010
1001
1100
0110
0011
,
0011
0000
0011
0000
1001
0000
0011
0000
0110
0000
1100
0000
1010
0000
1000
0100
,
0010
0001
0010
0100
1000
0001
0010
0001
0100
0010
1000
0001
0100
0001
1000
0100
,
0010
0011
0110
1100
0101
1010
0110
1010
,
1010
1010
0101
1100
0011
0110
0011
1010
,
1010
1010
0101
0110
1001
0011
0110
1001
,
1001
1001
1001
0101
0101
0101
1010
0110
,
1001
1001
0110
0011
1100
0011
1010
0101
,
0101
0101
1100
0011
0101
1010
0101
0110
,
1000
0001
0100
0010
1000
0100
0010
0001
1000
0000
0010
0000
0100
0010
0100
0001
,
1000
0010
1000
0010
0100
0001
1000
0010
1000
0010
0100
0001
1000
0010
0100
0001
,
0010
1010
0101
1010
0011
0110
1100
0110
,
0011
0110
1100
0110
1001
1001
1010
0101
,
0101
0101
1010
1100
0011
1100
0101
0110
,
1010
0110
1010
1100
0011
0011
0110
1100
,
1100
1100
1001
1100
0011
1100
0110
1100
,
1010
0110
0101
0011
1001
1001
1010
0101
,
0101
0101
1100
0011
0110
0011
1100
0110
,
0010
1000
0001
0010
0100
0010
0001
0100
0010
0100
0001
0010
0001
1000
0010
0100
,
0001
1001
1010
0101
0110
1010
0110
0101
,
0101
0101
1100
0110
0011
0101
0110
1010
,
1001
1001
0110
1001
1010
0101
1010
0011
,
0011
0011
0110
0011
1010
1010
0110
0101
,
0101
0101
1010
0110
0011
1100
0110
1001
,
1001
1001
0101
1010
1100
0011
1100
0110
,
0001
1000
0010
0100
0010
1000
0001
0100
0001
1000
0100
0010
0100
1000
0010
0100
,
0001
0010
0001
0100
0010
0100
0001
1000
0100
0010
0001
0100
0010
1000
0100
0010
,
1001
0000
1000
0001
1000
0010
0100
0001
0010
0100
1000
1000
0010
0100
0001
1000
,
1100
0000
0001
1000
0001
0010
0100
1000
0010
0100
0001
0010
0001
1000
0010
0000
,
0011
0000
0010
0001
0010
0100
1000
0010
0100
0001
1000
0100
0010
0100
1000
0010
,
0110
1000
0010
0100
0001
0010
0100
0010
0001
0100
0010
1000
0100
1000
0001
1000
,
1010
0000
0010
1000
0010
0100
0010
0100
0001
1000
0100
0010
0100
1000
0010
1000
,
1001
0100
0010
0001
0010
0100
1000
0010
0100
0001
0100
0010
0100
0000
0000
0000
,
0110
0000
0010
0100
0010
1000
0010
0100
0001
1000
0100
0010
0100
1000
0010
0100
,
0101
0010
1000
0001
0100
0001
1000
0010
0100
0001
0010
0001
0100
0010
1000
0001
,
0200
0000
0000
0302
2003
0000
0000
0000
,
0000
0000
3002
0023
,
0032
0000
0000
0023
0000
0000
0230
0000
2300
0000
0000
3200
0000
0000
0320
0000
,
0230
0000
0000
0000
,
0310
0000
0001
0000
0010
0000
0100
0000
0000
0010
0000
0000
0100
0000
0000
1000
0000
0000
0001
0000
0000
0100
0000
0000
0001
0000
0000
1000
0000
0000
0100
0000
0000
0010
0000
0000
0001
0000
0000
0010
0000
0000
0100
0000
0000
0010
0000
0000
,
0001
0100
0010
1000
0001
0010
0001
0000
1000
0001
0100
0010
0100
0001
1000
0100
,
0020
0000
0030
0020
0000
0000
0032
0000
2003
0000
0000
3200
0000
0000
0320
0000
,
0031
0100
0001
1000
0010
1000
0001
0100
0001
1000
0010
1000
0001
0010
0100
1000
,
0020
0000
0000
0000
0230
0000
0000
0000
0320
0000
0000
2030
0000
0000
3002
0000
,
0023
0000
0000
0000
0000
0000
0000
0000
0032
0000
0000
2003
0000
0000
3020
0000
,
0230
0000
0000
0000
0000
0000
0000
0000
0302
0000
0000
0023
0000
0000
0130
0000
,
0200
0000
2300
0000
,
3020
0000
0000
0000
2030
0000
0000
0000
3020
0000
0000
0230
0000
0000
0302
0000
,
0023
0000
0000
0000
0000
0000
0000
0000
0032
0000
0000
0203
0000
0000
0320
0000
,
2030
0000
0000
0000
0000
0000
0000
0000
3002
0000
0000
0203
0000
0000
0310
0000
,
1000
0010
1000
0010
0100
0001
1000
0100
0010
0000
0010
0000
0010
0100
0010
0100
,
1000
0010
0100
0010
1000
0010
0100
0010
1000
0010
1000
0010
0100
0010
0100
0010
,
1000
1100
1001
0011
,
0100
0001
0010
0100
1000
0010
0100
0001
1000
0010
0100
0010
1000
0001
0010
0001
,
0100
0010
0100
0001
1000
0100
0010
0001
0100
0001
0010
0100
1000
0010
1000
0001
,
0100
0010
1000
0010
0100
0001
0010
0100
0010
0001
1000
0100
1000
0010
0100
0010
,
1000
0001
0100
0010
0100
0001
0010
0100
1000
0010
0100
0001
0100
0010
1000
0100
,
0010
0100
0010
0001
0100
0001
1000
0010
0100
0001
0100
0010
1000
0100
0010
0001
,
0100
0010
0100
0001
0010
0001
1000
0010
0100
0010
1000
0100
0010
0001
0100
0010
,
0100
0001
1000
0100
0010
0001
0010
0100
1000
0010
0100
0010
1000
0001
0010
0100
,
0010
0001
0100
0010
0100
0001
1000
0100
0010
0001
0010
0001
0100
0010
0100
0001
,
1000
0100
0010
0001
1000
0010
0100
0001
0100
0000
1010
0000
0001
0000
0011
0000
,
0001
0010
0100
1000
0001
0100
0010
1000
0100
0000
0110
0000
0001
0000
0011
0000
,
1100
1100
0001
0101
1100
0110
1100
0110
,
0011
0000
1010
0000
0001
1000
0010
0000
0120
0000
1000
0000
0100
0000
1000
0000
,
0130
1000
0100
0010
0001
0010
0001
0010
0100
1000
0100
0010
0001
0010
0001
0010
,
0100
1000
0010
0100
0001
1000
0100
1000
0002
0000
0010
0000
0010
0000
0010
0003
,
1000
0001
1000
0001
0100
0010
1000
0001
1000
0001
0100
0010
1000
0001
0100
0010
,
1000
0000
0000
0000
,
0010
0100
1000
0100
0010
0001
0010
0100
0010
0100
1000
0100
0010
0001
0010
0100
,
1000
0010
0100
0001
0010
0100
1000
0010
0100
0010
1000
0001
1000
0010
0100
0001
,
1000
0010
1000
0001
1000
0010
0100
0010
1000
0001
0100
0010
0100
0001
0100
0010
,
0100
0010
0100
0001
0100
0010
1000
0001
0100
0010
0100
0001
1000
0010
1000
0001
,
0100
0010
1000
0010
0100
0010
0100
0001
1000
0001
1000
0010
0100
0010
1000
0100
,
0010
0000
0010
0100
0010
0001
1000
0001
0010
0000
0010
0100
0010
0001
1000
0001
,
0010
0001
0010
0100
1000
0010
0100
0001
1000
0010
1000
0001
1000
0010
0100
0001
,
0010
0100
1000
0001
0100
0010
1000
0100
0010
0100
0010
0001
1000
0010
0100
0001
,
0110
0000
0101
0000
0000
0000
0012
0000
0000
0003
0201
0000
0000
0300
0110
0000
,
1010
0000
1100
0000
0000
0000
2100
0000
0000
3000
1200
0000
0000
0300
1100
0000
,
0101
0000
1010
0000
0000
0000
0102
0000
0000
0003
1010
0000
1002
0000
0000
0003
,
0011
1100
0000
0210
0000
0000
0000
0000
,
0310
1000
0100
0010
0001
1000
0010
0100
0010
1000
0001
0010
0100
0010
0001
0100
,
0010
1000
0001
0100
0001
1000
0100
0010
0100
1000
0010
0100
0001
0010
0100
1000
,
0001
0000
0000
0000
,
0000
0000
0000
0000
,
1100
0101
1010
0011
0110
0011
1100
0101
,
1010
0011
0110
0011
1100
0101
1001
0110
,
1001
1010
0011
0110
0101
1100
0110
0011
,
1000
0010
0100
0001
0100
0001
1000
0010
0100
0001
0100
0001
1000
0010
0100
0001
,
1000
1100
0011
1010
0101
0110
1100
0011
,
1010
0101
0110
1100
1001
0011
1010
0101
,
0110
0101
1100
0110
1100
0011
0110
0101
,
2020
0000
0000
3030
0202
0000
0000
0303
1100
0000
0011
0000
0220
0000
0000
0330
,
1001
0000
0000
1100
0000
0000
0011
0000
0100
0000
1010
0000
1001
0000
0010
0000
,
0011
0100
0010
0001
1010
0100
0011
0001
,
1001
0100
0010
0101
0010
1000
1100
0010
,
0110
0001
1000
0011
0001
0100
0010
0010
,
1001
0002
0203
0320
,
1030
0001
0010
0100
1000
0010
1000
0001
0100
0010
0100
0001
0010
0100
1000
0100
,
0010
0100
0010
0100
0010
0100
0010
0100
1000
0001
1000
0001
1000
0001
1000
0001
,
0100
0001
0100
0001
0100
0001
0100
0001
0020
0000
0130
0000
0020
0000
0130
0000
,
1000
0010
0100
0001
0010
0001
0100
0010
0100
0001
1000
0100
0010
0100
1000
0010
,
1000
0001
0010
0100
1000
0010
0100
0001
0100
0001
1000
0100
0010
0001
0100
0010
,
0100
0001
0010
0001
0100
0010
1000
0100
0010
0100
1000
0001
0010
0100
0010
0001
,
0100
0010
0100
0001
1000
0010
1000
0010
0100
0001
0100
0001
0010
0100
0010
0100
,
1000
0100
0010
0001
0100
0010
0100
0001
0010
0001
1000
0010
1000
0100
0010
0100
,
1000
0001
0100
0010
0100
0001
0010
0100
0010
0100
1000
0010
1000
0001
0100
0001
,
1000
0100
0010
0100
1000
0010
1000
0001
0010
0001
0100
0010
1000
0001
0010
0100
,
1000
0010
0100
0001
0010
0100
1000
0001
0100
0001
1000
0100
0010
0100
1000
0000
,
0202
0000
0000
0000
0000
0000
0000
0303
,
2020
0000
0000
0000
0000
0000
0000
3030
,
0220
0000
0000
0000
0000
0000
0000
0330
,
2002
0000
0000
0000
0000
0000
0000
3003
,
0022
0000
0000
0000
,
0000
0000
0000
0000
0000
0000
0000
0033
,
2200
0000
0000
0000
,
0000
0000
0000
0000
0000
0000
0000
3300
,
2020
0000
0000
0000
0000
0000
0000
3030
,
0202
0000
0000
0000
0000
0000
0000
0303
,
0022
0000
0000
0000
0000
0000
0000
0033
,
2200
0000
0000
0000
0000
0000
0000
3300
,
0220
0000
0000
0000
,
0000
0000
0000
0000
0000
0000
0000
0330
,
1001
0000
0000
0000
,
0000
0000
0000
0000
,
1100
0000
0000
0000
,
0011
0000
0000
0000
,
1010
0100
0101
0010
0011
1000
1001
0100
,
1100
0000
0010
0000
0110
0000
1000
0000
0001
0100
0001
1000
0100
0010
0001
0000
,
1010
0000
0000
0000
,
0101
0000
0000
0000
,
1001
0100
0011
0011
0011
0011
0011
0011
,
1100
1100
1100
1100
1100
1100
1100
1100
,
1001
1001
1001
1001
1001
1001
1001
1001
,
0010
0100
0010
1000
0001
0010
0100
1000
0010
0100
0001
1000
0100
1000
0010
0100
,
0001
0000
1010
0000
0001
0100
0001
0000
1000
0000
0011
0000
0100
0010
1000
0000
,
1001
0000
0110
0000
0001
0010
0100
0000
0010
0000
1010
0000
0001
0100
0001
0000
,
1100
0000
0110
0000
1000
0010
1000
0000
0001
0000
0011
0000
0100
0010
0100
0000
,
1010
0000
0101
0000
1000
0100
0010
0000
0001
0000
0101
0000
0010
1000
0001
0000
,
0011
0000
1100
0000
0100
0010
0100
0000
0010
0000
0011
0000
0100
0001
1000
0000
,
1010
0000
0101
0000
0010
0100
1000
0000
0001
0000
0101
0000
0010
0100
0001
0000
,
1001
0000
0101
0000
1000
0010
0100
0000
0001
0000
1010
0000
1000
0001
0100
0000
,
0010
0100
0001
1000
0100
0010
0100
1000
0010
1000
0001
0100
0010
0100
0001
0010
,
0100
0000
1001
0000
0001
0100
0010
0000
1000
0000
0011
0000
0100
0001
1000
0000
,
0101
0000
1010
0000
0100
0010
0001
0000
1000
0000
1001
0000
0010
0100
0001
0000
,
0011
0000
1100
0000
0010
0100
0010
0000
1000
0000
1100
0000
1000
0001
1000
0000
,
1001
0000
0011
0000
0100
0010
0001
0000
1000
0000
0110
0000
0100
0001
1000
0000
,
1000
0010
0100
0001
1000
0100
1000
0010
0100
0010
1000
0001
0010
0100
1000
0010
,
0100
0010
1000
0001
0010
0001
0100
0010
0100
0001
1000
0100
0010
0001
0100
0010
,
1000
0000
0000
0000
,
0000
0000
0000
0000
,
1001
1001
1001
1001
1001
1001
1001
1001
,
1100
1001
0100
1100
0001
0101
0010
0001
,
0110
0110
0101
0110
0001
1010
0001
0110
,
0001
0101
1001
0010
1000
0010
0100
1000
,
0001
0010
0001
0010
0100
0010
0100
0000
1000
0100
1000
0100
0010
0100
0010
0000
,
0001
0100
0010
1000
0001
0010
0100
1000
0010
0100
0001
1000
0100
0010
0001
1000
,
0010
0100
0001
1000
0100
0010
0100
1000
0010
0100
0001
1000
0001
0010
0100
1000
,
0010
0100
0001
1000
0100
0010
0001
0100
0010
0100
0001
1000
0100
1000
0010
0000
,
1001
0000
1000
0010
0100
0001
0100
0001
1000
0010
1000
0010
0100
0001
0100
0001
,
0010
0100
0010
0100
1000
0001
1000
0001
1000
0010
1000
0010
0100
0001
0100
0001
,
1000
0010
0100
0001
0010
0100
0010
0001
0100
0001
1000
0100
1000
0001
0100
0010
,
1000
0010
0100
0001
0010
0100
0010
0001
0100
0001
1000
0100
2000
0000
0000
3000
,
0110
0110
1100
0110
0000
0011
0000
2001
,
0000
3000
0101
0000
0110
0000
0101
0000
1000
0000
0101
0000
0101
0000
0101
0000
,
1000
0100
1000
0100
0010
0001
1000
0100
0010
0001
1000
0100
1000
0100
0010
0001
,
1000
0010
1000
0010
0100
0001
0010
0100
1000
0010
1000
0001
0010
0100
0010
0001
,
0100
0010
1000
0001
0010
0100
0010
0001
0100
0001
1000
0010
1000
0100
0010
0001
,
0100
0010
1000
0001
0010
0100
0010
0100
1000
0001
0100
0001
1000
0010
1000
0100
,
0010
0100
1000
0010
1000
0001
0100
0001
1000
0100
0010
0001
0010
0100
1000
0001
,
0100
0010
0100
0010
1000
0010
1000
0010
0100
0010
0100
0001
0010
0100
0010
0100
,
1000
0001
0100
0010
0100
0001
0010
0100
1000
0010
1000
0001
0010
0001
0100
0010
,
0100
0001
1000
0100
1000
0010
0100
0010
1000
0001
0010
0100
1000
0001
0100
0010
,
1000
0100
0010
0100
0010
0100
1000
0001
0100
0001
1000
0010
1000
0100
0010
0001
,
0100
0010
0100
0001
1000
0010
0100
0001
0010
0100
0010
0100
0010
0001
1000
0010
,
1000
1000
0000
1001
0000
1001
0000
1001
,
1001
1000
1001
1100
1001
0110
0011
0000
,
1001
1001
1000
1001
0000
1000
1001
1000
,
1001
1000
1001
0101
1001
0011
1010
0000
,
0100
0001
0100
0001
1000
0010
0100
0001
0100
0001
1000
0010
0100
0001
1000
0100
,
0010
0100
1000
0010
0100
0010
1000
0001
0010
0001
0100
0010
0100
0001
1000
0001
,
0100
0000
0000
0000
,
0000
0000
0000
0000
,
0011
0011
0000
0011
0101
0101
0000
0101
,
1010
1010
0000
1010
1100
1100
0000
1100
,
0220
0000
0000
0000
,
0000
0000
0000
0000
0000
0330
0110
0110
,
2002
0000
3003
0000
;
