#TITLE:Sengoku Battle Field;
#SUBTITLE:;
#ARTIST:DJ Sharpnel;
#TITLETRANSLIT:;
#SUBTITLETRANSLIT:;
#ARTISTTRANSLIT:;
#CREDIT:;
#BANNER:sengoku battle field bn.png;
#BACKGROUND:sengoku battle field bg.png;
#LYRICSPATH:;
#CDTITLE:;
#MUSIC:Sengoku Battle Field.ogg;
#OFFSET:-0.364;
#SAMPLESTART:216.373;
#SAMPLELENGTH:19.199;
#SELECTABLE:YES;
#BPMS:0.000=200.000;
#STOPS:;
#BGCHANGES:;
// cache tags:
#FIRSTBEAT:60.000;
#LASTBEAT:865.333;
#SONGFILENAME:Songs/SHARPNELSTREAMZ v2/Sengoku Battle Field/Sengoku Battle Field.sm;
#HASMUSIC:1;
#HASBANNER:1;
#MUSICLENGTH:267.049;
// end cache tags

//---------------dance-single - 16 (CTalon)----------------
#NOTES:
     dance-single:
     16 (CTalon):
     Challenge:
     16:
     1.000,1.000,0.228,0.004,1.000,2121.000,61.000,1.000,4.000,0.000:
0000
0000
0000
0000
,
0000
0000
0000
0000
,
0000
0000
0000
0000
,
0000
0000
0000
0000
,
0000
0000
0000
0000
,
0000
0000
0000
0000
,
0000
0000
0000
0000
,
0000
0000
0000
0000
,
0000
0000
0000
0000
,
0000
0000
0000
0000
,
0000
0000
0000
0000
,
0000
0000
0000
0000
,
0000
0000
0000
0000
,
0000
0000
0000
0000
,
0000
0000
0000
0000
,
1000
1000
1000
1000
,
1000
1000
1000
1000
,
1000
1000
1000
1000
,
1000
1000
1000
1000
,
1000
1000
1000
1000
,
1000
1000
1000
1000
,
1000
0010
0100
0001
0010
0100
1000
0001
,
1000
0010
0100
0001
0010
0001
1000
0100
0010
0100
1000
0010
0100
0001
1000
0001
,
1000
0000
0000
0000
,
0000
0000
0004
0000
,
1003
0010
0100
0000
0001
1000
0100
0000
0010
0001
1000
0000
0010
0000
0100
0001
,
1000
0001
0010
0000
0100
1000
0001
0000
0100
0010
1000
0100
0010
0000
0100
1000
,
0100
0010
0001
0000
1000
0010
0100
0000
0001
0010
0001
0000
1000
0000
0010
0100
,
0001
0100
0010
0000
1000
0100
0010
0001
0100
0010
1000
0000
0001
0010
0001
0000
,
1000
0010
1000
0000
0001
0100
0010
0000
0100
0001
1000
0000
0100
0000
0010
0001
,
0010
0100
0010
0000
0001
1000
0010
0000
0100
0001
1000
0001
1000
0000
0001
0100
,
0010
1000
0010
0000
0100
0001
1000
0000
0100
0010
0001
0000
1000
0000
0010
0100
,
0001
0100
0001
0000
1000
0100
0010
0100
1000
0001
1000
0000
0100
0010
0001
0000
,
1000
0001
0010
0000
0001
1000
0010
0000
0100
0001
1000
0000
0100
0000
0010
0001
,
1000
0001
1000
0000
0010
0100
0001
0000
1000
0100
0010
0001
1000
0000
0001
0100
,
0010
1000
0001
0000
1000
0100
0010
0000
0100
1000
0001
0000
0100
0000
0010
1000
,
0100
1000
0001
0000
0100
0010
1000
0001
0010
0100
1000
0000
0001
0100
0010
0000
,
0100
0001
1000
0000
0100
0010
0001
0000
1000
0010
0100
0000
0001
0000
1000
0100
,
0010
0100
1000
0000
0001
0100
0010
0000
1000
0001
1000
0001
0100
0000
0010
1000
,
0100
0010
0001
0000
1000
0010
0100
0000
0001
0010
0100
0000
0010
0000
0001
1000
,
0010
0100
0001
0000
1000
0001
0010
0100
0010
0001
0100
0000
0010
1000
0001
0000
,
1000
0000
0000
0000
0000
0000
0000
0000
0001
1000
0001
1000
0001
1000
0001
1000
,
0001
1000
0100
1000
0010
0100
0001
0100
0010
1000
0001
0010
0100
0010
0001
0100
,
0001
1000
0001
0010
0001
0100
0010
1000
0001
0010
0100
1000
0100
1000
0010
1000
,
0001
1000
0100
1000
0001
0100
0010
1000
0100
0010
0001
0010
0100
1000
0010
1000
,
0010
0100
0001
1000
0001
0010
0100
1000
0010
1000
0001
0100
0001
0010
0100
0010
,
0001
1000
0100
1000
0010
0100
0001
0100
0010
1000
0001
0010
0100
0010
0001
0100
,
0001
1000
0001
0010
0001
0100
0010
1000
0001
0010
0100
1000
0100
1000
0010
1000
,
0001
1000
0100
1000
0001
0100
0010
1000
0100
0010
0001
0010
0100
1000
0010
1000
,
0010
0100
0001
1000
0001
0010
0100
1000
0010
1000
0001
0100
0001
0010
0100
0010
,
0001
1000
0010
1000
0100
0010
0001
0010
0100
1000
0001
0100
0010
0100
0001
0010
,
0001
1000
0001
0100
0001
0010
0100
1000
0001
0100
0010
1000
0010
1000
0100
1000
,
0001
1000
0010
1000
0001
0010
0100
1000
0010
0100
0001
0100
0010
1000
0100
1000
,
0100
0010
0001
1000
0001
0100
0010
1000
0100
1000
0001
0010
0001
0100
0010
0100
,
0001
1000
0010
1000
0100
0010
0001
0010
0100
1000
0001
0100
0010
0100
0001
0010
,
0001
1000
0001
0100
0001
0010
0100
1000
0001
0100
0010
1000
0010
1000
0100
1000
,
0001
1000
0010
1000
0001
0010
0100
1000
0010
0100
0001
0100
0010
1000
0100
1000
,
0100
0010
0001
1000
0001
0100
0010
1000
0100
1000
0001
0010
0001
0100
0010
0100
,
0001
1000
0100
1000
0010
0100
0001
0100
0010
1000
0001
0010
0100
0010
0001
0100
,
0001
1000
0001
0010
0001
0100
0010
1000
0001
0010
0100
1000
0100
1000
0010
1000
,
0001
1000
0100
1000
0001
0100
0010
1000
0100
0010
0001
0010
0100
1000
0010
1000
,
0010
0100
0001
1000
0001
0010
0100
1000
0010
1000
0001
0100
0001
0010
0100
0010
,
0001
1000
0100
1000
0010
0100
0001
0100
0010
1000
0001
0010
0100
0010
0001
0100
,
0001
1000
0001
0010
0001
0100
0010
1000
0001
0010
0100
1000
0100
1000
0010
1000
,
0001
1000
0100
1000
0001
0100
0010
1000
0100
0010
0001
0010
0100
1000
0010
1000
,
0010
0100
0001
1000
0001
0010
0100
1000
0010
1000
0001
0100
0001
0010
0100
0010
,
0001
1000
0010
1000
0100
0010
0001
0010
0100
1000
0001
0100
0010
0100
0001
0010
,
0001
1000
0001
0100
0001
0010
0100
1000
0001
0100
0010
1000
0010
1000
0100
1000
,
0001
1000
0010
1000
0001
0010
0100
1000
0010
0100
0001
0100
0010
1000
0100
1000
,
0100
0010
0001
1000
0001
0100
0010
1000
0100
1000
0001
0010
0001
0100
0010
0100
,
0001
1000
0010
1000
0100
0010
0001
0010
0100
1000
0001
0100
0010
0100
0001
0010
,
0001
1000
0001
0100
0001
0010
0100
1000
0001
0100
0010
1000
0010
1000
0100
1000
,
0001
1000
0010
1000
0001
0010
0100
1000
0010
0100
0001
0100
0010
1000
0100
1000
,
0100
0010
0001
1000
0001
0100
0010
1000
0100
1000
0001
0010
0001
0100
0010
0100
,
0002
0000
0000
0000
,
0003
0000
0000
0000
,
0000
0000
0000
0000
,
0000
0000
0000
0000
,
0000
0000
0000
0000
,
0000
0000
0000
0000
,
0001
0010
0100
1000
0010
0100
0001
1000
,
0001
0100
0010
1000
0001
1000
0100
0010
0001
1000
0001
0100
0010
1000
0001
0010
,
0100
0000
1000
0000
0010
0000
0000
0100
0001
0000
0010
0000
0100
0000
0000
1000
,
0001
0000
0100
0000
0010
0000
0000
1000
0100
0000
1000
0000
0001
0000
0000
0010
,
0100
0000
0010
0000
0001
0000
0000
1000
0010
0000
0100
0000
0010
0000
0000
1000
,
0100
0000
0010
0000
0001
0000
0000
1000
0001
0000
0100
0000
0010
0000
0000
0100
,
0001
0000
0010
0000
0100
0000
0000
0010
0001
0000
1000
0000
0010
0000
0000
0100
,
0001
0000
0010
0000
0100
0000
0000
1000
0001
0000
0100
0000
0010
0000
0000
0100
,
0001
0010
0100
1000
0001
0100
0001
0010
,
0001
1000
0001
1000
0100
0010
0001
0100
0010
1000
0001
0010
0100
0010
0001
1000
,
0001
0000
0000
0000
,
0000
0000
0000
0000
,
1001
1100
0101
1001
,
1010
0000
0110
0000
1001
0000
1010
0010
,
0101
1001
1100
0101
,
1010
0000
0110
0000
1001
1000
0100
0010
,
0011
1001
1100
0101
,
0110
0000
1001
0000
1010
0000
0101
0001
,
0011
0101
1001
1100
,
0011
0000
1010
0000
0011
0010
0001
0100
,
0110
1001
1100
1001
,
1010
0000
1100
0000
0110
0000
1001
0001
,
0011
1001
1010
0101
,
1100
0000
0011
0000
1001
1000
0010
0100
,
0110
1010
1001
1100
,
0110
0000
0011
0000
1001
0000
1010
0010
,
1000
0001
0100
0010
1000
0100
0010
0001
1000
0100
1000
0001
0100
0010
1000
0100
,
1000
0000
0000
0000
,
0001
0010
0100
1000
0001
0010
0001
1000
0100
0010
0100
1000
0001
0010
0001
1000
,
0001
0100
0010
1000
0010
0100
0001
1000
0001
0100
0010
0100
0001
1000
0010
1000
,
0001
0010
0001
0010
0100
1000
0100
0010
0001
1000
0001
0010
0100
0010
0001
1000
,
0001
0100
0010
1000
0010
0100
0010
1000
0001
0100
0010
0100
0001
1000
0001
0100
,
0001
1000
0100
0010
0100
1000
0100
0010
0001
1000
0001
1000
0100
0010
0100
1000
,
0001
0100
0001
1000
0010
0100
0010
1000
0001
0100
0001
0100
0010
1000
0010
0100
,
0001
1000
0100
1000
0001
0010
0100
1000
0100
0010
0100
1000
0001
1000
0100
0010
,
0001
1000
0010
1000
0001
1000
0010
0100
0001
0100
0010
1000
0010
0100
0001
1000
,
0001
0010
0100
1000
0001
0010
0001
1000
0100
0010
0100
1000
0001
0010
0001
1000
,
0001
0100
0010
1000
0010
0100
0001
1000
0001
0100
0010
0100
0001
1000
0010
1000
,
0001
0010
0001
0010
0100
1000
0100
0010
0001
1000
0001
0010
0100
0010
0001
1000
,
0001
0100
0010
1000
0010
0100
0010
1000
0001
0100
0010
0100
0001
1000
0001
0100
,
0001
1000
0100
0010
0100
1000
0100
0010
0001
1000
0001
1000
0100
0010
0100
1000
,
0001
0100
0001
1000
0010
0100
0010
1000
0001
0100
0001
0100
0010
1000
0010
0100
,
0001
0000
1000
0000
0100
0000
0010
0000
0001
0000
0000
0001
0000
0000
0001
0000
,
1000
0000
0000
1000
0000
0000
0010
0000
0100
0000
0000
0001
0000
0000
1000
0000
,
1001
0001
0001
0001
,
0001
0001
0001
0001
,
0001
0001
0001
0001
,
0001
0001
0001
0001
,
0001
0001
0001
0001
,
0001
0001
0001
0001
,
0001
0001
0001
0001
,
0001
0001
0001
0001
,
1001
0000
1000
0010
0000
0100
0001
0000
0010
0100
0000
1000
,
0000
0000
0001
0100
0000
0010
1000
0000
0001
0010
0000
0010
,
0100
0000
1000
0001
0000
0100
0010
0000
1000
0001
0000
0010
,
0100
1000
0100
1000
0000
0001
0100
0000
0010
1000
0000
0000
,
1001
0000
0001
0100
0000
0010
1000
0000
0100
0010
0000
0001
,
0000
0000
1000
0010
0000
0100
0001
0000
0010
0100
0000
0100
,
1000
0000
0001
0100
0000
0010
1000
0000
0001
0010
0000
0100
,
1000
0000
1000
0001
1000
0100
0010
0000
0001
1000
0000
0010
,
1000
0000
0001
0100
0000
0010
1000
0000
0100
0010
0000
0001
,
0000
0000
1000
0010
0000
0100
0001
0000
1000
0100
0000
0100
,
0010
0000
0001
1000
0000
0010
0100
0000
0001
1000
0000
0100
,
0010
0001
0010
0001
0000
1000
0010
0000
0100
0001
0000
0000
,
1001
0000
1000
0010
0000
0100
0001
0000
0010
0100
0000
1000
,
0000
0000
0001
0100
0000
0010
1000
0000
0100
0010
0000
0010
,
0001
0000
1000
0010
0000
0100
0001
0000
1000
0100
0000
0010
,
0001
0000
0001
1000
0001
0010
0100
0000
1000
0001
0000
0100
,
0001
0000
1000
0010
0000
0100
0001
0000
0010
0100
0000
1000
,
0000
0000
0001
0100
0000
0010
1000
0000
0001
0010
0000
0010
,
0100
0000
1000
0001
0000
0100
0010
0000
1000
0001
0000
0010
,
0100
1000
0100
1000
0000
0001
0100
0000
0010
1000
0000
0000
,
1001
0000
0001
0100
0000
0010
1000
0000
0100
0010
0000
0001
,
0000
0000
1000
0010
0000
0100
0001
0000
0010
0100
0000
0100
,
1000
0000
0001
0100
0000
0010
1000
0000
0001
0010
0000
0100
,
1000
0001
1000
0001
0000
0010
0100
0000
1000
0001
0000
0000
,
1001
0000
1000
0010
0000
0100
0001
0000
0010
0100
0000
1000
,
0000
0000
0001
0100
0000
0010
1000
0000
0001
0010
0000
0010
,
0100
0000
1000
0001
0000
0100
0010
0000
1000
0001
0000
0010
,
0100
1000
0100
1000
0000
0001
0100
0000
0010
1000
0000
0000
,
1001
0000
0001
0100
0000
0010
1000
0000
0100
0010
0000
0001
,
0000
0000
1000
0010
0000
0100
0001
0000
0010
0100
0000
0100
,
1000
0000
0001
0100
0000
0010
1000
0000
0001
0010
0000
0100
,
1000
0000
0000
0000
0000
0000
0000
0000
0001
0000
0000
0000
1000
0000
0000
0000
0000
0000
0000
0000
0010
0000
0000
0000
1000
0000
0000
0001
0000
0000
1000
0000
0000
0001
0000
0000
0100
0000
0000
0010
0000
0000
1000
0000
0000
0001
0000
0000
,
1000
0100
0010
0001
1000
0010
0100
0001
,
1000
0001
0010
0100
1000
0001
0100
0100
,
0010
1000
0001
0010
0100
0010
0001
1000
,
0001
0100
0010
1000
0001
0001
0010
0010
,
0100
1000
0001
0100
0010
1000
0100
0010
,
0100
1000
0001
0100
0010
1000
0001
0001
,
0010
0100
1000
0100
0010
0100
1000
0001
,
0100
0010
1000
0100
1000
1000
0001
0001
,
0100
0010
1000
0100
1000
0001
0100
0010
,
1000
0100
0010
0100
1000
0001
0100
0100
,
0001
1000
0100
1000
0001
0100
0001
0100
,
0010
1000
0001
0010
0100
0100
1000
1000
,
0001
0100
0010
1000
0100
0010
0100
1000
,
0001
0100
0010
1000
0001
0010
0100
0100
,
1000
0000
0001
0000
0100
0000
0010
0100
0001
1000
0100
0010
0001
0000
1000
0000
,
0010
0000
0100
0000
0001
0000
0010
0100
0010
0001
1000
0010
1000
0000
0010
0000
,
1000
0001
0010
0001
0100
0010
1000
0010
0100
0001
1000
0100
0010
0100
1000
0010
,
1000
0001
1000
0100
1000
0010
0100
0001
1000
0100
0010
0001
0010
0001
0100
0001
,
1000
0001
0010
0001
1000
0010
0100
0001
0010
0100
1000
0100
0010
0001
0100
0001
,
0100
0010
1000
0001
1000
0100
0010
0001
0100
0001
1000
0010
1000
0100
0010
0100
,
1000
0001
0010
0001
0100
0010
1000
0010
0100
0001
1000
0100
0010
0100
1000
0010
,
1000
0001
1000
0100
1000
0010
0100
0001
1000
0100
0010
0001
0010
0001
0100
0001
,
1000
0001
0010
0001
1000
0010
0100
0001
0010
0100
1000
0100
0010
0001
0100
0001
,
0100
0010
1000
0001
1000
0100
0010
0001
0100
0001
1000
0010
1000
0100
0010
0100
,
1000
0001
0100
0001
0010
0100
1000
0100
0010
0001
1000
0010
0100
0010
1000
0100
,
1000
0001
1000
0010
1000
0100
0010
0001
1000
0010
0100
0001
0100
0001
0010
0001
,
1000
0001
0100
0001
1000
0100
0010
0001
0100
0010
1000
0010
0100
0001
0010
0001
,
0010
0100
1000
0001
1000
0010
0100
0001
0010
0001
1000
0100
1000
0010
0100
0010
,
1000
0001
0100
0001
0010
0100
1000
0100
0010
0001
1000
0010
0100
0010
1000
0100
,
1000
0001
1000
0010
1000
0100
0010
0001
1000
0010
0100
0001
0100
0001
0010
0001
,
1000
0001
0100
0001
1000
0100
0010
0001
0100
0010
1000
0010
0100
0001
0010
0001
,
0010
0100
1000
0001
1000
0010
0100
0001
0010
0001
1000
0100
1000
0010
0100
0010
,
1000
0001
0010
0001
0100
0010
1000
0010
0100
0001
1000
0100
0010
0100
1000
0010
,
1000
0001
1000
0100
1000
0010
0100
0001
1000
0100
0010
0001
0010
0001
0100
0001
,
1000
0001
0010
0001
1000
0010
0100
0001
0010
0100
1000
0100
0010
0001
0100
0001
,
0100
0010
1000
0001
1000
0100
0010
0001
0100
0001
1000
0010
1000
0100
0010
0100
,
1000
0001
0010
0001
0100
0010
1000
0010
0100
0001
1000
0100
0010
0100
1000
0010
,
1000
0001
1000
0100
1000
0010
0100
0001
1000
0100
0010
0001
0010
0001
0100
0001
,
1000
0001
0010
0001
1000
0010
0100
0001
0010
0100
1000
0100
0010
0001
0100
0001
,
0100
0010
1000
0001
1000
0100
0010
0001
0100
0001
1000
0010
1000
0100
0010
0100
,
1000
0001
0100
0001
0010
0100
1000
0100
0010
0001
1000
0010
0100
0010
1000
0100
,
1000
0001
1000
0010
1000
0100
0010
0001
1000
0010
0100
0001
0100
0001
0010
0001
,
1000
0001
0100
0001
1000
0100
0010
0001
0100
0010
1000
0010
0100
0001
0010
0001
,
0010
0100
1000
0001
1000
0010
0100
0001
0010
0001
1000
0100
1000
0010
0100
0010
,
1000
0001
0100
0001
0010
0100
1000
0100
0010
0001
1000
0010
0100
0010
1000
0100
,
1000
0001
1000
0010
1000
0100
0010
0001
1000
0010
0100
0001
0100
0001
0010
0001
,
1000
0001
0100
0001
1000
0100
0010
0001
0100
0010
1000
0010
0100
0001
0010
0001
,
0010
0100
1000
0001
1000
0010
0100
0001
0010
0001
1000
0100
1000
0010
0100
0010
,
1000
0000
0000
0000
,
0000
0000
0000
0000
,
0000
0000
0000
0000
,
0000
0000
0000
0000
,
0000
0000
0000
0000
MMMM
0000
0000
0000
0000
0000
0000
0000
;
