#TITLE:Strange Medicine;
#SUBTITLE:;
#ARTIST:Hellion Sounds;
#TITLETRANSLIT:;
#SUBTITLETRANSLIT:;
#ARTISTTRANSLIT:;
#CREDIT:;
#BANNER:strangemedicine-bn.png;
#BACKGROUND:strangemedicine-bg.png;
#LYRICSPATH:;
#CDTITLE:cdtitle.png;
#MUSIC:08 - Hellion Sounds - Strange Medicine.mp3;
#OFFSET:-0.200;
#SAMPLESTART:100.000;
#SAMPLELENGTH:12.000;
#SELECTABLE:YES;
#BPMS:0.000=145.000,27.000=290.000,28.000=145.000,170.750=290.000,171.750=145.000;
#STOPS:27.000=0.207
,170.750=0.103
,171.250=0.103
;
#BGCHANGES:;
// cache tags:
#FIRSTBEAT:0.000;
#LASTBEAT:571.250;
#SONGFILENAME:Songs/Hard Songs Megapack Volume 9/Strange Medicine/strangemedicine.sm;
#HASMUSIC:1;
#HASBANNER:1;
#MUSICLENGTH:240.904;
// end cache tags

//---------------dance-single - ----------------
#NOTES:
     dance-single:
     :
     Challenge:
     15:
     1.000,1.000,1.000,0.560,1.000,1773.000,1028.000,135.000,5.000,263.000:
1000
0000
0100
0000
0010
0001
0000
1000
0001
1000
0100
0000
0010
0001
1000
0000
,
0100
0000
0010
0001
0100
1000
0000
1000
0101
0000
0010
0001
1100
0000
0010
0000
,
0100
0001
0000
1000
0001
1000
0010
0000
0100
0001
1000
0000
0010
0000
0100
0001
,
0010
1000
0000
1000
0110
0000
0100
0001
1010
0000
0100
0010
1010
0001
0000
0010
,
1001
0010
0100
0000
1100
0001
0010
0000
0101
0000
1000
0001
1100
0010
0000
0010
,
1101
0000
1000
0001
1010
0000
0100
1000
1001
0010
0000
1000
0011
1000
0100
0000
,
0101
0010
1000
0000
0110
0000
0001
0010
0101
1000
0000
1000
0112
0000
0000
0000
,
1103
0010
1000
0010
0100
0001
0000
1000
0010
0101
1000
0000
0011
0000
0100
0000
,
1100
0010
1000
0100
0010
1001
0020
0131
1010
0000
0100
0001
1010
0100
0010
0001
,
0100
0010
1000
0000
0100
0001
0100
0000
0011
0000
1000
0000
1000
0100
1000
0010
,
0000
0101
2000
0000
3110
0000
1000
0010
1100
0001
0010
0100
0000
1001
0000
0010
,
0001
0100
1000
0010
0101
0000
1100
0000
0010
0001
1000
0001
0010
0101
2000
0000
,
3110
0001
1000
0001
0100
0000
0102
0000
0013
1100
0000
0100
0010
0001
0010
1000
,
0110
0000
1001
0000
0010
0100
0001
1000
0010
0101
0000
0110
0002
1000
0113
0000
,
0011
0100
0000
0010
1001
0100
1010
0001
1100
0011
0000
1100
0001
1010
0101
0000
,
0110
0001
1100
0000
0110
0001
1010
0101
0010
1001
0100
1010
0101
0000
1001
0110
,
1100
0001
1010
0001
0110
1001
0100
0010
0100
0011
1100
0000
0110
0001
1100
0000
,
1010
0001
0110
1001
0000
1010
0200
1000
0311
0000
1000
0001
1100
0010
1001
0010
,
0101
1010
0000
1100
0001
1100
0011
1000
0101
0010
1100
0000
0101
0010
1001
0110
,
0000
1010
0200
0010
1301
0100
1010
0011
1100
0000
1002
0000
0113
1001
0000
1010
,
0001
1100
0011
0100
1001
0010
1100
0000
1010
0100
1001
0110
0000
0101
0020
0100
,
1031
0110
0101
1010
1001
0000
1010
0100
1001
0110
0001
1100
0010
1001
0110
0000
,
0101
0010
1100
0000
1001
0010
1100
0011
1000
0101
2000
3101
1010
0000
1010
0101
,
1001
0010
1100
0001
0110
1001
0010
1000
0102
1000
0013
0000
0101
0010
1100
0000
,
1001
0010
1100
0011
1000
0101
2000
0001
3110
0000
0110
0101
1001
0010
1100
0001
,
1010
0110
0000
1100
0010
0101
0110
1000
0011
0010
1100
0000
0110
0001
1100
1001
,
0000
1010
0200
1000
1310
0001
0110
1010
1001
0000
0012
0000
0113
1100
0000
1100
,
0001
0110
0101
1000
0111
0000
0100
0011
0100
1000
0101
0010
0000
1101
0000
0110
,
0001
1100
0010
0101
1100
0010
1001
0010
1100
0011
0100
0000
0111
1000
0010
1101
,
0010
0101
0010
0100
1001
0010
1100
0001
0100
0000
1010
0110
1000
0011
1000
0101
,
1000
0000
1010
0100
1001
0000
1010
0100
1001
0100
1000
0010
0001
0010
1100
0000
,
0101
0010
1001
0100
0010
0000
1010
0101
0000
1001
0020
0100
1030
0000
0010
1000
,
0011
0100
0010
1000
0100
0011
0100
1010
0100
0001
0010
0100
0011
1000
0110
1000
,
0010
0000
1100
0011
0000
1001
0210
0001
1310
0000
0100
0010
1001
0000
0020
0000
,
0131
1010
0000
1010
0100
0011
1100
0010
0101
1000
0110
0001
0000
0000
1010
0110
,
0000
1010
0200
0001
0310
1100
0110
1001
0110
0000
1010
0000
0110
1001
0000
1010
,
0000
1010
0101
0000
0111
1001
1010
0101
0010
0000
1101
0110
0000
1101
0000
0110
,
1001
0000
0110
1101
1010
0100
1011
0000
1010
0111
0000
1010
0001
1010
0110
0001
,
1010
0101
1010
0001
1100
0000
1001
0110
0000
1001
0000
1010
0110
0000
0110
0101
,
1010
1001
0110
0000
1010
0011
0000
1100
0000
0101
1100
0000
0101
1001
1010
0100
,
0011
0000
1010
0110
0000
1010
0000
1001
0101
0010
1100
1001
0110
1000
0110
0001
,
0110
1001
0010
1001
0100
1001
0110
0001
1100
0011
1100
0000
0010
1000
0101
1010
,
0000
0000
0000
0000
0011
0000
0000
0000
0000
0000
0000
0000
1010
0000
0000
0000
0002
0000
0000
0000
0010
0000
0000
0000
1013
0000
0000
0000
0010
0000
0000
0000
0101
0000
0000
0000
2000
0000
0000
0000
3020
0000
0000
0000
0232
0000
0000
0000
0303
0000
0000
0000
2220
0000
0000
0000
3330
0000
0000
0000
2222
3333
0000
0000
,
1100
0001
0100
0010
1001
0110
0000
1100
0001
0110
1001
0000
0011
0100
1010
0100
,
1010
0001
1100
0011
0000
0101
0020
1031
0110
0001
1010
0101
1010
0000
0010
0100
,
1001
0110
1000
0010
0001
0010
1100
0000
1001
0100
0011
1000
0010
0100
1010
0101
,
0000
0110
2000
0100
3011
0000
1100
0011
1100
0011
0100
1010
0000
0011
0101
1000
,
0100
0010
1001
0100
0001
0100
1010
0000
0110
1001
0110
1001
0000
1010
0200
0001
,
1310
0100
0011
1100
0011
1100
0020
0000
0131
1010
0000
1100
0001
1000
0011
1100
,
0010
0100
1001
0110
1000
0001
1100
0011
0000
0110
2000
0001
3100
1010
0110
0101
,
1001
0010
1100
0001
1010
0101
0000
1100
0010
1001
0110
0000
1001
0100
1010
0000
,
1100
0010
1100
0011
0000
0110
2000
3101
1010
0000
1001
0011
1100
0010
1100
0001
,
0110
1001
0100
1000
0001
1000
0110
0000
0011
0100
1010
0000
1100
0010
1100
0011
,
0000
0110
2000
0010
3101
0000
1100
0110
1011
0100
1001
0010
0101
1110
0000
1100
,
0010
0101
1001
0100
1011
0100
1110
0000
1010
0100
1001
0101
1000
0111
2010
0001
,
3110
0001
1100
0011
1100
0000
1201
0000
1301
1110
0000
1100
0001
0110
1010
0100
,
1011
0000
1110
0000
1100
0110
0011
1001
0100
0011
0000
0011
1110
0000
1000
0011
,
1000
0010
0101
1000
0000
0101
0010
1100
0011
0000
1100
0011
0100
0000
1001
0010
,
0100
0011
0000
1010
0200
0011
1301
0000
0100
0010
1001
0100
0010
1000
0100
0000
,
1010
0000
0110
1000
0100
0000
0101
0010
1000
0000
1100
0010
0100
1001
0000
0011
,
0200
1001
1310
0000
0100
0001
1010
0100
1001
0100
0011
1100
0000
0010
1001
0100
,
1010
0000
0011
0100
1010
0000
0100
1000
0011
1000
0000
0110
0002
0000
1013
0100
,
0001
0010
1101
0010
2000
0000
3011
1100
0001
0110
0001
0010
1100
0000
0101
0010
,
1100
0011
1000
0101
1000
0110
0000
0011
2000
3101
0000
1000
0001
1010
0100
1001
,
0100
0010
0100
1001
0000
0110
0000
0101
1000
0000
1001
0100
1010
0000
1100
0001
,
1100
0011
0000
1100
0000
1001
0110
0000
0110
1001
1010
0100
0001
0000
0110
1001
,
0000
1010
0000
1010
1100
0000
1011
1101
0110
0000
1011
0100
0011
1100
0001
0110
,
0000
0110
1101
0000
0011
1100
0111
0000
1100
0010
1100
1001
0000
1010
0000
0011
,
0110
0000
1010
0101
0110
1001
0100
0000
0111
1010
0000
1101
0000
0110
1011
0000
,
1001
0111
1100
0010
1001
0000
1100
0111
0000
0010
0101
0010
1100
0001
0010
0100
,
0001
0110
1111
0000
0000
0001
1010
0000
0200
0000
1310
1101
0000
1100
0010
0101
,
1010
0000
1101
0011
1100
0011
0100
1011
0100
1010
0100
0000
0102
0000
1013
0101
,
0000
1011
0200
1000
0311
0000
1010
0101
1110
0001
0000
1101
0012
1113
0001
0000
,
2001
0000
3101
1011
0000
1001
0010
0100
1000
0000
1011
0110
0101
1010
0001
0110
,
1001
0110
1000
0111
1200
0000
1300
0111
1000
0110
0001
1110
0011
0100
1001
0110
,
0011
0100
1001
0100
2010
0101
3010
0000
0012
0000
1103
0011
0000
1010
0001
0010
,
0100
0000
1100
0001
1010
0101
0010
1101
0010
1101
0010
0000
0210
0000
1301
0110
,
0000
1110
0002
1100
0113
0000
1100
1001
0111
0000
1000
0111
0012
1000
0113
0000
,
2110
0000
3101
0111
0000
1100
0011
1100
1010
0000
1011
0110
1001
0010
0101
1010
,
0110
0001
1100
0000
1102
0000
0113
1110
0000
1001
0011
0110
1001
0000
1100
0110
,
1001
0100
1111
0000
0021
0000
1130
0000
1021
0000
0131
1000
0110
0101
1010
0101
,
1000
0110
1011
0000
1101
0010
1001
0000
0110
1000
0101
2011
0000
3111
1010
0100
,
1010
0000
0110
0001
1100
0011
0100
1001
0010
0111
1001
0000
1100
0011
0110
0001
,
1100
0011
1100
0011
0000
1101
2010
0000
3011
0000
0101
1000
0110
0101
1000
0101
,
0010
1100
1011
0000
1100
0011
1100
0001
1110
0000
1110
1002
0000
1103
0010
0001
,
1110
0000
0110
1000
0011
1100
0000
1010
0000
1101
1010
0000
1111
0000
1000
0011
,
1100
0000
1001
0100
0000
1011
0200
1310
0001
0000
0100
1011
0100
1000
0011
0100
,
0010
1001
0110
0000
1011
0010
1101
0000
0110
1000
0111
1101
0000
0111
1000
0111
,
1001
0010
1100
0001
1010
0101
0000
1001
0010
0111
1100
0000
1011
0110
1001
0010
,
1101
0010
1001
0110
1000
0111
2000
0000
3110
0000
0110
1101
0011
1100
0000
1001
,
0010
1100
0111
1000
1101
0011
1100
0001
1110
0010
1102
0010
0003
0101
0010
1100
,
1011
0000
1001
0100
1001
0110
1000
0101
0010
1101
0010
0000
1111
1000
0110
1001
,
1100
0010
0101
1000
0010
0111
1000
0110
0021
0000
0000
1001
1000
0000
0001
0230
,
1001
0000
0000
0000
1000
0000
0302
0000
1000
0000
0000
0000
1010
0203
0000
0000
,
0011
0000
0000
0000
1320
0000
0000
0100
0100
0000
0000
2030
0101
0000
0000
0000
,
0100
0100
0110
0101
,
3102
0000
0010
0000
1000
0100
0000
2013
0000
0010
0001
0000
0010
0100
3021
0000
,
0100
0000
1000
0001
0000
1230
0000
1000
0010
0000
0001
0010
1302
0000
0100
0000
,
0010
0100
0000
2013
0000
0010
0100
0000
0001
0010
0100
0000
0010
0000
0001
0100
,
3000
0010
0000
0010
MMMM
1000
0100
0010
2001
0000
0001
0000
0001
0000
0001
3200
,
0011
0000
0001
0000
0001
0000
2301
0000
0001
0000
0001
0000
0011
3200
0001
0000
,
0011
0000
0001
0000
2311
0000
0001
0000
0001
0000
0001
3200
0011
0000
0001
0000
,
0001
0001
0001
0001
0011
0001
0011
0001
,
1320
0000
1000
0000
1000
0000
1000
0032
1100
0000
1000
0000
1000
0000
1023
0000
,
1000
0000
1000
0000
1100
0032
1000
0000
1100
0000
1000
0000
1123
0000
1000
0000
,
1000
0000
1000
0032
1100
0000
1000
0000
1000
0000
1000
0000
1000
0000
1000
0000
,
1103
0000
1000
0000
1111
1111
1111
1111
1101
0010
1001
0010
1100
0011
0100
1011
,
0000
0101
1010
0000
0011
1000
0111
0000
1100
0001
1010
0101
0010
1101
0010
0101
,
1010
0000
1010
0011
1101
0010
1100
0001
0110
1001
0000
1110
0001
0110
1001
0000
,
0011
1000
0110
0000
0101
1000
0101
1010
0000
1100
0002
1000
0113
0000
1100
0011
,
1110
0001
1100
0001
0110
1001
0000
0111
1000
0101
1010
0100
1010
0001
1110
0001
,
0110
0001
1100
0011
0000
1101
0020
0100
1031
0100
1010
0001
1110
0000
1002
0000
,
0113
1001
0000
1101
0010
1001
0110
1000
0011
0100
1010
0000
0011
0100
1010
0101
,
1000
0110
1000
0101
1020
0000
0131
0010
1101
0000
0000
0001
1110
0010
1101
0010
,
1100
0111
0000
1110
0011
1100
1010
0001
1100
0010
1111
0000
1100
0011
1100
0101
,
1000
0111
1000
0101
1010
0000
1100
0011
1001
0000
1100
0010
1001
0110
1000
0100
,
0020
0101
1031
0000
0101
0010
1100
0000
1001
0100
0011
1100
0010
1100
0002
1000
,
0113
0000
1100
0011
1101
0010
1100
0001
0110
1001
0000
1011
0100
0011
1100
0010
,
0101
1000
0111
0000
1001
0010
1100
0011
0000
1101
0020
0100
1031
0100
0011
0101
,
1011
0000
0210
0000
0311
1100
0000
1110
0001
0110
1001
0000
0011
1000
0110
0000
,
1010
0000
0000
0100
0000
0000
1001
0000
0000
0110
0000
0000
1000
0000
0000
0011
0000
0000
0000
0000
0000
0011
0000
0000
1200
0000
0000
0000
0000
0000
0311
0000
0000
0000
2221
0000
0330
0000
0212
0000
3000
00M0
0003
0000
1322
0000
0033
0000
,
1101
0010
1100
0001
1010
0110
0000
1011
0100
0011
1010
0000
1001
0010
1110
0000
,
1010
0100
1010
0011
1000
0111
1000
0011
1001
0000
1100
0011
1101
0010
1100
0001
,
1010
0110
0000
1110
0001
1100
1010
0000
1001
0010
0110
0000
1100
0010
1100
0101
,
0000
1100
0012
0100
0113
0000
1010
0101
1011
0100
0011
1000
0101
1001
0000
0111
,
1000
0011
0110
1000
0101
0100
1011
0100
0011
1000
0101
0011
0000
1101
0020
0100
,
1031
0100
0011
1100
0111
0000
1002
0000
1013
1001
0000
1110
0001
0110
0101
0000
,
0110
0001
1010
0000
1100
0001
1100
0010
1001
0011
0000
1100
0020
1000
0131
1000
,
0110
0000
0000
0001
0110
0000
1111
0010
1100
0011
1100
0110
1011
1111
0000
1101
,
0110
0000
1011
0100
1110
0001
1010
0100
1011
1100
0010
1101
0010
1001
0100
0000
,
0110
1001
0111
1000
0011
0100
1001
1010
0000
1101
0010
0101
1001
0000
0101
0001
,
1100
0000
1010
0100
1001
0011
0000
1100
0002
1000
0013
0000
0100
0010
1101
1010
,
0101
0010
1100
0110
0000
1110
0001
1010
0110
1000
0011
0100
1011
0000
0101
0010
,
1100
0101
0000
1101
0020
0001
1130
0001
0110
1001
0111
1000
0102
0000
0113
1001
,
0000
0000
0000
0000
1110
0000
0000
0000
0001
0000
0000
0000
1010
0000
0000
0000
0110
0000
0000
0000
1000
0000
0000
0000
0011
0000
0000
0000
0100
0000
0000
0000
0001
0000
0000
0000
0001
0000
0000
0000
2000
3000
0000
0000
1000
0000
0000
0000
1000
0000
0000
0000
1000
0000
0000
0000
2002
3003
0000
0000
1001
0000
0000
0000
,
1001
0000
0000
0000
1001
0000
0000
0000
2022
3033
0000
0000
1011
0000
0000
0000
1011
0000
0000
0000
1011
0000
0000
0000
2222
3333
0000
0000
0000
0000
0000
0000
0000
0000
0000
0000
0001
0000
0000
0000
0000
0000
0000
0000
0000
0000
0000
0000
0001
0000
0000
0000
0000
0000
0000
0000
2000
0000
0000
0000
0001
0000
0000
0000
,
0000
0000
0001
0000
0000
3201
0000
0000
0001
0000
0000
0001
2300
0000
0001
0000
,
0000
0001
0000
3200
0001
0000
0000
0001
0000
0000
2301
0000
0000
0001
0000
0000
,
0001
3200
0000
0001
0000
0000
0001
0000
0000
0000
0000
0000
0000
0000
0000
0000
,
0300
0000
0000
0100
1000
0001
0210
1300
0100
0010
1111
0000
0000
2011
0000
0000
,
0001
0010
0000
0001
3200
0010
0001
0000
0000
0011
0000
2300
0001
0010
0000
0001
,
0000
0010
3201
0000
0000
0011
0000
0000
0001
2310
0000
0001
0000
0010
0001
0000
,
0000
0011
0000
0000
0001
0010
0000
0001
0000
0010
0001
0000
0000
3000
0000
0000
;
