#TITLE:Haitei Breakerz;
#SUBTITLE:;
#ARTIST:DJ Sharpnel;
#TITLETRANSLIT:;
#SUBTITLETRANSLIT:;
#ARTISTTRANSLIT:;
#CREDIT:Loak;
#BANNER:haitei bannerz.png;
#BACKGROUND:haitei breakerz bg.png;
#LYRICSPATH:;
#CDTITLE:;
#MUSIC:Haitei Breakerz.ogg;
#OFFSET:-0.007;
#SAMPLESTART:54.873;
#SAMPLELENGTH:21.942;
#SELECTABLE:YES;
#BPMS:0.000=175.000;
#STOPS:;
#BGCHANGES:;
// cache tags:
#FIRSTBEAT:0.000;
#LASTBEAT:672.000;
#SONGFILENAME:Songs/SHARPNELSTREAMZ v2/Haitei Breakerz/Haitei Breakerz.sm;
#HASMUSIC:1;
#HASBANNER:1;
#MUSICLENGTH:234.113;
// end cache tags

//---------------dance-single - 15 (TYLoak)----------------
#NOTES:
     dance-single:
     15 (TYLoak):
     Challenge:
     15:
     1.000,1.000,0.128,0.103,1.000,2065.000,30.000,24.000,30.000,0.000:
0001
1000
0010
1M00
0001
0000
0M00
0000
,
1000
0001
0010
0001
1000
0000
0000
0000
,
0010
0100
0001
M100
0010
0000
M000
0000
,
1000
0100
0010
0100
1000
0000
0000
0000
,
0001
0100
0001
10M0
0001
0000
00M0
0000
,
1000
0100
1000
0001
1000
0000
0000
0000
,
0010
0100
0010
100M
0010
0000
000M
0000
,
0100
0001
0100
0010
0100
0000
0000
0000
,
0001
1000
0001
1000
0001
1000
0001
1000
0001
0010
0001
0010
0001
0010
0001
0010
,
0100
1000
0100
1000
0100
1000
0100
1000
0001
1000
0001
1000
0001
1000
0001
1000
,
0001
0100
0001
0100
0001
0100
0001
0100
0010
1000
0010
1000
0010
1000
0010
1000
,
0001
0010
0001
0010
0001
0010
0001
0010
0100
0010
0100
0010
0100
0010
0100
0010
,
010M
1000
0100
1000
0100
1000
0100
1000
0100
1000
0100
1000
0010
0100
0010
0100
,
0001
1000
0001
1000
0001
1000
0001
1000
0001
1000
0001
1000
0001
1000
0001
1000
,
0001
1000
0001
1000
0001
1000
0001
1000
0001
1000
0001
1000
0001
1000
0001
1000
,
0001
0100
0010
1000
0100
0010
0001
1000
0010
1000
0001
0100
0001
1000
0100
1000
,
0MM1
1000
0001
0010
0100
1000
0010
1000
0001
0100
0001
1000
0100
0010
0001
0100
,
0001
1000
0010
1000
0001
0100
0010
1000
0001
1000
0100
1000
0010
0100
0001
0010
,
0001
1000
0001
0100
0010
1000
0001
1000
0100
1000
0001
0010
0100
0010
0001
1000
,
0010
0100
0001
0100
0010
1000
0001
0010
0001
0100
0010
1000
0100
1000
0001
0100
,
00M1
1000
0010
0100
0001
1000
0001
0010
0100
0010
0001
1000
0001
0100
0010
0100
,
0001
1000
0100
1000
0010
0100
0001
1000
0001
0010
0100
1000
0001
0100
0001
1000
,
0100
0010
0100
1000
0001
0010
0001
1000
0001
0100
0010
0100
0010
1000
0001
1000
,
0100
1000
0010
0100
0001
1000
0001
0010
0001
1000
0010
0100
0010
1000
0001
1000
,
010M
0010
0001
1000
0001
0100
0010
1000
0010
0100
0001
1000
0001
1000
0100
0010
,
0001
1000
0001
0100
0010
1000
0001
1000
0100
0010
0001
1000
0001
0100
0010
1000
,
0001
1000
0010
0100
0001
1000
0100
1000
0010
0100
0001
0010
0001
1000
0001
0100
,
0010
1000
0010
1000
0001
0010
0100
0010
0001
1000
0001
0100
0010
1000
0010
0100
,
M001
0010
0001
1000
0010
0100
0001
1000
0001
0010
0100
1000
0001
0100
0001
1000
,
0100
1000
0010
0100
0001
1000
0001
0010
0001
1000
0010
1000
0001
0100
0010
1000
,
0100
0010
0001
1000
0001
0100
0001
0010
0100
1000
0001
1000
0100
1000
0010
0100
,
0001
1000
0010
1000
0100
0010
0100
0010
0001
1000
0100
1000
0001
0100
0010
0100
,
M001
0000
0000
M000
0000
0000
M000
0000
,
0000
0000
0000
0000
,
0000
0000
0000
M000
0000
0000
M000
0000
,
0000
0000
0000
0000
,
M00M
0000
0000
000M
0000
0000
000M
0000
,
0000
0000
0000
0000
0000
0000
0000
0000
0000
0000
0000
0000
1000
0001
1000
0001
,
1000
0001
1000
0001
1000
0001
1000
0001
1000
0001
1000
0001
1000
0001
1000
0001
,
1000
0100
0010
0001
0100
0010
1000
0001
0010
0100
1000
0000
0001
0100
0001
0100
,
002M
0030
1000
0000
0100
0000
1000
0000
0001
0000
0100
0000
0010
0000
1000
0000
0001
0000
1000
0000
0100
0000
0010
0000
0001
0000
1000
0000
0001
0000
0100
0000
,
0010
1000
0001
0010
0001
0100
0010
1000
0001
1000
0100
0010
0100
1000
0001
0100
,
0001
1000
0010
0100
0010
1000
0001
1000
0100
0010
0001
1000
0001
0100
0010
1000
,
0010
1000
0001
0100
0001
0010
0100
1000
0001
1000
0010
0100
0001
1000
0001
0010
,
0100
1000
0001
0100
0010
0100
0001
1000
0100
1000
0001
0010
0100
1000
0001
0100
,
0001
1000
0010
0100
0010
1000
0001
0100
0001
0010
0100
0010
0001
1000
0001
0100
,
0010
1000
0001
1000
0100
0010
0001
0100
0001
1000
0010
0100
0010
1000
0001
1000
,
0100
0010
0100
0010
0001
1000
0001
1000
0010
0100
0010
0100
0001
0010
0100
1000
,
0010
1000
0100
1000
0001
0100
0010
1000
0001
1000
0100
0010
0001
1000
0001
0100
,
0010
1000
0001
0010
0001
0100
0010
1000
0001
1000
0100
0010
0100
1000
0001
0100
,
0001
1000
0010
0100
0010
1000
0001
1000
0100
0010
0001
1000
0001
0100
0010
1000
,
0010
1000
0001
0100
0001
0010
0100
1000
0001
1000
0010
0100
0001
1000
0001
0010
,
0100
1000
0001
0100
0010
0100
0001
1000
0100
1000
0001
0010
0100
1000
0001
0100
,
0001
1000
0010
0100
0010
1000
0001
0100
0001
0010
0100
0010
0001
1000
0001
0100
,
0010
1000
0001
1000
0100
0010
0001
0100
0001
1000
0100
0010
0100
1000
0001
1000
,
0100
0000
0000
0010
0000
0000
0001
0000
0000
0100
0000
0000
0001
0000
0000
1000
0000
0000
0001
0000
0000
0100
0000
0000
0010
0000
0000
1000
0000
0000
0001
0000
0000
0010
0000
0000
0100
0000
1000
0000
0100
0000
1000
0000
0100
0000
1000
0000
,
0100
0010
0001
1000
0010
1000
0001
1000
0100
0010
0001
0100
0001
1000
0100
0010
,
0001
1000
0001
0010
0100
0010
0001
1000
0001
0100
0010
1000
0010
0100
0001
1000
,
0100
0010
0100
1000
0001
0100
0010
1000
0001
0100
0001
0010
0100
1000
0001
1000
,
0100
0010
0001
1000
0100
0010
0100
1000
0001
0100
0010
1000
0001
0010
0100
1000
,
0001
1000
0001
0010
0100
0010
0001
1000
0010
0100
0001
0010
0001
1000
0010
0100
,
0001
1000
0001
0100
0010
0100
0001
1000
0001
0010
0100
1000
0100
0010
0001
1000
,
0010
0100
0010
1000
0001
0010
0100
1000
0001
0010
0001
0100
0010
1000
0001
1000
,
0010
0100
0001
1000
0010
0100
0010
1000
0001
0010
0100
1000
0001
0100
0010
1000
,
0001
1000
0001
0100
0010
0100
0001
1000
0100
0010
0001
0100
0001
1000
0100
0010
,
0001
1000
0001
0010
0100
0010
0001
1000
0001
0100
0010
1000
0010
0100
0001
1000
,
0100
0010
0100
1000
0001
0100
0010
1000
0001
0100
0001
0010
0100
1000
0001
1000
,
0100
0010
0001
1000
0100
0010
0100
1000
0001
0100
0010
1000
0001
0010
0100
1000
,
0001
1000
0001
0010
0100
0010
0001
1000
0010
0100
0001
0010
0001
1000
0010
0100
,
0001
1000
0001
0100
0010
0100
0001
1000
0001
0010
0100
1000
0100
0010
0001
1000
,
0010
0100
0010
1000
0001
0010
0100
1000
0001
0010
0001
0100
0010
1000
0001
1000
,
0100
0000
0000
0000
0000
0000
0010
0000
0000
0001
0000
0000
0000
0000
0000
1000
0000
0000
0001
0000
0000
0000
0000
0000
1000
0000
0000
0010
0000
0000
0100
0000
0000
0000
0000
0000
0001
0000
0100
0000
0001
0000
0100
0000
0001
0000
0100
0000
,
0001
1000
0001
0100
0010
0100
0001
1000
0100
0010
0001
0100
0001
1000
0100
0010
,
0001
1000
0001
0010
0100
0010
0001
1000
0001
0100
0010
1000
0010
0100
0001
1000
,
0100
1000
0010
0100
0010
1000
0100
1000
0001
0100
0001
0010
0100
1000
0001
1000
,
0100
0010
0001
1000
0100
0010
0100
1000
0001
0100
0010
1000
0001
0010
0100
1000
,
0001
1000
0001
0010
0100
0010
0001
1000
0010
0100
0001
0010
0001
1000
0010
0100
,
0001
1000
0001
0100
0010
0100
0001
1000
0001
0010
0100
1000
0100
0010
0001
1000
,
0010
1000
0100
0010
0100
1000
0010
0100
0001
1000
0001
0010
0100
1000
0001
1000
,
0010
0100
0001
1000
0010
0100
0010
1000
0001
0010
0100
1000
0001
0100
0010
1000
,
0001
1000
0001
0100
0010
0100
0001
1000
0100
0010
0001
0100
0001
1000
0100
0010
,
0001
1000
0001
0010
0100
0010
0001
1000
0001
0100
0010
1000
0010
0100
0001
1000
,
0100
1000
0010
0100
0010
1000
0100
0010
0001
1000
0001
0100
0010
1000
0001
1000
,
0100
0010
0001
1000
0100
0010
0100
1000
0001
0100
0010
1000
0001
0010
0100
1000
,
0001
1000
0001
0010
0100
0010
0001
1000
0010
0100
0001
0010
0001
1000
0010
0100
,
0001
1000
0001
0100
0010
0100
0001
1000
0001
0010
0100
1000
0100
0010
0001
1000
,
0010
1000
0100
0010
0100
1000
0010
0100
0001
1000
0001
0010
0100
1000
0001
1000
,
0010
0000
0000
0000
,
2000
3000
0011
0000
0000
0100
1010
0000
,
0001
0000
1100
0000
0000
0010
0101
0000
,
1000
0000
0110
0000
0000
0001
1100
0000
,
0010
0000
1001
0000
0000
0100
1010
0000
,
0M01
0000
1100
0000
0000
0010
0101
0000
,
1000
0000
0011
0000
0000
0010
0110
0000
,
1000
0000
0101
0000
0000
0010
1010
0000
,
0001
0000
1100
0000
0000
0010
1001
0000
,
0M02
0003
1100
0000
0000
0010
0101
0000
,
1000
0000
0011
0000
0000
0100
1010
0000
,
0001
0000
0110
0000
0000
1000
0011
0000
,
0100
0000
1001
0000
0000
0010
0101
0000
,
10M0
0000
0011
0000
0000
0100
1010
0000
,
0001
0000
1100
0000
0000
0100
0110
0000
,
0001
0000
1010
0000
0000
0100
0101
0000
,
1000
0100
0010
0001
1000
0010
1000
0001
0100
0001
1000
0001
1000
0100
0010
0001
,
1000
0001
1000
0010
0100
0001
0100
0001
1000
0010
1000
0001
0010
0100
1000
0010
,
1000
0001
0100
0001
1000
0010
0100
0001
1000
0001
0010
0001
0100
0010
1000
0100
,
1000
0001
1000
0010
0100
0001
1000
0001
0010
0001
1000
0100
0010
0100
1000
0001
,
0100
0010
1000
0010
0100
0001
1000
0100
1000
0010
0100
0001
0010
0001
1000
0010
,
1M00
0001
0100
0010
1000
0001
1000
0100
0010
0100
1000
0001
1000
0010
0100
0010
,
1000
0001
0010
0001
0100
0010
1000
0001
1000
0100
0010
0001
1000
0010
1000
0001
,
0010
0100
0010
0001
1000
0100
1000
0001
1000
0010
0100
0010
0100
0001
1000
0001
,
0010
0001
0100
0010
1000
0001
1000
0100
1000
0001
0100
0010
0100
0001
1000
0001
,
M010
0100
1000
0001
1000
0010
0100
0001
0100
0010
1000
0001
1000
0001
0010
0100
,
1000
0001
1000
0010
0100
0001
1000
0001
0010
0100
1000
0001
1000
0010
0100
0001
,
1000
0001
0100
0010
1000
0001
0010
0001
0100
0010
1000
0100
1000
0001
1000
0010
,
0100
0001
0100
0001
1000
0100
0010
0100
1000
0001
1000
0010
0100
0001
0100
0010
,
100M
0100
1000
0001
0100
0010
1000
0001
1000
0100
0010
0001
1000
0010
1000
0001
,
0010
0001
0100
0010
1000
0001
1000
0100
1000
0001
0100
0001
1000
0010
0100
0001
,
0010
0100
1000
0001
1000
0010
1000
0100
0010
0001
1000
0001
0010
0001
0100
0010
,
1000
0001
1000
0001
0010
0100
0010
0100
1000
0001
1000
0001
0100
0010
0100
0010
,
1000
0001
1000
0010
0100
0010
1000
0001
0010
0100
1000
0010
1000
0001
0010
0100
,
1000
0001
1000
0100
0010
0100
1000
0001
1000
0010
0100
0001
0100
0010
1000
0001
,
0010
0001
0100
0010
0100
0001
0010
0001
1000
0010
1000
0100
0010
0001
1000
0001
,
0010
0100
1000
0001
0010
0100
0010
0001
1000
0010
0100
0001
1000
0100
0010
0001
,
1000
0001
1000
0100
0010
0100
1000
0001
0100
0010
1000
0100
1000
0001
0100
0010
,
1000
0001
1000
0010
0100
0010
1000
0001
1000
0100
0010
0001
0010
0100
1000
0001
,
0100
0001
0010
0100
0010
0001
0100
0010
1000
0001
1000
0100
0010
0001
1000
0001
,
0100
0010
1000
0001
0100
0010
0100
0001
1000
0100
0010
0001
1000
0010
0100
0001
,
1000
0001
1000
0010
0100
0010
1000
0001
0010
0100
1000
0010
1000
0001
0010
0100
,
1000
0001
1000
0100
0010
0100
1000
0001
1000
0010
0100
0001
0100
0010
1000
0001
,
0010
0001
0100
0010
0100
0001
0010
0100
1000
0001
1000
0010
0100
0001
1000
0001
,
0010
0100
1000
0001
0010
0100
0010
0001
1000
0010
0100
0001
1000
0100
0010
0001
,
1000
0001
1000
0100
0010
0100
1000
0001
0100
0010
1000
0100
1000
0001
0100
0010
,
1000
0001
1000
0010
0100
0010
1000
0001
1000
0100
0010
0001
0010
0100
1000
0001
,
0100
0001
0010
0100
0010
0001
0100
0010
1000
0001
1000
0100
0010
0001
1000
0001
,
0100
0000
0000
0010
0000
0000
0100
0000
0000
0001
0000
0000
1000
0000
0000
0100
0000
0000
1000
0000
0000
0001
0000
0000
0010
0000
0000
0100
0000
0000
0010
0000
0000
0001
0000
0000
1000
0000
0001
0000
1000
0000
0001
0000
1000
0000
0001
0000
,
1000
0001
1000
0010
0100
0010
1000
0001
0010
0100
1000
0010
1000
0001
0010
0100
,
1000
0001
1000
0100
0010
0100
1000
0001
1000
0010
0100
0001
0100
0010
1000
0001
,
0010
0001
0100
0010
0100
0001
0010
0001
1000
0010
1000
0100
0010
0001
1000
0001
,
0010
0100
1000
0001
0010
0100
0010
0001
1000
0010
0100
0001
1000
0100
0010
0001
,
1000
0001
1000
0100
0010
0100
1000
0001
0100
0010
1000
0100
1000
0001
0100
0010
,
1000
0001
1000
0010
0100
0010
1000
0001
1000
0100
0010
0001
0010
0100
1000
0001
,
0100
0001
0010
0100
0010
0001
0100
0010
1000
0001
1000
0100
0010
0001
1000
0001
,
0100
0010
1000
0001
0100
0010
0100
0001
1000
0100
0010
0001
1000
0010
0100
0001
,
1000
0001
1000
0010
0100
0010
1000
0001
0010
0100
1000
0010
1000
0001
0010
0100
,
1000
0001
1000
0100
0010
0100
1000
0001
1000
0010
0100
0001
0100
0010
1000
0001
,
0010
0001
0100
0010
0100
0001
0010
0100
1000
0001
1000
0010
0100
0001
1000
0001
,
0010
0100
1000
0001
0010
0100
0010
0001
1000
0010
0100
0001
1000
0100
0010
0001
,
1000
0001
1000
0100
0010
0100
1000
0001
0100
0010
1000
0100
1000
0001
0100
0010
,
1000
0001
1000
0010
0100
0010
1000
0001
1000
0100
0010
0001
0010
0100
1000
0001
,
0100
0001
0010
0100
0010
0001
0100
0010
1000
0001
1000
0100
0010
0001
1000
0001
,
0100
0000
0000
0000
,
0002
0000
0203
0000
,
0320
0000
2030
0000
,
3002
0000
0023
0000
,
0032
0000
0203
0000
,
0320
0000
0000
2030
,
3002
0000
0000
0000
,
0000
0000
0000
0000
,
0000
0000
0000
0000
,
0000
0000
0023
0000
,
0230
0000
2300
0000
,
3020
0000
0230
0000
,
0320
0000
2030
0000
,
3002
0000
0000
0203
,
0320
0000
0000
0000
,
0000
0000
0000
0000
,
0000
0000
0000
0000
,
0030
0000
0000
0000
;

//---------------dance-single - 14 (Loak)----------------
#NOTES:
     dance-single:
     14 (Loak):
     Hard:
     14:
     1.000,1.000,0.175,0.107,1.000,1866.000,41.000,25.000,30.000,0.000:
0001
1000
0010
1M00
0001
0000
0M00
0000
,
1000
0001
0010
0001
1000
0000
0000
0000
,
0010
0100
0001
M100
0010
0000
M000
0000
,
1000
0100
0010
0100
1000
0000
0000
0000
,
0001
0100
0001
10M0
0001
0000
00M0
0000
,
1000
0100
1000
0001
1000
0000
0000
0000
,
0010
0100
0010
100M
0010
0000
000M
0000
,
0100
0001
0100
0010
0100
0000
0000
0000
,
0001
1000
0001
1000
0001
1000
0001
1000
0001
0010
0001
0010
0001
0010
0001
0010
,
0100
1000
0100
1000
0100
1000
0100
1000
0001
1000
0001
1000
0001
1000
0001
1000
,
0001
0100
0001
0100
0001
0100
0001
0100
0010
1000
0010
1000
0010
1000
0010
1000
,
0001
0010
0001
0010
0001
0010
0001
0010
0100
0010
0100
0010
0100
0010
0100
0010
,
010M
1000
0100
1000
0100
1000
0100
1000
0100
1000
0100
1000
0010
0100
0010
0100
,
0001
1000
0001
1000
0001
1000
0001
1000
0001
1000
0001
1000
0001
1000
0001
1000
,
0001
1000
0001
1000
0001
1000
0001
1000
0001
1000
0001
1000
0001
1000
0001
1000
,
0001
0100
0010
1000
0100
0010
0001
1000
0010
1000
0001
0100
0001
1000
0100
1000
,
0MM1
1000
0001
0010
0100
1000
0010
1000
0001
0100
0001
1000
0100
0010
0001
0100
,
0001
1000
0010
1000
0001
0100
0010
1000
0001
1000
0100
1000
0010
0100
0001
0010
,
0001
1000
0001
0100
0010
1000
0001
1000
0100
1000
0001
0010
0100
0010
0001
1000
,
0010
0100
0001
0100
0010
1000
0001
0010
0001
0100
0010
1000
0100
1000
0001
0100
,
00M1
1000
0010
0100
0001
1000
0001
0010
0100
0010
0001
1000
0001
0100
0010
0100
,
0001
1000
0100
1000
0010
0100
0001
1000
0001
0010
0100
1000
0001
0100
0001
1000
,
0100
0010
0100
1000
0001
0010
0001
1000
0001
0100
0010
0100
0010
1000
0001
1000
,
0100
1000
0010
0100
0001
1000
0001
0010
0001
1000
0010
0100
0010
1000
0001
1000
,
010M
0010
0001
1000
0001
0100
0010
1000
0010
0100
0001
1000
0001
1000
0100
0010
,
0001
1000
0001
0100
0010
1000
0001
1000
0100
0010
0001
1000
0001
0100
0010
1000
,
0001
1000
0010
0100
0001
1000
0100
1000
0010
0100
0001
0010
0001
1000
0001
0100
,
0010
1000
0010
1000
0001
0010
0100
0010
0001
1000
0001
0100
0010
1000
0010
0100
,
M001
0010
0001
1000
0010
0100
0001
1000
0001
0010
0100
1000
0001
0100
0001
1000
,
0100
1000
0010
0100
0001
1000
0001
0010
0001
1000
0010
1000
0001
0100
0010
1000
,
0100
0010
0001
1000
0001
0100
0001
0010
0100
1000
0001
1000
0100
1000
0010
0100
,
0001
1000
0010
1000
0100
0010
0100
0010
0001
1000
0100
1000
0001
0100
0010
0100
,
M001
0000
0000
M000
0000
0000
M000
0000
,
0000
0000
0000
0000
,
0000
0000
0000
M000
0000
0000
M000
0000
,
0000
0000
0000
0000
,
M00M
0000
0000
000M
0000
0000
000M
0000
,
0000
0000
0000
0000
0000
0000
0000
0000
0000
0000
0000
0000
1000
0001
1000
0001
,
1000
0001
1000
0001
1000
0001
1000
0001
1000
0001
1000
0001
1000
0001
1000
0001
,
1000
0100
0010
0001
0100
0010
1000
0001
0010
0100
1000
0000
0001
0100
0001
0100
,
002M
1030
0100
1000
0001
0100
0010
1000
0001
1000
0100
0010
0001
1000
0001
0100
,
0010
1000
0001
0010
0001
0100
0010
1000
0001
1000
0100
0010
0100
1000
0001
0100
,
0001
1000
0010
0100
0010
1000
0001
1000
0100
0010
0001
1000
0001
0100
0010
1000
,
0010
1000
0001
0100
0001
0010
0100
1000
0001
1000
0010
0100
0001
1000
0001
0010
,
0100
1000
0001
0100
0010
0100
0001
1000
0100
1000
0001
0010
0100
1000
0001
0100
,
0001
1000
0010
0100
0010
1000
0001
0100
0001
0010
0100
0010
0001
1000
0001
0100
,
0010
1000
0001
1000
0100
0010
0001
0100
0001
1000
0010
0100
0010
1000
0001
1000
,
0100
0010
0100
0010
0001
1000
0001
1000
0010
0100
0010
0100
0001
0010
0100
1000
,
0010
1000
0100
1000
0001
0100
0010
1000
0001
1000
0100
0010
0001
1000
0001
0100
,
0010
1000
0001
0010
0001
0100
0010
1000
0001
1000
0100
0010
0100
1000
0001
0100
,
0001
1000
0010
0100
0010
1000
0001
1000
0100
0010
0001
1000
0001
0100
0010
1000
,
0010
1000
0001
0100
0001
0010
0100
1000
0001
1000
0010
0100
0001
1000
0001
0010
,
0100
1000
0001
0100
0010
0100
0001
1000
0100
1000
0001
0010
0100
1000
0001
0100
,
0001
1000
0010
0100
0010
1000
0001
0100
0001
0010
0100
0010
0001
1000
0001
0100
,
0010
1000
0001
1000
0100
0010
0001
0100
0001
1000
0100
0010
0100
1000
0001
1000
,
0100
0010
0001
0100
0001
1000
0001
0100
0010
1000
0001
1000
0004
0043
0430
4300
,
3002
0003
1000
0001
0100
0000
0001
1000
0010
0000
0100
0001
0000
0001
1000
0000
,
0100
0000
0010
0001
1000
0001
0100
0000
0010
0000
1000
0001
0000
0001
0010
0000
,
0100
0000
1000
0010
0100
0000
0001
0100
0010
0000
1000
0100
0000
0100
0010
0000
,
0001
0000
1000
0001
0010
0000
0001
1000
0010
0000
0100
0001
0000
0001
1000
0000
,
1010
0000
0010
1000
0001
0000
0010
0100
1000
0000
0010
1000
0000
1000
0001
0000
,
1000
0000
0100
0010
0001
0010
0100
0000
1000
0000
0001
0100
0000
0100
0010
0000
,
1000
0000
0100
0010
0001
0000
1000
0010
0100
0000
0001
1000
0000
1000
0100
0000
,
0010
0001
1000
0001
0100
0010
1000
0001
0010
0100
1000
0001
1000
0010
0100
0001
,
1000
0000
0010
0100
0001
0000
1000
0100
0010
0000
0001
0100
0000
0100
0010
0000
,
1000
0000
0001
0010
0100
0010
0001
0000
1000
0000
0010
0100
0000
0100
0001
0000
,
1000
0000
0001
0010
0100
0000
1000
0010
0100
0000
0001
1000
0000
1000
0010
0000
,
0100
0000
0001
1000
0010
0000
1000
0001
0010
0000
0100
1000
0000
1000
0001
0000
,
0101
0000
0100
0010
1000
0000
0001
0010
0100
0000
1000
0001
0000
0001
0100
0000
,
0010
0000
1000
0100
1000
0001
1000
0000
0010
0000
0100
0001
0000
0001
1000
0000
,
0100
0000
0010
0001
1000
0000
0010
0100
0001
0000
1000
0001
0000
0001
0010
0000
,
0100
0000
0000
0000
0000
0000
0010
0000
0000
0100
0000
0000
0000
0000
0000
0010
0000
0000
0100
0000
0000
0000
0000
0000
0010
0000
0000
0100
0000
0000
0000
0000
0000
0000
0000
0000
1000
0000
0001
0000
1000
0000
0001
0000
1000
0000
0001
0000
,
1000
0000
0001
0100
0001
1000
0010
0000
1000
0000
0001
0010
0001
0100
0010
0000
,
1000
0000
0010
1000
0001
1000
0100
0000
0010
0000
0001
1000
0000
1000
0010
0000
,
0100
0001
1000
0001
0100
0001
1000
0001
0010
0000
0100
1000
0001
1000
0010
0000
,
0100
0000
0001
1000
0001
1000
0100
0000
0010
0000
0100
1000
0000
1000
0001
0000
,
0101
0000
0100
0010
1000
0010
0100
0000
0001
0000
1000
0001
1000
0100
0010
0000
,
0001
0000
0100
0010
1000
0010
0100
0000
0001
0000
1000
0100
0000
0100
0010
0000
,
0001
1000
0010
1000
0001
1000
0010
1000
0100
0000
0010
0001
1000
0001
0100
0000
,
0010
1000
0001
0100
0001
0010
0100
1000
0001
0100
0010
1000
0001
1000
0100
0010
,
0001
0000
1000
0010
1000
0001
0100
0000
0001
0000
1000
0100
1000
0010
0100
0000
,
0001
0000
0100
0001
1000
0001
0010
0000
0100
0000
1000
0001
0000
0001
0100
0000
,
0010
1000
0001
1000
0010
1000
0001
1000
0100
0000
0010
0001
1000
0001
0100
0000
,
0010
0000
1000
0001
1000
0001
0010
0000
0100
0000
0010
0001
0000
0001
1000
0000
,
1010
0000
0010
0100
0001
0100
0010
0000
1000
0000
0001
1000
0001
0010
0100
0000
,
1000
0000
0010
0100
0001
0100
0010
0000
1000
0000
0001
0010
0000
0010
0100
0000
,
1000
0001
0100
0001
1000
0001
0100
0001
0010
0000
0001
1000
0100
1000
0001
0000
,
1001
0000
0000
0000
,
2000
3000
0011
0000
0000
0100
1010
0000
,
0001
0000
1100
0000
0000
0010
0101
0000
,
1000
0000
0110
0000
0000
0001
1100
0000
,
0010
0000
1001
0000
0000
0100
1010
0000
,
0M01
0000
1100
0000
0000
0010
0101
0000
,
1000
0000
0011
0000
0000
0010
0110
0000
,
1000
0000
0101
0000
0000
0010
1010
0000
,
0001
0000
1100
0000
0000
0010
1001
0000
,
0M02
0003
1100
0000
0000
0010
0101
0000
,
1000
0000
0011
0000
0000
0100
1010
0000
,
0001
0000
0110
0000
0000
1000
0011
0000
,
0100
0000
1001
0000
0000
0010
0101
0000
,
10M0
0000
0011
0000
0000
0100
1010
0000
,
0001
0000
1100
0000
0000
0100
0110
0000
,
0001
0000
1010
0000
0000
0100
0101
0000
,
1000
0100
0010
0001
1000
0010
1000
0001
0100
0001
1000
0001
1000
0100
0010
0001
,
1000
0001
1000
0010
0100
0001
0100
0001
1000
0010
1000
0001
0010
0100
1000
0010
,
1000
0001
0100
0001
1000
0010
0100
0001
1000
0001
0010
0001
0100
0010
1000
0100
,
1000
0001
1000
0010
0100
0001
1000
0001
0010
0001
1000
0100
0010
0100
1000
0001
,
0100
0010
1000
0010
0100
0001
1000
0100
1000
0010
0100
0001
0010
0001
1000
0010
,
1M00
0001
0100
0010
1000
0001
1000
0100
0010
0100
1000
0001
1000
0010
0100
0010
,
1000
0001
0010
0001
0100
0010
1000
0001
1000
0100
0010
0001
1000
0010
1000
0001
,
0010
0100
0010
0001
1000
0100
1000
0001
1000
0010
0100
0010
0100
0001
1000
0001
,
0010
0001
0100
0010
1000
0001
1000
0100
1000
0001
0100
0010
0100
0001
1000
0001
,
M010
0100
1000
0001
1000
0010
0100
0001
0100
0010
1000
0001
1000
0001
0010
0100
,
1000
0001
1000
0010
0100
0001
1000
0001
0010
0100
1000
0001
1000
0010
0100
0001
,
1000
0001
0100
0010
1000
0001
0010
0001
0100
0010
1000
0100
1000
0001
1000
0010
,
0100
0001
0100
0001
1000
0100
0010
0100
1000
0001
1000
0010
0100
0001
0100
0010
,
100M
0100
1000
0001
0100
0010
1000
0001
1000
0100
0010
0001
1000
0010
1000
0001
,
0010
0001
0100
0010
1000
0001
1000
0100
1000
0001
0100
0001
1000
0010
0100
0001
,
0010
0100
1000
0001
1000
0010
1000
0100
0010
0001
1000
0001
0010
0001
0100
0010
,
1000
0001
1000
0001
0010
0100
0010
0100
1000
0001
1000
0001
0100
0010
0100
0010
,
1000
0000
0001
1000
0010
1000
0001
0010
0100
0000
1000
0001
1000
0010
0100
0000
,
0001
0000
1000
0100
0010
0100
1000
0001
0100
0000
0001
1000
0010
0100
0010
0000
,
1000
0001
1000
0100
1000
0001
1000
0100
1000
0001
0100
0010
1000
0010
0100
0001
,
1000
0000
0001
1000
0100
1000
0001
0010
0100
0000
0001
1000
0010
1000
0001
0000
,
1001
0000
1000
0001
1000
0100
0010
0001
1000
0000
0001
0100
0010
0100
0001
0000
,
1000
0000
0001
1000
0010
1000
0001
0010
0100
0000
1000
0001
0100
0010
1000
0000
,
0001
1000
0010
1000
0001
1000
0010
1000
0001
0000
1000
0001
0100
0001
0010
0000
,
0100
1000
0001
1000
0010
0100
0001
1000
0100
0010
0001
1000
0001
0100
0010
1000
,
0001
0000
1000
0001
0100
0001
1000
0100
0010
0000
0001
1000
0001
0100
0010
0000
,
1000
0000
0001
0010
0100
0010
0001
1000
0010
0000
1000
0001
0100
0010
0100
0000
,
0001
1000
0001
0010
0001
1000
0001
0010
0001
1000
0010
0100
0001
0100
0010
1000
,
0001
0000
1000
0001
0010
0001
1000
0100
0010
0000
1000
0001
0100
0001
1000
0000
,
1001
0000
0001
1000
0001
0010
0100
1000
0001
0000
1000
0010
0100
0010
1000
0000
,
0001
0000
1000
0001
0100
0001
1000
0100
0010
0000
0001
1000
0010
0100
0001
0000
,
1000
0001
0100
0001
1000
0001
0100
0001
1000
0000
0001
1000
0010
1000
0100
0000
,
0010
0000
0000
0001
0000
0000
1000
0000
0000
0001
0000
0000
0100
0000
0000
0010
0000
0000
1000
0000
0000
0001
0000
0000
0010
0000
0000
0001
0000
0000
1000
0000
0000
0100
0000
0000
1000
0000
0001
0000
1000
0000
0001
0000
1000
0000
0001
0000
,
1000
0000
0001
1000
0010
1000
0001
0010
0100
0000
1000
0001
1000
0010
0100
0000
,
0001
0000
1000
0100
0010
0100
1000
0001
0100
0000
0001
1000
0010
0100
0010
0000
,
1000
0001
1000
0100
1000
0001
1000
0100
1000
0001
0100
0010
1000
0010
0100
0001
,
1000
0000
0001
1000
0100
1000
0001
0010
0100
0000
0001
1000
0010
1000
0001
0000
,
1001
0000
1000
0001
1000
0100
0010
0001
1000
0000
0001
0100
0010
0100
0001
0000
,
1000
0000
0001
1000
0010
1000
0001
0010
0100
0000
1000
0001
0100
0010
1000
0000
,
0001
1000
0010
1000
0001
1000
0010
1000
0001
0000
1000
0001
0100
0001
0010
0000
,
0100
1000
0001
1000
0010
0100
0001
1000
0100
0010
0001
1000
0001
0100
0010
1000
,
0001
0000
1000
0001
0100
0001
1000
0100
0010
0000
0001
1000
0001
0100
0010
0000
,
1000
0000
0001
0010
0100
0010
0001
1000
0010
0000
1000
0001
0100
0010
0100
0000
,
0001
1000
0001
0010
0001
1000
0001
0010
0001
1000
0010
0100
0001
0100
0010
1000
,
0001
0000
1000
0001
0010
0001
1000
0100
0010
0000
1000
0001
0100
0001
1000
0000
,
1001
0000
0001
1000
0001
0010
0100
1000
0001
0000
1000
0010
0100
0010
1000
0000
,
0001
0000
1000
0001
0100
0001
1000
0100
0010
0000
0001
1000
0010
0100
0001
0000
,
1000
0001
0100
0001
1000
0001
0100
0001
1000
0000
0001
1000
0010
1000
0100
0000
,
1001
0000
0000
0000
,
2000
0000
3020
0000
,
0230
0000
0302
0000
,
2003
0000
3200
0000
,
2300
0000
3020
0000
,
0230
0000
0000
0302
,
2003
0000
0000
0000
,
0000
0000
0000
0000
,
0000
0000
0000
0000
,
0000
0000
3200
0000
,
0320
0000
0032
0000
,
0203
0000
0320
0000
,
0230
0000
0302
0000
,
2003
0000
0000
3020
,
0230
0000
0000
0000
,
0000
0000
0000
0000
,
0000
0000
0000
0000
,
0300
0000
0000
0000
;
