#TITLE:Bumble Bee;
#SUBTITLE:;
#ARTIST:Bambee;
#TITLETRANSLIT:;
#SUBTITLETRANSLIT:;
#ARTISTTRANSLIT:;
#CREDIT:;
#BANNER:BUMBLE BEE.png;
#BACKGROUND:BUMBLE BEE-bg.png;
#LYRICSPATH:;
#CDTITLE:KOMBO.PNG;
#MUSIC:BUMBLE BEE.mp3;
#OFFSET:-1.795;
#SAMPLESTART:15.540;
#SAMPLELENGTH:12.000;
#SELECTABLE:YES;
#DISPLAYBPM:138.000;
#BPMS:0.000=137.970;
#STOPS:;
#BGCHANGES:;
// cache tags:
#FIRSTBEAT:0.000;
#LASTBEAT:199.500;
#SONGFILENAME:Songs/Definitive Keyboard Megapack/Bumble Bee [KOMBO]/BUMBLE BEE.sm;
#HASMUSIC:1;
#HASBANNER:1;
#MUSICLENGTH:89.704;
// end cache tags

//---------------dance-single - KOMBO----------------
#NOTES:
     dance-single:
     KOMBO:
     Hard:
     10:
     1.000,1.000,1.000,0.769,0.702,443.000,144.000,69.000,0.000,8.000:

2001
0000
0000
0000
0000
0000
0000
0000
3200
0000
0000
0000
0000
0000
0302
0000
0000
0000
0000
0000
0023
0000
0000
0000
0000
0000
0000
0030
0020
0000
0000
0000
,
2030
0000
0000
0000
0000
0000
3002
0000
0000
0000
0000
0000
0000
0000
0203
0000
0000
0000
0000
0300
0200
0000
0000
0000
0320
0000
0000
0000
2030
0000
0000
0000
,
3002
0000
0000
0000
0000
0000
0000
0003
0002
0000
0000
0000
0000
0000
0203
0000
0000
0000
0000
0300
0200
0000
0000
0000
0000
0000
0000
0300
0200
0000
0000
0000
,
0320
0000
0000
0000
0000
0000
0000
0030
2000
0000
0000
0000
0000
3000
2000
0000
0000
0000
0000
3000
0020
0000
0000
0000
0000
0000
0000
0030
0200
0000
0000
0000
,
1301
0000
0000
0000
1000
0000
0000
0100
0000
0000
1000
0000
0000
0000
1000
0000
,
0001
0000
0000
0000
0010
0000
0000
0100
0000
0000
1000
0000
0010
0000
1000
0000
,
0001
1000
0001
0100
1000
0100
0001
1000
0001
0100
0010
0100
0010
0001
1000
0100
,
0001
0000
0000
0000
0001
0000
0000
0001
0000
0000
0001
0000
0000
0000
0001
0000
,
1100
0000
1000
0000
0011
0000
0100
1000
0001
0000
0200
1000
0311
0000
1000
0000
,
0011
0000
0100
0000
1010
0001
0100
0000
0011
0000
0100
0000
1010
0000
0000
0000
,
0110
0000
1010
0101
0000
1010
0101
0000
1001
0000
1000
0010
1001
0000
0001
0000
,
0110
0000
0101
1010
0000
0101
1010
0000
1001
0000
0000
0000
1001
0000
0000
0000
,
1010
0000
0010
0000
0101
0000
1000
0010
0100
0000
2000
0010
3101
0000
0010
0000
,
0101
0000
1001
0010
0101
0000
1010
0001
0101
0000
1001
0000
0220
0000
0000
0330
,
0110
0000
0101
1010
0000
0101
1010
0000
1001
0000
0000
0000
1001
0000
0000
0000
,
0110
0000
0101
1010
0000
0101
1010
0000
1001
0000
0000
0000
0100
0000
0000
0000
,
0101
1000
0010
1000
0010
1000
0010
1000
0010
1000
0010
1000
0010
1000
0010
1000
,
0101
0001
0011
0010
1010
0001
1000
0000
,
0011
0000
0100
0000
0011
0000
2000
0001
0000
0000
3100
0000
0011
0000
1000
0000
,
0002
0000
0013
1000
0200
0000
0310
1000
0002
0000
0013
0000
1100
0000
0001
0000
,
0200
0000
0301
0000
0020
0000
0031
1000
0002
0000
0103
0000
1100
0000
0011
0000
,
1001
0001
1001
1000
1001
0001
1001
1000
,
1001
0000
0020
0000
0230
0000
0320
0000
2130
3000
0000
0000
0000
0000
1100
0000
,
0010
0000
1100
0000
0001
0000
0110
0001
1000
0000
0110
0000
1001
0000
0010
0000
,
0100
0000
0010
0000
0200
0000
0000
0310
1001
0100
1000
0010
0001
0010
1000
0001
,
1100
0000
0100
0000
1001
0000
0100
0001
0010
0000
0010
0100
1001
0000
0100
1000
,
0010
0000
0100
0001
1010
0000
0100
0001
0010
0000
1000
0010
0101
0000
0100
1000
,
0010
0000
0000
0000
0000
0000
0000
0000
0012
0000
0000
0000
0013
0000
1000
0000
0002
0000
0000
0000
0100
0003
0001
0000
2000
0000
0000
0000
3200
0000
1000
0000
,
0001
0000
0302
1000
0010
0000
1000
0010
0103
0000
1000
0001
1000
0000
0100
0010
,
2002
3003
0000
0000
1100
0000
0002
0000
1003
0000
0010
0010
0010
0000
0100
0001
,
0010
0000
1000
0100
1000
0000
0001
0001
0001
0000
0001
1000
0100
0000
0001
0100
,
1000
0001
0100
1000
0010
0001
0100
1000
0100
0001
1000
0010
0100
0001
1000
0100
,
1001
0000
0010
0000
0100
0000
0001
0000
1000
0000
0100
0000
0001
0000
1000
0000
0100
0000
1000
0001
1000
0001
1000
0001
1000
0001
1000
0001
1000
0001
1000
0001
,
1100
0000
1000
0000
0011
0000
0100
1000
0001
0000
0200
1000
0311
0000
1000
0000
,
0011
0000
0100
0000
1010
0001
0100
0000
0011
0000
0100
0000
1010
0000
0000
0000
,
0110
0000
1010
0101
0000
1010
0101
0000
1001
0000
1000
0010
1001
0000
0001
0000
,
0110
0000
0101
1010
0000
0101
1010
0000
1001
0000
0000
0000
1001
0000
0000
0000
,
1010
0000
0010
0000
0101
0000
1000
0010
0100
0000
2000
0010
3101
0000
0010
0000
,
0101
0000
1001
0010
0101
0000
1010
0001
0101
0000
1001
0000
0220
0000
0000
0330
,
0110
0000
0101
1010
0000
0101
1010
0000
1001
0000
0000
0000
1001
0000
0000
0000
,
0110
0000
0101
1010
0000
0101
1010
0100
1001
0010
1000
0100
1001
0010
1000
0001
,
0210
0000
2300
3002
0000
0203
0000
0302
,
2003
0000
3020
0230
0000
0302
0010
0100
,
1103
0000
0001
0011
0000
1000
1100
0000
0011
0000
0000
0000
0011
0000
0000
0000
,
0101
0000
1000
1100
0000
0001
0011
0000
1100
0000
0000
0000
1100
0000
0000
0000
,
2000
0000
3020
0230
0000
2300
0000
3200
,
0320
0000
0032
2003
0000
3200
0001
1000
,
1310
0000
0100
0101
0000
0010
1010
0000
0101
0000
0000
0000
0101
0000
0000
0000
,
1100
0000
0010
1010
0000
0100
0101
0000
1010
0100
0001
0100
1010
0001
0100
0010
,
2002
0000
0000
0000
0000
0000
0000
3003
;
