#TITLE:SPEEDY SPEED BOY;
#SUBTITLE:;
#ARTIST:MARKO POLO;
#TITLETRANSLIT:;
#SUBTITLETRANSLIT:;
#ARTISTTRANSLIT:;
#CREDIT:;
#BANNER:speedy_speed_boy_banner.png;
#BACKGROUND:speedy_speed_boy.png;
#LYRICSPATH:;
#CDTITLE:;
#MUSIC:SPEEDY SPEED BOY.mp3;
#OFFSET:0.140;
#SAMPLESTART:65.814;
#SAMPLELENGTH:12.000;
#SELECTABLE:YES;
#BPMS:0.000=152.120;
#STOPS:;
#BGCHANGES:;
// cache tags:
#FIRSTBEAT:24.000;
#LASTBEAT:268.000;
#SONGFILENAME:Songs/new cc/SPEEDY SPEED BOY/SPEEDY SPEED BOY.sm;
#HASMUSIC:1;
#HASBANNER:1;
#MUSICLENGTH:109.627;
// end cache tags

//---------------dance-double - ----------------
#NOTES:
     dance-double:
     :
     Hard:
     8:
     0.467,0.602,0.265,0.046,0.146,324.000,29.000,5.000,0.000,1.000:
00000000
00000000
00000000
00000000
,
00000000
00000000
00000000
00000000
,
00000000
00000000
00000000
00000000
,
00000000
00000000
00000000
00000000
,
00000000
00000000
00000000
00000000
,
00000000
00000000
00000000
00000000
,
00001000
00010000
00000100
00000000
00000000
00011000
00000000
00000000
,
00010000
00001000
00100000
00000000
00000000
00011000
00000000
00000000
,
00000100
00001000
00000010
00000000
00000000
00001001
00000000
00000000
,
00010000
01000000
00100000
00000000
00000000
10010000
00000000
00100000
,
00000000
10000000
01000000
00000000
01010000
00000000
00000000
00000000
,
00001000
00010000
00000100
00001000
00000000
00000010
00000010
00000100
,
00000000
00000001
00000100
00000000
00001001
00000000
00000000
00000000
,
00000010
00001000
00000100
00001000
00000000
00010000
00001000
00010000
,
00000000
00100000
01000000
00000000
10010000
00000000
00000000
00000000
,
00100000
10000000
01000000
00010000
00000000
00010000
00001000
00000100
,
00000000
00001001
00000000
00000101
00000000
00000110
00000000
00002002
,
00000000
00000000
00000000
00003013
,
00000001
00000000
00000000
00000000
00000100
00000000
00000000
00001000
00000000
00000000
00000010
00000000
00000000
00000000
00000100
00000000
,
00000001
00000000
00000000
00000000
00001000
00000000
00000000
00000100
00000000
00000000
00010000
00000000
00000000
00000000
00001000
00000000
,
00100000
00010000
00100000
00010000
00100000
00000000
00000000
00000000
01000000
10000000
01000000
10000000
01000000
00000000
00000000
00000000
,
00100000
10000000
00000000
00100000
10000000
00000000
00010000
00000000
01000000
00000000
01000000
00000000
01000000
00000000
01000000
00000000
,
00100000
00000000
00000000
00000000
10000000
00000000
00000000
01000000
00000000
00000000
00010000
00000000
00000000
00000000
00001000
00000000
,
00000100
00000000
00000000
00000000
00000001
00000000
00000000
00000010
00000000
00000000
00001000
00000000
00000000
00000000
00000100
00000000
,
00001000
00010000
00001000
00010000
00001000
00000000
00000000
00000000
00010000
00001000
00000000
00010000
00001000
00000000
00000000
00000000
,
00010000
00000000
01000000
00000000
00010000
01000000
00000000
01010000
00000000
00000000
00000000
00000000
00000000
00000000
00000000
00000000
,
00100000
10000000
01000000
00010000
01000000
00000000
10010000
00000000
,
00001000
00010000
00000100
00001000
00000010
00000000
00000100
00000001
,
00001000
00000001
00000100
00000110
,
00000001
00001000
00000010
00001010
,
00000001
00000010
00000100
00001000
00000001
00000000
00001001
00000000
,
00001000
00000100
00001000
00010000
00001000
00000000
00011000
00001000
,
00010000
01000000
00100000
10010000
,
10000000
01000000
00010000
00011000
,
00000100
00001000
00000010
00000000
00000100
00000000
00000001
00000100
,
00000000
00000101
00000000
00000110
00000000
00000000
00000001
00000100
,
00001000
00000000
00000010
00000000
00000100
00000001
00000100
00000001
,
00000000
00000010
00000000
00001000
00000000
00000100
00001000
00000100
,
00001000
00000000
00011000
00000000
00100000
00010000
01000000
00100000
,
00000000
00100000
00000000
00100000
10000000
01000000
00010000
00010000
,
00001000
00000100
00001000
00000000
00000010
00000100
00000000
00000001
,
00000100
00000100
00000001
00000000
00000010
00001000
00000000
00000100
,
00001001
00000010
00000100
00000000
00000001
00000000
00000100
00000000
,
00001000
00010000
00100000
00100000
00000000
01000000
00010000
00100000
,
10010000
01000000
00100000
00000000
10000000
00000000
00010000
00000000
,
01000000
00010000
00001000
00001000
00000000
00000100
00000010
00001000
,
00001001
00000001
00000010
00000000
00000101
00000000
00000010
00000000
,
00001000
00000100
00000001
00000001
00000000
00000010
00001000
00000001
,
00000000
00000100
00000000
00000100
00000000
00000100
00000000
00000020
,
00000000
00000000
00000000
00000000
00000000
00000000
00000030
00000001
,
00000000
00000100
00000010
00000000
00001000
00000000
00000001
00000000
,
00000010
00000100
00001000
00010000
00000000
00100000
01000000
00010000
,
00000000
10000000
01000000
00000000
00010000
00000000
00100000
00000000
,
01000000
00010000
00001000
00000100
00000000
00000010
00001000
00000001
,
00000000
00000100
00000001
00000000
00000010
00000000
00001000
00000000
,
00000001
00000010
00000100
00001000
00000000
00000010
00000100
00001000
,
00000000
00000001
00000000
00000100
00000000
00001000
00000000
00002200
,
00000000
00000000
00000000
00003300
,
00010000
00000000
00000000
00000000
00001000
00000000
00000000
00010000
00000000
00000000
00001000
00000000
00000000
00000000
00010000
00000000
,
00001000
00000000
00000000
00000000
00100000
00000000
00000000
00001000
00000000
00000000
00100000
00000000
00000000
00000000
00010000
00000000
,
01000000
00100000
01000000
00100000
01000000
00000000
00000000
00000000
00010000
10000000
00010000
10000000
00010000
00000000
00000000
00000000
,
00100000
10000000
00000000
00100000
10000000
00000000
00010000
00000000
01000000
00000000
01000000
00000000
01000000
00000000
01000000
00000000
,
00100000
00000000
00000000
00000000
10000000
00000000
00000000
01000000
00000000
00000000
00010000
00000000
00000000
00000000
00001000
00000000
,
00000010
00000000
00000000
00000000
00000001
00000000
00000000
00000100
00000000
00000000
00000010
00000000
00000000
00000000
00001000
00000000
,
00000001
00000100
00000001
00000100
00000001
00000000
00000000
00000000
00000010
00001000
00000000
00000010
00001000
00000000
00000000
00000000
,
00000100
00000000
00001000
00000000
00000100
00001000
00000000
00001100
00000000
00000000
00000000
00000000
00000000
00000000
00000000
00000000
,
00011000
00000000
00000000
00000000
;

//---------------dance-double - ----------------
#NOTES:
     dance-double:
     :
     Medium:
     5:
     0.367,0.428,0.283,0.073,0.000,243.000,31.000,8.000,0.000,0.000:
00000000
00000000
00000000
00000000
,
00000000
00000000
00000000
00000000
,
00000000
00000000
00000000
00000000
,
00000000
00000000
00000000
00000000
,
00000000
00000000
00000000
00000000
,
00000000
00000000
00000000
00000000
,
00001000
00001000
00001000
00000000
00000000
00011000
00000000
00000000
,
00010000
00010000
00010000
00000000
00000000
00011000
00000000
00000000
,
00000100
00000100
00000100
00000000
00000000
00001001
00000000
00000000
,
00100000
00100000
00100000
00000000
00000000
10010000
00000000
01000000
,
00000000
00010000
00001000
00000000
00001000
00000000
00000000
00000000
,
00000100
00000000
00000010
00000010
00000000
00000000
00001000
00000000
,
00000001
00000000
00000100
00000000
00001001
00000000
00000000
00000010
,
00000000
00000100
00000100
00000000
00001100
00000000
00000000
00000000
,
00010000
00000000
00001000
00000000
00010000
00000000
00000000
01000000
,
00000000
00010000
01000000
00000000
10010000
00000000
00000000
00000000
,
00100000
00000000
10000000
00010000
00000000
01000000
01000000
01000000
,
00000000
00100000
00000000
00100000
00000000
00010000
00000000
00022000
,
00000000
00000000
00000000
00033000
,
00000100
00000000
00000100
00000000
00000100
00000000
00000010
00001000
,
00000001
00000000
00000001
00000000
00000001
00000000
00000100
00000010
,
00001000
00001000
00010000
00010000
,
00001000
00000000
00010000
00001000
00010000
00000000
00011000
00000000
,
00010000
00000000
00010000
00000000
00010000
00000000
01000000
00100000
,
10000000
00000000
10000000
00000000
10000000
00000000
01000000
00010000
,
00001000
00000000
00001000
00000000
00001000
00000000
00001000
00000100
,
00000010
00000010
00000001
00000001
,
00000100
00000100
00001000
00001000
,
00011000
00000000
00011000
00000000
,
00010000
01000000
10000000
01000000
,
00010000
00010000
01000000
01000000
,
10000000
10000000
00100000
00100000
,
10010000
00000000
00011000
00000000
,
00001001
00000000
00011000
00000000
,
00000100
00001000
00000100
00000001
,
00000100
00000000
00000100
00000000
,
00000010
00001000
00000010
00000001
,
00000010
00000000
00000010
00000000
,
00000100
00000000
00000100
00000000
00001000
00000100
00000000
00001100
,
00000000
00011000
00000000
00010000
00100000
00010000
00100000
00000000
,
00000000
01000000
00010000
00000000
10000000
10000000
00000000
00100000
,
00100000
00100000
00100000
00000000
01000000
01000000
00000000
00010000
,
00001000
00000010
00000001
00001001
,
00000001
00000100
00001000
00000000
00000010
00000000
00000100
00000000
,
00000001
00001000
00001001
00000010
,
00000100
00001000
00010000
00000000
00001000
00000000
00010000
00000000
,
00011000
00100000
00010000
01000000
,
00010000
01000000
10000000
10000000
00000000
00100000
01000000
00100000
,
00000000
10000000
00000000
10000000
00000000
01000000
00000000
02020000
,
00000000
00000000
00000000
00000000
00000000
00000000
03030000
00100000
,
00000000
10000000
00010000
00000000
01000000
00000000
00010000
00000000
,
00001000
00010000
00001000
00010000
00000000
00000100
00000000
00000100
,
00000010
00000001
00000100
00001000
,
00000010
00001000
00000010
00001000
00000000
00000100
00000100
00000000
,
00001000
00010000
00011000
00000000
,
00010000
01000000
10000000
01000000
,
10010000
00100000
10010000
01000000
,
20020000
00000000
00000000
30030000
,
00100000
00000000
10000000
00000000
01000000
00000000
00010000
00001000
,
00010000
00000000
00000001
00000000
00000010
00000000
00001000
00010000
,
00001000
00000000
00011000
00000000
,
00010000
00000000
01000000
00000000
10000000
00010000
10000000
00000000
,
00100000
00000000
10000000
00000000
01000000
00000000
00010000
00001000
,
00010000
00000000
00000010
00000000
00000001
00000000
00000100
00010000
,
00000100
00001000
00010000
00100000
,
10010000
01100000
10010000
00011000
,
00022000
00000000
00000000
00000000
,
00033000
00000000
00000000
00000000
;

//---------------dance-double - ----------------
#NOTES:
     dance-double:
     :
     Easy:
     3:
     0.199,0.241,0.027,0.000,0.000,150.000,3.000,0.000,0.000,0.000:
00000000
00000000
00000000
00000000
,
00000000
00000000
00000000
00000000
,
00000000
00000000
00000000
00000000
,
00000000
00000000
00000000
00000000
,
00000000
00000000
00000000
00000000
,
00000000
00000000
00000000
00000000
,
00000000
00000000
00000000
00000000
,
00000000
00000000
00000000
00000000
,
00000000
00000000
00000000
00000000
,
00000000
00000000
00000000
00000000
,
00010000
00001000
00000100
00000000
,
00000010
00001000
00000010
00000001
,
00000100
00000100
00000100
00000000
,
00001000
00010000
00100000
00010000
,
00001000
00001000
00001000
00000000
,
00100000
01000000
10000000
01000000
,
00100000
00000000
00100000
00000000
,
10010000
00000000
00000000
00000000
,
10000000
01000000
00010000
00000000
,
00001000
00001000
00001000
00000000
,
00000010
00000000
00000100
00000000
,
00000001
00000001
00000001
00000000
,
00000001
00000010
00001000
00000000
,
00001000
00001000
00001000
00000000
,
00010000
00000000
01000000
00000000
,
00100000
00100000
00100000
00000000
,
10000000
01000000
00010000
00000000
,
00001000
00000100
00000001
00000000
,
00000010
00000000
00000010
00000000
,
00000100
00000000
00000100
00000000
,
00000001
00000100
00001000
00000000
,
00010000
00100000
10000000
00000000
,
01000000
00000000
01000000
00000000
,
00100000
00000000
00100000
00000000
,
10000000
01000000
00010000
00010000
,
00001000
00000000
00001000
00000000
,
00000100
00000001
00000010
00001000
,
00001000
00000000
00001000
00000000
,
00010000
00100000
10000000
01000000
,
01000000
00000000
00010000
00000000
,
00001000
00001000
00000000
00000100
,
00000100
00000000
00000010
00000010
,
00000001
00000100
00001000
00000000
,
00000010
00000000
00000010
00000000
,
00001000
00000100
00000001
00000000
,
00000010
00000000
00000010
00000000
,
00000001
00001000
00000010
00000000
,
00000100
00000000
00000100
00000000
,
00001000
00010000
00100000
00000000
,
00010000
00000000
00010000
00000000
,
01000000
00010000
10000000
00000000
,
00100000
00000000
00100000
00000000
,
00010000
01000000
10000000
00000000
,
00100000
00000000
00100000
00000000
,
10000000
01000000
00010000
00000000
,
00001000
00000000
00001000
00000000
,
00010000
00000000
00000100
00000000
,
00011000
00000000
00000000
00000000
,
00001000
00001000
00001000
00000000
,
00000010
00000100
00000001
00000000
,
00000001
00000000
00000100
00000000
,
00001000
00000000
00010000
00000000
,
01000000
01000000
01000000
00000000
,
00100000
10000000
00010000
00000000
,
01000000
00000000
00010000
00000000
,
00001000
00010000
00001000
00000000
,
00011000
00000000
00000000
00000000
;

//---------------dance-single - ----------------
#NOTES:
     dance-single:
     :
     Easy:
     3:
     0.199,0.241,0.027,0.000,0.000,150.000,3.000,0.000,0.000,0.000:
0000
0000
0000
0000
,
0000
0000
0000
0000
,
0000
0000
0000
0000
,
0000
0000
0000
0000
,
0000
0000
0000
0000
,
0000
0000
0000
0000
,
0000
0000
0000
0000
,
0000
0000
0000
0000
,
0000
0000
0000
0000
,
0000
0000
0000
0000
,
0001
1000
0100
0000
,
0010
1000
0010
0001
,
0100
0100
0100
0000
,
1000
0001
0010
0001
,
1000
1000
1000
0000
,
0010
0100
1000
0100
,
0010
0000
0010
0000
,
1001
0000
0000
0000
,
1000
0100
0001
0000
,
1000
1000
1000
0000
,
0010
0000
0100
0000
,
0001
0001
0001
0000
,
0001
0010
1000
0000
,
1000
1000
1000
0000
,
0001
0000
0100
0000
,
0010
0010
0010
0000
,
1000
0100
0001
0000
,
1000
0100
0001
0000
,
0010
0000
0010
0000
,
0100
0000
0100
0000
,
0001
0100
1000
0000
,
0001
0010
1000
0000
,
0100
0000
0100
0000
,
0010
0000
0010
0000
,
1000
0100
0001
0001
,
1000
0000
1000
0000
,
0100
0001
0010
1000
,
1000
0000
1000
0000
,
0001
0010
1000
0100
,
0100
0000
0001
0000
,
1000
1000
0000
0100
,
0100
0000
0010
0010
,
0001
0100
1000
0000
,
0010
0000
0010
0000
,
1000
0100
0001
0000
,
0010
0000
0010
0000
,
0001
1000
0010
0000
,
0100
0000
0100
0000
,
1000
0001
0010
0000
,
0001
0000
0001
0000
,
0100
0001
1000
0000
,
0010
0000
0010
0000
,
0001
0100
1000
0000
,
0010
0000
0010
0000
,
1000
0100
0001
0000
,
1000
0000
1000
0000
,
0001
0000
0100
0000
,
1001
0000
0000
0000
,
1000
1000
1000
0000
,
0010
0100
0001
0000
,
0001
0000
0100
0000
,
1000
0000
0001
0000
,
0100
0100
0100
0000
,
0010
1000
0001
0000
,
0100
0000
0001
0000
,
1000
0001
1000
0000
,
1001
0000
0000
0000
;

//---------------dance-single - ----------------
#NOTES:
     dance-single:
     :
     Medium:
     5:
     0.367,0.428,0.283,0.073,0.000,243.000,31.000,8.000,0.000,0.000:
0000
0000
0000
0000
,
0000
0000
0000
0000
,
0000
0000
0000
0000
,
0000
0000
0000
0000
,
0000
0000
0000
0000
,
0000
0000
0000
0000
,
1000
1000
1000
0000
0000
1001
0000
0000
,
0001
0001
0001
0000
0000
1001
0000
0000
,
0100
0100
0100
0000
0000
1001
0000
0000
,
0010
0010
0010
0000
0000
1001
0000
0100
,
0000
0001
1000
0000
1000
0000
0000
0000
,
0100
0000
0010
0010
0000
0000
1000
0000
,
0001
0000
0100
0000
1001
0000
0000
0010
,
0000
0100
0100
0000
1100
0000
0000
0000
,
0001
0000
1000
0000
0001
0000
0000
0100
,
0000
0001
0100
0000
1001
0000
0000
0000
,
0010
0000
1000
0001
0000
0100
0100
0100
,
0000
0010
0000
0010
0000
0001
0000
2002
,
0000
0000
0000
3003
,
0100
0000
0100
0000
0100
0000
0010
1000
,
0001
0000
0001
0000
0001
0000
0100
0010
,
1000
1000
0001
0001
,
1000
0000
0001
1000
0001
0000
1001
0000
,
0001
0000
0001
0000
0001
0000
0100
0010
,
1000
0000
1000
0000
1000
0000
0100
0001
,
1000
0000
1000
0000
1000
0000
1000
0100
,
0010
0010
0001
0001
,
0100
0100
1000
1000
,
1001
0000
1001
0000
,
0001
0100
1000
0100
,
0001
0001
0100
0100
,
1000
1000
0010
0010
,
1001
0000
1001
0000
,
1001
0000
1001
0000
,
0100
1000
0100
0001
,
0100
0000
0100
0000
,
0010
1000
0010
0001
,
0010
0000
0010
0000
,
0100
0000
0100
0000
1000
0100
0000
1100
,
0000
1001
0000
0001
0010
0001
0010
0000
,
0000
0100
0001
0000
1000
1000
0000
0010
,
0010
0010
0010
0000
0100
0100
0000
0001
,
1000
0010
0001
1001
,
0001
0100
1000
0000
0010
0000
0100
0000
,
0001
1000
1001
0010
,
0100
1000
0001
0000
1000
0000
0001
0000
,
1001
0010
0001
0100
,
0001
0100
1000
1000
0000
0010
0100
0010
,
0000
1000
0000
1000
0000
0100
0000
0202
,
0000
0000
0000
0000
0000
0000
0303
0010
,
0000
1000
0001
0000
0100
0000
0001
0000
,
1000
0001
1000
0001
0000
0100
0000
0100
,
0010
0001
0100
1000
,
0010
1000
0010
1000
0000
0100
0100
0000
,
1000
0001
1001
0000
,
0001
0100
1000
0100
,
1001
0010
1001
0100
,
2002
0000
0000
3003
,
0010
0000
1000
0000
0100
0000
0001
1000
,
0001
0000
0001
0000
0010
0000
1000
0001
,
1000
0000
1001
0000
,
0001
0000
0100
0000
1000
0001
1000
0000
,
0010
0000
1000
0000
0100
0000
0001
1000
,
0001
0000
0010
0000
0001
0000
0100
0001
,
0100
1000
0001
0010
,
1001
0110
1001
1001
,
2002
0000
0000
0000
,
3003
0000
0000
0000
;

//---------------dance-single - ----------------
#NOTES:
     dance-single:
     :
     Hard:
     8:
     0.549,0.632,0.374,0.109,0.114,368.000,41.000,12.000,0.000,0.000:
0000
0000
0000
0000
,
0000
0000
0000
0000
,
0000
0000
0000
0000
,
0000
0000
0000
0000
,
0000
0000
0000
0000
,
0000
0000
0000
0000
,
1000
0001
0100
0000
0010
1001
0000
0000
,
0100
0001
1000
0000
0100
1001
0000
0000
,
0010
1000
0100
0000
0001
0011
0000
0000
,
0100
0001
0010
0000
1000
1100
0000
1001
,
0000
0001
0100
0000
2002
0000
3003
0000
,
0010
1000
0001
0001
0000
0100
0010
1000
,
0000
0001
0100
0000
2002
0000
3003
0000
,
0010
1000
0100
0100
0000
0001
0100
1000
,
0000
0010
1000
0000
2002
0000
3003
0000
,
0010
0100
0001
0001
0000
0010
0100
0001
,
0000
0101
0000
0110
0000
1001
0000
0220
,
0000
0000
0000
0330
,
1000
0000
0000
0000
0001
0000
0000
1000
0000
0000
0001
0000
0000
0000
0100
0000
,
0010
0000
0000
0000
0100
0000
0000
0010
0000
0000
0100
0000
0000
0000
0010
0000
,
0100
0001
0100
0010
0100
0000
0000
0000
0010
1000
0010
0100
0010
0000
0000
0000
,
1000
0001
0000
1000
0001
0000
0100
0000
0001
0000
0100
0000
1000
0000
0100
0000
,
0010
0000
0000
0000
1001
0000
0000
0001
0000
0000
0100
0000
0000
0000
0010
0000
,
1000
0000
0000
0000
1100
0000
0000
0010
0000
0000
0100
0000
0000
0000
0001
0000
,
0100
0001
0100
0001
0100
0000
0000
0000
0010
1000
0000
0010
1000
0000
0000
0000
,
0100
0000
0010
0000
0100
0010
0000
0110
0000
0000
0000
0001
1000
0000
0000
0000
,
0010
0100
0010
0001
0010
0100
0010
0010
,
1000
0100
0010
0100
1001
0000
0010
0100
,
1001
0001
0110
1000
,
0101
0110
1010
1001
,
1000
0100
0010
0001
1000
0000
1001
0000
,
0001
0100
1000
0100
0010
0000
1000
0100
,
0001
0100
1000
0000
0010
0100
0001
0000
,
1000
0100
0001
0001
0001
0100
1000
0000
,
0010
0100
0010
0001
0001
0100
1000
0100
,
0100
0010
1000
0100
0001
0100
0010
1000
,
0001
0010
0100
1000
0100
0010
1000
0001
,
0100
0010
0100
0001
0010
1000
0100
0001
,
1000
0010
1000
1000
0100
0010
0001
0001
,
0100
0010
1000
0001
0100
0010
1000
0001
,
0000
0100
0101
0000
1000
1010
0000
0100
,
0100
0100
0101
0000
0010
0110
0000
1000
,
0001
0010
0100
1000
0001
0100
0001
1000
,
0010
0010
0010
0010
0000
0100
0001
0100
,
0010
1000
0100
0001
0100
1000
0010
0100
,
0001
0001
0001
0001
0000
1000
0010
1000
,
0100
0010
0100
0001
0010
1000
0001
0100
,
0001
0001
0001
0001
0000
1000
0001
1000
,
0000
1010
0000
0101
0000
0110
0000
2002
,
0000
0000
0000
0000
0000
3003
0000
0010
,
1000
0100
0001
0100
1000
0010
0100
0001
,
1000
1000
1000
1000
0000
0010
0100
0001
,
1000
0100
0001
0100
1000
0010
0001
0010
,
0100
0100
0100
0100
0000
0010
1000
0001
,
0100
0001
0100
1000
0100
0010
0100
0010
,
0001
0001
0001
0001
0000
0100
0001
1000
,
0000
1010
0000
0101
0000
0011
0000
0220
,
0000
0000
0000
0000
0000
0030
0300
0000
,
0001
0000
0000
0000
1001
0000
0000
1000
0000
0000
0010
0000
0000
0000
1000
0000
,
0100
0000
0000
0000
0101
0000
0000
0001
0000
0000
0010
0000
0000
0000
0100
0000
,
0010
0100
0010
0100
0010
0000
0000
0000
1000
0001
1000
0001
1000
0000
0000
0000
,
0001
0100
0000
0001
0100
0000
0010
0000
1000
0000
1000
0000
1000
0000
1000
0000
,
1001
0000
0001
0000
0100
1000
0010
0000
,
1001
0000
0100
0000
0001
0010
0100
0000
,
0001
1000
0001
0000
1000
0001
1000
0000
,
0010
0010
0010
0010
0000
0000
1001
0000
,
0110
0000
0000
0000
;

//---------------dance-single - ----------------
#NOTES:
     dance-single:
     :
     Beginner:
     1:
     0.116,0.151,0.009,0.009,0.000,87.000,1.000,1.000,0.000,0.000:
0000
0000
0000
0000
,
0000
0000
0000
0000
,
0000
0000
0000
0000
,
0000
0000
0000
0000
,
0000
0000
0000
0000
,
0000
0000
0000
0000
,
0000
0000
0000
0000
,
0000
0000
0000
0000
,
0000
0000
0000
0000
,
0000
0000
0000
0000
,
0010
0000
0000
0000
,
0010
0000
0010
0000
,
0100
0000
0000
0000
,
0100
0000
0100
0000
,
1000
0000
0000
0000
,
0001
0000
0001
0000
,
0010
0000
0010
0000
,
1001
0000
0000
0000
,
0010
0000
0100
0000
,
0010
0000
0000
0000
,
0001
0000
0100
0000
,
1000
0000
0000
0000
,
1000
0000
0010
0000
,
0001
0000
0000
0000
,
0100
0000
0010
0000
,
1000
0000
0000
0000
,
0001
0000
0001
0000
,
1000
0000
1000
0000
,
0010
0000
0010
0000
,
0010
0000
0010
0000
,
0100
0000
0100
0000
,
0001
0000
0001
0000
,
1000
0000
1000
0000
,
1000
0000
1000
0000
,
0000
0000
0100
0000
,
0000
0000
0001
0000
,
0000
0000
1000
0000
,
0000
0000
0010
0000
,
0000
0000
0100
0000
,
0000
0000
0001
0000
,
0010
0000
0010
0000
,
0010
0000
0010
0000
,
1000
0000
0100
0000
,
0000
0000
0001
0000
,
1000
0000
0010
0000
,
0000
0000
1000
0000
,
0100
0000
0001
0000
,
0000
0000
0010
0000
,
1000
0000
0001
0000
,
0000
0000
0010
0000
,
0100
0000
0001
0000
,
0000
0000
0010
0000
,
1000
0000
0100
0000
,
0000
0000
0001
0000
,
0100
0000
1000
0000
,
0000
0000
0010
0000
,
1000
0000
0100
0000
,
0002
0000
0000
0003
,
0010
0000
0010
0000
,
0010
0000
0000
0000
,
0100
0000
0100
0000
,
0100
0000
0000
0000
,
0001
0000
0001
0000
,
0001
0000
0000
0000
,
1000
0000
1000
0000
,
1000
0000
0000
0000
,
0010
0000
0000
0000
;
