#TITLE:A Deep Mentality;
#SUBTITLE:Persona 3;
#ARTIST:Shoji Meguro;
#TITLETRANSLIT:;
#SUBTITLETRANSLIT:;
#ARTISTTRANSLIT:;
#CREDIT:;
#BANNER:A Deep Mentality.png;
#BACKGROUND:A Deep Mentality-bg.png;
#LYRICSPATH:;
#CDTITLE:!yesssss-cdtitle.png;
#MUSIC:A Deep Mentality;
#OFFSET:0.015;
#SAMPLESTART:50.793;
#SAMPLELENGTH:12.000;
#SELECTABLE:YES;
#BPMS:0.000=124.000;
#STOPS:2.750=0.242
,6.250=0.242
,9.750=0.242
,13.250=0.242
,16.750=0.242
,20.250=0.242
,23.750=0.242
,27.250=0.242
,58.938=0.242
,59.417=0.121
,59.667=0.122
,124.250=0.242
,124.750=0.121
,125.250=0.121
,125.750=0.242
,126.750=0.242
,127.250=0.121
,127.750=0.121
,128.250=0.242
,139.500=0.121
,143.250=0.121
,147.000=0.121
,150.750=0.121
;
#BGCHANGES:;
// cache tags:
#FIRSTBEAT:1.000;
#LASTBEAT:200.000;
#SONGFILENAME:Songs/VGMP 2/A Deep Mentality (Yesssss)/A Deep Mentality.sm;
#HASMUSIC:1;
#HASBANNER:1;
#MUSICLENGTH:105.967;
// end cache tags

//---------------dance-single - ----------------
#NOTES:
     dance-single:
     :
     Hard:
     13:
     1.000,1.000,1.000,1.000,1.000,636.000,342.000,212.000,42.000,120.000:
0000
0000
0000
0000
0000
0000
0000
0000
0000
0000
0000
0000
0110
0000
0000
0000
1000
0000
0002
0000
0000
0000
0000
0000
1103
0000
0000
0020
0000
0000
0100
0000
0000
1032
0003
0000
1020
0000
0000
0000
0000
0000
0131
0000
0000
2000
0000
0000
,
0010
0000
0000
3201
0000
0000
1301
0000
0000
0000
0100
0000
0020
0000
0000
0000
0000
0000
1031
0000
0000
0200
0000
0000
0010
0000
0000
2301
3000
0000
0021
0000
0000
0000
0000
0000
1130
0000
0000
0002
0000
0000
0100
0000
0000
1023
0000
0000
,
1130
0000
0000
0000
0001
0000
0200
0000
0000
0000
0000
0000
0311
0000
0000
2000
0000
0000
0010
0000
0000
3102
0003
0000
0210
0000
0000
0000
0000
0000
1310
0000
0000
0002
0000
0000
1000
0000
0000
0213
0000
0000
1301
0000
0000
0000
1000
0000
,
0002
0000
0000
0000
0000
0000
1013
0000
0000
0200
0000
0000
0010
0000
0000
1302
0003
0000
1020
0000
0000
0000
0000
0000
1130
0000
0000
0002
0000
0000
1000
0000
0000
0213
0000
0000
0311
0000
0000
0000
1000
0000
0020
0000
0000
0000
0000
0000
,
1031
0000
0000
0200
0000
0000
0001
0000
0000
1320
0030
0000
0210
0000
0000
0000
0000
0000
1301
0000
0000
0200
0000
0000
0001
0000
0000
2310
0000
0000
3101
0000
0000
0000
0100
0000
0020
0000
0000
0000
0000
0000
1031
0000
0000
0200
0000
0000
,
0010
0000
0000
1302
0003
0000
1020
0000
0000
0000
0000
0000
0131
0000
0000
2000
0000
0000
0010
0000
0000
3201
0000
0000
1301
0000
0000
0000
0100
0000
0020
0000
0000
0000
0000
0000
1031
0000
0000
0200
0000
0000
0010
0000
0000
2301
3000
0000
,
0012
0000
0000
0000
0000
0000
1103
0000
0000
0200
0000
0000
0001
0000
0000
2310
0000
0000
3110
0000
0000
0000
1000
0000
0002
0000
0000
0000
0000
0000
0113
0000
0000
2000
0000
0000
0001
0000
0000
3120
0030
0000
0102
0000
0000
0000
0000
0000
,
1103
0000
0000
0020
0000
0000
1000
0000
0000
0231
0000
0000
1301
0000
0000
0000
0000
0000
0021
0000
0000
0000
0000
0000
1130
0000
0000
0002
0000
0000
0100
0000
0000
2013
0000
3000
M101
0000
0000
0000
0000
0000
1002
0000
0000
0000
0000
0000
,
1013
0000
0000
0200
0000
0000
0001
0000
0000
1320
0000
0030
10M1
0000
0000
0000
0000
0000
0201
0000
0000
0000
0000
0000
1301
0000
0000
0020
0000
0000
0100
0000
0000
2031
0000
3000
M101
0000
0000
0000
0000
0000
0021
0000
0000
0000
0000
0000
,
1031
0000
0000
0200
0000
0000
0010
0000
0000
1302
0000
0003
101M
0000
0000
0000
0000
0000
0201
0000
0000
0000
0000
0000
1310
0000
0000
0002
0000
0000
1000
0000
0000
0123
0000
0030
10M1
0000
0000
0000
0000
0000
0210
0000
0000
0000
0000
0000
,
1301
0000
0000
0020
0000
0000
0100
0000
0000
1032
0000
0003
101M
0000
0000
0000
0000
0000
0021
0000
0000
0000
0000
0000
1031
0000
0000
0200
0000
0000
0001
0000
0000
2310
0000
3000
M101
0000
0000
0000
0000
0000
1020
0000
0000
0000
0000
0000
,
0131
0000
0000
2000
0000
0000
0001
0000
0000
3210
0000
0300
1M01
0000
0000
0000
0000
0000
0201
0000
0000
0000
0000
0000
1310
0000
0000
0002
0000
0000
1000
0000
0000
0123
0000
0030
10M1
0000
0000
0000
0000
0000
0201
0000
0000
0000
0000
0000
,
1310
0000
0000
0002
0000
0000
0010
0000
0000
2103
0000
3000
M101
0000
0000
0000
0000
0000
1200
0000
0000
0000
0000
0000
0311
0000
0000
2000
0000
0000
0100
0000
0000
3021
0000
0030
10M1
0000
0000
0000
0000
0000
0120
0000
0000
0000
0000
0000
,
1031
0000
0000
0200
0000
0000
0010
0000
0000
1302
0000
0003
011M
0000
0000
0000
0000
0000
0102
0000
0000
0000
0000
0000
1013
0000
0000
0200
0000
0000
0001
0000
0000
1320
0000
0030
01M1
0000
0000
0000
0000
0000
2010
0000
0000
0000
0000
0000
,
3101
0000
0000
0000
0000
0000
0000
0000
0000
0000
0000
0000
0020
0000
0000
0000
0000
0000
0000
0000
0000
0000
0000
0000
1000
0000
0000
0000
0000
0000
0000
0000
0000
0000
0000
0000
0231
0000
0000
0000
0000
0000
0000
0000
0300
0000
0000
0000
1M01
0000
0000
0000
0000
0000
0000
0000
0000
0000
0000
0000
0000
0000
0000
0000
0000
0000
0000
0000
0000
0000
0000
0000
0102
0000
0000
0000
0000
0000
0000
0000
0000
0000
0000
0000
0000
0000
0000
0000
0000
0000
0000
0000
0000
0000
0000
0000
1013
0000
0000
0000
0000
0000
0000
0000
0000
0000
0000
0000
0200
0000
0000
0000
0000
0000
0000
0000
0000
0000
0000
0000
1000
0000
0000
0000
0000
0000
0000
0000
0000
0000
0000
0000
0321
0000
0000
0000
0000
0000
0000
0000
0030
0000
0000
0000
10M2
0000
0000
0000
0000
0000
0000
0000
0000
0000
0000
0000
0000
0000
0000
0000
0000
0000
0000
0000
0000
0003
0000
0000
0200
0000
0000
0000
0000
0000
0000
0000
0000
0300
0000
0000
0020
0000
0000
0000
0000
0000
0000
0000
0030
0000
0000
0000
,
10M1
0000
0000
0000
0000
0000
2010
0000
0000
0000
0000
0000
3011
0000
0000
2100
0000
0000
3000
0000
0000
0201
0000
0300
1M10
0000
0000
0001
0000
0000
0000
0000
0000
0100
0000
0000
0011
0000
0000
0100
0000
0000
0000
0000
0000
0001
0000
0000
,
1100
0000
0000
0000
0000
0000
0102
0000
0000
0000
0000
0000
1013
0000
0000
0102
0000
0000
0003
0000
0000
0120
0000
0030
10M1
0000
0000
0100
0000
0000
0000
0000
0000
1000
0000
0000
0011
0000
0000
1000
0000
0000
0000
0000
0000
0010
0000
0000
,
1001
0000
0000
0000
0000
0000
0210
0000
0000
0000
0000
0000
1301
0000
0000
0210
0000
0000
0300
0000
0000
0120
0000
0030
11M0
0000
0000
0001
0000
0000
0000
0000
0000
0010
0000
0000
0101
0000
0000
0010
0000
0000
0000
0000
0000
0100
0000
0000
,
1010
0000
0000
0000
0000
0000
0102
0000
0000
0000
0000
0000
0113
0000
0000
1002
0000
0000
0003
0000
0000
2100
0000
3000
M011
0000
0000
0100
0000
0000
0000
0000
0000
0010
0000
0000
1100
0000
0000
0010
0000
0000
0000
0000
0000
0100
0000
0000
,
0011
0000
0000
0000
0000
0000
2100
0000
0000
0000
0000
0000
3101
0000
0000
2010
0000
0000
3000
0000
0000
0021
0000
0030
10M1
0000
0000
0100
0000
0000
0000
0000
0000
0001
0000
0000
0110
0000
0000
0001
0000
0000
0000
0000
0000
1000
0000
0000
,
0101
0000
0000
0000
0000
0000
1020
0000
0000
0000
0000
0000
0131
0000
0000
0120
0000
0000
0030
0000
0000
1200
0000
0300
0M11
0000
0000
1000
0000
0000
0000
0000
0000
0010
0000
0000
0101
0000
0000
1000
0000
0000
0000
0000
0000
0010
0000
0000
,
0101
0000
0000
0000
0000
0000
2010
0000
0000
0000
0000
0000
3011
0000
0000
2100
0000
0000
3000
0000
0000
0210
0000
0300
1M01
0000
0000
0010
0000
0000
0000
0000
0000
0100
0000
0000
1010
0000
0000
0001
0000
0000
0000
0000
0000
0010
0000
0000
,
1001
0000
0000
0000
0010
0000
0000
0000
0101
0000
0000
0000
0010
0000
1000
0000
0101
0000
1010
0000
0100
0000
0000
0000
0101
0000
1000
0000
0000
0010
0000
0100
,
1001
0000
0000
0000
0000
0000
0000
0000
0000
0000
0000
0000
0000
0000
0000
0000
0000
0000
0000
0000
0000
0000
0000
0000
0120
0000
0000
0000
0000
0000
0000
0000
0000
0000
0000
0000
0000
0000
0000
0000
0000
0000
0000
0000
0000
0000
0000
0000
1031
0000
0000
0000
0000
0000
0000
0000
0000
0000
0000
0000
0120
0000
0000
0000
0000
0000
0000
0000
0000
0000
0000
0000
0030
0000
0000
0000
0000
0000
0000
0000
0000
0000
0000
0000
0102
0000
0000
0000
0000
0000
0000
0000
0003
0000
0000
0000
110M
0000
0000
0000
0000
0000
0000
0000
0000
0000
0000
0000
0010
0000
0000
0000
0000
0000
0000
0000
0000
0000
0000
0000
0000
0000
0000
0000
0000
0000
0000
0000
0000
0000
0000
0000
0010
0000
0000
0000
0000
0000
0000
0000
0000
0000
0000
0000
1100
0000
0000
0000
0000
0000
0000
0000
0000
0000
0000
0000
0010
0000
0000
0000
0000
0000
0000
0000
0000
0000
0000
0000
0000
0000
0000
0000
0000
0000
0100
0000
0000
0000
0000
0000
0000
0000
0000
0000
0000
0000
0010
0000
0000
0000
0000
0000
,
1001
0000
0000
0000
0000
0000
0000
0000
0000
0000
0000
0000
0000
0000
0000
0000
0000
0000
0000
0000
0000
0000
0000
0000
0021
0000
0000
0000
0000
0000
0000
0000
0000
0000
0000
0000
0000
0000
0000
0000
0000
0000
0000
0000
0000
0000
0000
0000
1130
0000
0000
0000
0000
0000
0000
0000
0000
0000
0000
0000
0021
0000
0000
0000
0000
0000
0000
0000
0000
0000
0000
0000
0030
0000
0000
0000
0000
0000
0000
0000
0000
0000
0000
0000
1200
0000
0000
0000
0000
0000
0000
0000
0300
0000
0000
0000
0M11
0000
0000
0000
0000
0000
0000
0000
0000
0000
0000
0000
1010
0000
0000
0000
0000
0000
0000
0000
0000
0000
0000
0000
0000
0000
0000
0000
0000
0000
0000
0000
0000
0000
0000
0000
0010
0000
0000
0000
0000
0000
0000
0000
0000
0000
0000
0000
1001
0000
0000
0000
0000
0000
0000
0000
0000
0000
0000
0000
0010
0000
0000
0000
0000
0000
0000
0000
0000
0000
0000
0000
0000
0000
0000
0000
0000
0000
0100
0000
0000
0000
0000
0000
0000
0000
0000
0000
0000
0000
0001
0000
0000
0000
0000
0000
,
1010
0000
0000
0000
0000
0000
0000
0000
0000
0000
0000
0000
0000
0000
0000
0000
0000
0000
0000
0000
0000
0000
0000
0000
2100
0000
0000
0000
0000
0000
0000
0000
0000
0000
0000
0000
0000
0000
0000
0000
0000
0000
0000
0000
0000
0000
0000
0000
3011
0000
0000
0000
0000
0000
0000
0000
0000
0000
0000
0000
2010
0000
0000
0000
0000
0000
0000
0000
0000
0000
0000
0000
3000
0000
0000
0000
0000
0000
0000
0000
0000
0000
0000
0000
0210
0000
0000
0000
0000
0000
0000
0000
0300
0000
0000
0000
1M01
0000
0000
0000
0000
0000
0000
0000
0000
0000
0000
0000
0010
0000
0000
0000
0000
0000
0000
0000
0000
0000
0000
0000
0000
0000
0000
0000
0000
0000
0000
0000
0000
0000
0000
0000
0100
0000
0000
0000
0000
0000
0000
0000
0000
0000
0000
0000
1001
0000
0000
0000
0000
0000
0000
0000
0000
0000
0000
0000
0100
0000
0000
0000
0000
0000
0000
0000
0000
0000
0000
0000
0000
0000
0000
0000
0000
0000
0001
0000
0000
0000
0000
0000
0000
0000
0000
0000
0000
0000
1000
0000
0000
0000
0000
0000
,
0011
0000
0000
0000
0000
0000
0000
0000
0000
0000
0000
0000
0000
0000
0000
0000
0000
0000
0000
0000
0000
0000
0000
0000
0102
0000
0000
0000
0000
0000
0000
0000
0000
0000
0000
0000
0000
0000
0000
0000
0000
0000
0000
0000
0000
0000
0000
0000
1013
0000
0000
0000
0000
0000
0000
0000
0000
0000
0000
0000
0102
0000
0000
0000
0000
0000
0000
0000
0000
0000
0000
0000
0003
0000
0000
0000
0000
0000
0000
0000
0000
0000
0000
0000
0210
0000
0000
0000
0000
0000
0000
0000
0300
0000
0000
0000
1M01
0000
0000
0000
0000
0000
0000
0000
0000
0000
0000
0000
1010
0000
0000
0000
0000
0000
0000
0000
0000
0000
0000
0000
0000
0000
0000
0000
0000
0000
0000
0000
0000
0000
0000
0000
0100
0000
0000
0000
0000
0000
0000
0000
0000
0000
0000
0000
1010
0000
0000
0000
0000
0000
0000
0000
0000
0000
0000
0000
0100
0000
0000
0000
0000
0000
0000
0000
0000
0000
0000
0000
0000
0000
0000
0000
0000
0000
1000
0000
0000
0000
0000
0000
0000
0000
0000
0000
0000
0000
0010
0000
0000
0000
0000
0000
,
0101
0000
0000
0000
0000
0000
0000
0000
0000
0000
0000
0000
0000
0000
0000
0000
0000
0000
0000
0000
0000
0000
0000
0000
1200
0000
0000
0000
0000
0000
0000
0000
0000
0000
0000
0000
0000
0000
0000
0000
0000
0000
0000
0000
0000
0000
0000
0000
1301
0000
0000
0000
0000
0000
0000
0000
0000
0000
0000
0000
0210
0000
0000
0000
0000
0000
0000
0000
0000
0000
0000
0000
0300
0000
0000
0000
0000
0000
0000
0000
0000
0000
0000
0000
1020
0000
0000
0000
0000
0000
0000
0000
0030
0000
0000
0000
10M1
0000
0000
0000
0000
0000
0000
0000
0000
0000
0000
0000
0100
0000
0000
0000
0000
0000
0000
0000
0000
0000
0000
0000
0000
0000
0000
0000
0000
0000
0000
0000
0000
0000
0000
0000
1000
0000
0000
0000
0000
0000
0000
0000
0000
0000
0000
0000
0011
0000
0000
0000
0000
0000
0000
0000
0000
0000
0000
0000
0100
0000
0000
0000
0000
0000
0000
0000
0000
0000
0000
0000
0000
0000
0000
0000
0000
0000
0010
0000
0000
0000
0000
0000
0000
0000
0000
0000
0000
0000
0001
0000
0000
0000
0000
0000
,
1100
0000
0000
0000
0000
0000
0000
0000
0000
0000
0000
0000
0000
0000
0000
0000
0000
0000
0000
0000
0000
0000
0000
0000
0012
0000
0000
0000
0000
0000
0000
0000
0000
0000
0000
0000
0000
0000
0000
0000
0000
0000
0000
0000
0000
0000
0000
0000
1013
0000
0000
0000
0000
0000
0000
0000
0000
0000
0000
0000
0102
0000
0000
0000
0000
0000
0000
0000
0000
0000
0000
0000
0003
0000
0000
0000
0000
0000
0000
0000
0000
0000
0000
0000
2010
0000
0000
0000
0000
0000
0000
0000
3000
0000
0000
0000
M101
0000
0000
0000
0000
0000
0000
0000
0000
0000
0000
0000
0011
0000
0000
0000
0000
0000
0000
0000
0000
0000
0000
0000
0000
0000
0000
0000
0000
0000
0000
0000
0000
0000
0000
0000
0010
0000
0000
0000
0000
0000
0000
0000
0000
0000
0000
0000
0101
0000
0000
0000
0000
0000
0000
0000
0000
0000
0000
0000
0010
0000
0000
0000
0000
0000
0000
0000
0000
0000
0000
0000
0000
0000
0000
0000
0000
0000
0100
0000
0000
0000
0000
0000
0000
0000
0000
0000
0000
0000
1000
0000
0000
0000
0000
0000
,
0011
0000
0000
0000
0000
0000
0000
0000
0000
0000
0000
0000
0000
0000
0000
0000
0000
0000
0000
0000
0000
0000
0000
0000
2100
0000
0000
0000
0000
0000
0000
0000
0000
0000
0000
0000
0000
0000
0000
0000
0000
0000
0000
0000
0000
0000
0000
0000
3101
0000
0000
0000
0000
0000
0000
0000
0000
0000
0000
0000
2010
0000
0000
0000
0000
0000
0000
0000
0000
0000
0000
0000
3000
0000
0000
0000
0000
0000
0000
0000
0000
0000
0000
0000
0021
0000
0000
0000
0000
0000
0000
0000
0030
0000
0000
0000
11M0
0000
0000
0000
0000
0000
0000
0000
0000
0000
0000
0000
0001
0000
0000
0000
0000
0000
0000
0000
0000
0000
0000
0000
0000
0000
0000
0000
0000
0000
0000
0000
0000
0000
0000
0000
1000
0000
0000
0000
0000
0000
0000
0000
0000
0000
0000
0000
0101
0000
0000
0000
0000
0000
0000
0000
0000
0000
0000
0000
0010
0000
0000
0000
0000
0000
0000
0000
0000
0000
0000
0000
0000
0000
0000
0000
0000
0000
0010
0000
0000
0000
0000
0000
0000
0000
0000
0000
0000
0000
0100
0000
0000
0000
0000
0000
,
1001
0000
0000
0000
0100
0000
0000
0000
1010
0000
0000
0000
0100
0000
0001
0000
1010
0000
0101
0000
0010
0000
0000
0000
1001
0000
0010
0000
0100
0001
0000
0100
,
1001
0000
1001
0000
0002
0003
0020
0030
0200
0300
2000
3000
0101
0000
0101
0000
1010
0000
1010
0000
1010
0000
1010
0000
0002
0003
2000
3000
0020
0030
0200
0300
,
1001
0000
1001
0000
0110
0000
0110
0000
1000
0100
0010
0001
1000
0100
0010
0001
1000
0100
0010
0001
1000
0100
0010
0001
1000
0100
0010
0001
1000
0100
0010
0001
,
1000
0100
0010
0001
1000
0100
0010
0001
1100
0000
1100
0000
0001
0000
0000
0000
1010
0000
0000
0000
0100
0000
0001
0000
1000
0000
0001
0000
0010
0000
0000
0000
,
0101
0000
0000
0000
0000
0000
0001
0000
0010
0000
0100
0000
1001
0000
0000
0000
0000
0000
0100
0000
0000
0000
0000
0000
1010
0000
0000
0000
0000
0000
0100
0000
0000
0001
0000
0000
0010
0000
0000
0000
0000
0000
0100
0000
0000
1010
0000
0000
,
0010
0100
0000
0011
0000
0100
0000
1010
0000
0100
0001
0010
1001
0010
0011
0100
,
1000
0000
0011
0000
0100
0000
1010
0000
0001
0100
0010
0000
0100
1010
0001
0010
,
0000
1100
0000
0010
0000
0101
0000
0010
1000
0001
1010
0100
1100
0001
1000
M000
,
0011
0000
1200
0000
0311
0200
0301
1020
0130
0000
2100
0M00
3011
2100
3001
0020
,
0131
0000
1020
0000
0131
0120
1030
0201
0310
1100
0021
000M
1130
0021
0130
0002
,
1013
0000
0120
0000
1031
0020
0031
1200
0301
0000
0102
0M00
1013
0102
0013
0200
,
1301
0000
2010
0000
3101
2000
3001
0120
0031
1010
0120
0M00
1130
0021
0130
2000
,
3011
0000
2010
0000
3101
2000
3100
1020
0031
0000
0102
0M00
1103
0002
1103
0201
,
1310
0000
0120
0000
1031
0020
0130
0012
1003
0001
0120
0M00
0131
1020
0131
1200
,
0311
0000
0201
0000
1310
0200
1300
0021
1030
0000
0210
00M0
1301
0200
1310
0012
,
1103
0001
0120
0000
1031
0020
0130
2010
3001
0110
2010
00M0
3101
2010
3100
0021
,
1130
0010
0201
0000
1310
0200
0301
1020
0031
1100
1002
M000
0113
1002
0103
1020
,
0131
0000
2000
0000
3101
2000
3010
1200
0310
1001
0201
000M
1310
0201
1300
0012
,
1103
0000
0020
0000
0131
0020
1030
0201
1300
0011
2100
0M00
3011
2100
3010
0102
,
1013
0100
1000
0001
0000
1000
0001
0100
0000
0010
0000
0010
0010
1000
0001
0000
,
1001
0000
0000
0000
;

//---------------dance-single - Copied from----------------
#NOTES:
     dance-single:
     Copied from:
     Challenge:
     13:
     1.000,1.000,1.000,1.000,1.000,655.000,358.000,228.000,42.000,150.000:
0000
0000
0000
0000
0000
0000
0000
0000
0000
0000
0000
0000
0110
0000
0000
0000
1000
0000
0002
0000
0000
0000
0000
0000
1103
0000
0000
0020
0000
0000
0100
0000
0000
1032
0003
0000
1020
0000
0000
0000
0000
0000
0131
0000
0000
2000
0000
0000
,
0010
0000
0000
3201
0000
0000
1301
0000
0000
0000
0100
0000
0020
0000
0000
0000
0000
0000
1031
0000
0000
0200
0000
0000
0010
0000
0000
2301
3000
0000
0021
0000
0000
0000
0000
0000
1130
0000
0000
0002
0000
0000
0100
0000
0000
1023
0000
0000
,
1130
0000
0000
0000
0001
0000
0200
0000
0000
0000
0000
0000
0311
0000
0000
2000
0000
0000
0010
0000
0000
3102
0003
0000
0210
0000
0000
0000
0000
0000
1310
0000
0000
0002
0000
0000
1000
0000
0000
0213
0000
0000
1301
0000
0000
0000
1000
0000
,
0002
0000
0000
0000
0000
0000
1013
0000
0000
0200
0000
0000
0010
0000
0000
1302
0003
0000
1020
0000
0000
0000
0000
0000
1130
0000
0000
0002
0000
0000
1000
0000
0000
0213
0000
0000
0311
0000
0000
0000
1000
0000
0020
0000
0000
0000
0000
0000
,
1031
0000
0000
0200
0000
0000
0001
0000
0000
1320
0030
0000
0210
0000
0000
0000
0000
0000
1301
0000
0000
0200
0000
0000
0001
0000
0000
2310
0000
0000
3101
0000
0000
0000
0100
0000
0020
0000
0000
0000
0000
0000
1031
0000
0000
0200
0000
0000
,
0010
0000
0000
1302
0003
0000
1020
0000
0000
0000
0000
0000
0131
0000
0000
2000
0000
0000
0010
0000
0000
3201
0000
0000
1301
0000
0000
0000
0100
0000
0020
0000
0000
0000
0000
0000
1031
0000
0000
0200
0000
0000
0010
0000
0000
2301
3000
0000
,
0012
0000
0000
0000
0000
0000
1103
0000
0000
0200
0000
0000
0001
0000
0000
2310
0000
0000
3110
0000
0000
0000
1000
0000
0002
0000
0000
0000
0000
0000
0113
0000
0000
2000
0000
0000
0001
0000
0000
3120
0030
0000
0102
0000
0000
0000
0000
0000
,
1103
0000
0000
0020
0000
0000
1000
0000
0000
0231
0000
0000
1301
0000
0000
0100
0000
0000
0021
0000
0000
1000
0000
0000
0131
0000
0000
1002
0000
0000
0100
0000
0000
2013
0000
3000
M101
0000
0000
0000
0000
0000
1002
0000
0000
0000
0000
0000
,
1013
0000
0000
0200
0000
0000
0001
0000
0000
1320
0000
0030
10M1
0000
0000
0010
0000
0000
0201
0000
0000
1000
0000
0000
0311
0000
0000
1020
0000
0000
0100
0000
0000
2031
0000
3000
M101
0000
0000
0000
0000
0000
0021
0000
0000
0000
0000
0000
,
1031
0000
0000
0200
0000
0000
0010
0000
0000
1302
0000
0003
101M
0000
0000
0001
0000
0000
1200
0000
0000
0001
0000
0000
1310
0000
0000
0102
0000
0000
1000
0000
0000
0123
0000
0030
10M1
0000
0000
0000
0000
0000
0210
0000
0000
0000
0000
0000
,
1301
0000
0000
0020
0000
0000
0100
0000
0000
1032
0000
0003
101M
0000
0000
0100
0000
0000
0021
0000
0000
1000
0000
0000
0131
0000
0000
0210
0000
0000
0001
0000
0000
2310
0000
3000
M101
0000
0000
0000
0000
0000
1020
0000
0000
0000
0000
0000
,
0131
0000
0000
2000
0000
0000
0001
0000
0000
3210
0000
0300
1M01
0000
0000
0010
0000
0000
0201
0000
0000
1000
0000
0000
0311
0000
0000
1002
0000
0000
0100
0000
0000
1023
0000
0030
10M1
0000
0000
0000
0000
0000
0201
0000
0000
0000
0000
0000
,
1310
0000
0000
0002
0000
0000
0010
0000
0000
2103
0000
3000
M101
0000
0000
0010
0000
0000
1200
0000
0000
0010
0000
0000
1301
0000
0000
2010
0000
0000
0100
0000
0000
3021
0000
0030
10M1
0000
0000
0000
0000
0000
0120
0000
0000
0000
0000
0000
,
1130
0000
0000
0200
0000
0000
0010
0000
0000
1302
0000
0003
011M
0000
0000
1000
0000
0000
0102
0000
0000
0010
0000
0000
1103
0000
0000
0210
0000
0000
0001
0000
0000
1320
0000
0030
01M1
0000
0000
0000
0000
0000
2010
0000
0000
0000
0000
0000
,
3101
0000
0000
0000
0000
0000
0000
0000
0000
0000
0000
0000
0020
0000
0000
0000
0000
0000
0000
0000
0000
0000
0000
0000
1000
0000
0000
0000
0000
0000
0000
0000
0000
0000
0000
0000
0231
0000
0000
0000
0000
0000
0000
0000
0300
0000
0000
0000
1M01
0000
0000
0000
0000
0000
0000
0000
0000
0000
0000
0000
0010
0000
0000
0000
0000
0000
0000
0000
0000
0000
0000
0000
0102
0000
0000
0000
0000
0000
0000
0000
0000
0000
0000
0000
1000
0000
0000
0000
0000
0000
0000
0000
0000
0000
0000
0000
0113
0000
0000
0000
0000
0000
0000
0000
0000
0000
0000
0000
0201
0000
0000
0000
0000
0000
0000
0000
0000
0000
0000
0000
1000
0000
0000
0000
0000
0000
0000
0000
0000
0000
0000
0000
0321
0000
0000
0000
0000
0000
0000
0000
0030
0000
0000
0000
10M2
0000
0000
0000
0000
0000
0000
0000
0000
0000
0000
0000
0000
0000
0000
0000
0000
0000
0000
0000
0000
0003
0000
0000
0200
0000
0000
0000
0000
0000
0000
0000
0000
0300
0000
0000
0020
0000
0000
0000
0000
0000
0000
0000
0030
0000
0000
0000
,
10M1
0000
0000
0000
0000
0000
2010
0000
0000
0000
0000
0000
3011
0000
0000
2100
0000
0000
3000
0000
0000
0201
0000
0300
1M10
0000
0000
0001
0000
0000
0000
0000
0000
0100
0000
0000
0011
0000
0000
0100
0000
0000
0000
0000
0000
0001
0000
0000
,
1100
0000
0000
0000
0000
0000
0102
0000
0000
0000
0000
0000
1013
0000
0000
0102
0000
0000
0003
0000
0000
0120
0000
0030
10M1
0000
0000
0100
0000
0000
0000
0000
0000
1000
0000
0000
0011
0000
0000
1000
0000
0000
0000
0000
0000
0010
0000
0000
,
1001
0000
0000
0000
0000
0000
0210
0000
0000
0000
0000
0000
1301
0000
0000
0210
0000
0000
0300
0000
0000
0120
0000
0030
11M0
0000
0000
0001
0000
0000
0000
0000
0000
0010
0000
0000
0101
0000
0000
0010
0000
0000
0000
0000
0000
0100
0000
0000
,
1010
0000
0000
0000
0000
0000
0102
0000
0000
0000
0000
0000
0113
0000
0000
1002
0000
0000
0003
0000
0000
2100
0000
3000
M011
0000
0000
0100
0000
0000
0000
0000
0000
0010
0000
0000
1100
0000
0000
0010
0000
0000
0000
0000
0000
0100
0000
0000
,
0011
0000
0000
0000
0000
0000
2100
0000
0000
0000
0000
0000
3101
0000
0000
2010
0000
0000
3000
0000
0000
0021
0000
0030
10M1
0000
0000
0100
0000
0000
0000
0000
0000
0001
0000
0000
0110
0000
0000
0001
0000
0000
0000
0000
0000
1000
0000
0000
,
0101
0000
0000
0000
0000
0000
1020
0000
0000
0000
0000
0000
0131
0000
0000
0120
0000
0000
0030
0000
0000
1200
0000
0300
0M11
0000
0000
1000
0000
0000
0000
0000
0000
0010
0000
0000
0101
0000
0000
1000
0000
0000
0000
0000
0000
0010
0000
0000
,
0101
0000
0000
0000
0000
0000
2010
0000
0000
0000
0000
0000
3011
0000
0000
2100
0000
0000
3000
0000
0000
0210
0000
0300
1M01
0000
0000
0010
0000
0000
0000
0000
0000
0100
0000
0000
1010
0000
0000
0001
0000
0000
0000
0000
0000
0010
0000
0000
,
1001
0000
0000
0000
0010
0000
0000
0000
0101
0000
0000
0000
0010
0000
1000
0000
0101
0000
1010
0000
0100
0000
0000
0000
0101
0000
1000
0000
0000
0010
0000
0100
,
1001
0000
0000
0000
0000
0000
0000
0000
0000
0000
0000
0000
0000
0000
0000
0000
0000
0000
0000
0000
0000
0000
0000
0000
0120
0000
0000
0000
0000
0000
0000
0000
0000
0000
0000
0000
0000
0000
0000
0000
0000
0000
0000
0000
0000
0000
0000
0000
1031
0000
0000
0000
0000
0000
0000
0000
0000
0000
0000
0000
0120
0000
0000
0000
0000
0000
0000
0000
0000
0000
0000
0000
0030
0000
0000
0000
0000
0000
0000
0000
0000
0000
0000
0000
0102
0000
0000
0000
0000
0000
0000
0000
0003
0000
0000
0000
110M
0000
0000
0000
0000
0000
0000
0000
0000
0000
0000
0000
0010
0000
0000
0000
0000
0000
0000
0000
0000
0000
0000
0000
0000
0000
0000
0000
0000
0000
0000
0000
0000
0000
0000
0000
0010
0000
0000
0000
0000
0000
0000
0000
0000
0000
0000
0000
1100
0000
0000
0000
0000
0000
0000
0000
0000
0000
0000
0000
0010
0000
0000
0000
0000
0000
0000
0000
0000
0000
0000
0000
0000
0000
0000
0000
0000
0000
0100
0000
0000
0000
0000
0000
0000
0000
0000
0000
0000
0000
0010
0000
0000
0000
0000
0000
,
1001
0000
0000
0000
0000
0000
0000
0000
0000
0000
0000
0000
0000
0000
0000
0000
0000
0000
0000
0000
0000
0000
0000
0000
0021
0000
0000
0000
0000
0000
0000
0000
0000
0000
0000
0000
0000
0000
0000
0000
0000
0000
0000
0000
0000
0000
0000
0000
1130
0000
0000
0000
0000
0000
0000
0000
0000
0000
0000
0000
0021
0000
0000
0000
0000
0000
0000
0000
0000
0000
0000
0000
0030
0000
0000
0000
0000
0000
0000
0000
0000
0000
0000
0000
1200
0000
0000
0000
0000
0000
0000
0000
0300
0000
0000
0000
0M11
0000
0000
0000
0000
0000
0000
0000
0000
0000
0000
0000
1010
0000
0000
0000
0000
0000
0000
0000
0000
0000
0000
0000
0000
0000
0000
0000
0000
0000
0000
0000
0000
0000
0000
0000
0010
0000
0000
0000
0000
0000
0000
0000
0000
0000
0000
0000
1001
0000
0000
0000
0000
0000
0000
0000
0000
0000
0000
0000
0010
0000
0000
0000
0000
0000
0000
0000
0000
0000
0000
0000
0000
0000
0000
0000
0000
0000
0100
0000
0000
0000
0000
0000
0000
0000
0000
0000
0000
0000
0001
0000
0000
0000
0000
0000
,
1010
0000
0000
0000
0000
0000
0000
0000
0000
0000
0000
0000
0000
0000
0000
0000
0000
0000
0000
0000
0000
0000
0000
0000
2100
0000
0000
0000
0000
0000
0000
0000
0000
0000
0000
0000
0000
0000
0000
0000
0000
0000
0000
0000
0000
0000
0000
0000
3011
0000
0000
0000
0000
0000
0000
0000
0000
0000
0000
0000
2010
0000
0000
0000
0000
0000
0000
0000
0000
0000
0000
0000
3000
0000
0000
0000
0000
0000
0000
0000
0000
0000
0000
0000
0210
0000
0000
0000
0000
0000
0000
0000
0300
0000
0000
0000
1M01
0000
0000
0000
0000
0000
0000
0000
0000
0000
0000
0000
0010
0000
0000
0000
0000
0000
0000
0000
0000
0000
0000
0000
0000
0000
0000
0000
0000
0000
0000
0000
0000
0000
0000
0000
0100
0000
0000
0000
0000
0000
0000
0000
0000
0000
0000
0000
1001
0000
0000
0000
0000
0000
0000
0000
0000
0000
0000
0000
0100
0000
0000
0000
0000
0000
0000
0000
0000
0000
0000
0000
0000
0000
0000
0000
0000
0000
0001
0000
0000
0000
0000
0000
0000
0000
0000
0000
0000
0000
1000
0000
0000
0000
0000
0000
,
0011
0000
0000
0000
0000
0000
0000
0000
0000
0000
0000
0000
0000
0000
0000
0000
0000
0000
0000
0000
0000
0000
0000
0000
0102
0000
0000
0000
0000
0000
0000
0000
0000
0000
0000
0000
0000
0000
0000
0000
0000
0000
0000
0000
0000
0000
0000
0000
1013
0000
0000
0000
0000
0000
0000
0000
0000
0000
0000
0000
0102
0000
0000
0000
0000
0000
0000
0000
0000
0000
0000
0000
0003
0000
0000
0000
0000
0000
0000
0000
0000
0000
0000
0000
0210
0000
0000
0000
0000
0000
0000
0000
0300
0000
0000
0000
1M01
0000
0000
0000
0000
0000
0000
0000
0000
0000
0000
0000
1010
0000
0000
0000
0000
0000
0000
0000
0000
0000
0000
0000
0000
0000
0000
0000
0000
0000
0000
0000
0000
0000
0000
0000
0100
0000
0000
0000
0000
0000
0000
0000
0000
0000
0000
0000
1010
0000
0000
0000
0000
0000
0000
0000
0000
0000
0000
0000
0100
0000
0000
0000
0000
0000
0000
0000
0000
0000
0000
0000
0000
0000
0000
0000
0000
0000
1000
0000
0000
0000
0000
0000
0000
0000
0000
0000
0000
0000
0010
0000
0000
0000
0000
0000
,
0101
0000
0000
0000
0000
0000
0000
0000
0000
0000
0000
0000
0000
0000
0000
0000
0000
0000
0000
0000
0000
0000
0000
0000
1200
0000
0000
0000
0000
0000
0000
0000
0000
0000
0000
0000
0000
0000
0000
0000
0000
0000
0000
0000
0000
0000
0000
0000
1301
0000
0000
0000
0000
0000
0000
0000
0000
0000
0000
0000
0210
0000
0000
0000
0000
0000
0000
0000
0000
0000
0000
0000
0300
0000
0000
0000
0000
0000
0000
0000
0000
0000
0000
0000
1020
0000
0000
0000
0000
0000
0000
0000
0030
0000
0000
0000
10M1
0000
0000
0000
0000
0000
0000
0000
0000
0000
0000
0000
0100
0000
0000
0000
0000
0000
0000
0000
0000
0000
0000
0000
0000
0000
0000
0000
0000
0000
0000
0000
0000
0000
0000
0000
1000
0000
0000
0000
0000
0000
0000
0000
0000
0000
0000
0000
0011
0000
0000
0000
0000
0000
0000
0000
0000
0000
0000
0000
0100
0000
0000
0000
0000
0000
0000
0000
0000
0000
0000
0000
0000
0000
0000
0000
0000
0000
0010
0000
0000
0000
0000
0000
0000
0000
0000
0000
0000
0000
0001
0000
0000
0000
0000
0000
,
1100
0000
0000
0000
0000
0000
0000
0000
0000
0000
0000
0000
0000
0000
0000
0000
0000
0000
0000
0000
0000
0000
0000
0000
0012
0000
0000
0000
0000
0000
0000
0000
0000
0000
0000
0000
0000
0000
0000
0000
0000
0000
0000
0000
0000
0000
0000
0000
1013
0000
0000
0000
0000
0000
0000
0000
0000
0000
0000
0000
0102
0000
0000
0000
0000
0000
0000
0000
0000
0000
0000
0000
0003
0000
0000
0000
0000
0000
0000
0000
0000
0000
0000
0000
2010
0000
0000
0000
0000
0000
0000
0000
3000
0000
0000
0000
M101
0000
0000
0000
0000
0000
0000
0000
0000
0000
0000
0000
0011
0000
0000
0000
0000
0000
0000
0000
0000
0000
0000
0000
0000
0000
0000
0000
0000
0000
0000
0000
0000
0000
0000
0000
0010
0000
0000
0000
0000
0000
0000
0000
0000
0000
0000
0000
0101
0000
0000
0000
0000
0000
0000
0000
0000
0000
0000
0000
0010
0000
0000
0000
0000
0000
0000
0000
0000
0000
0000
0000
0000
0000
0000
0000
0000
0000
0100
0000
0000
0000
0000
0000
0000
0000
0000
0000
0000
0000
1000
0000
0000
0000
0000
0000
,
0011
0000
0000
0000
0000
0000
0000
0000
0000
0000
0000
0000
0000
0000
0000
0000
0000
0000
0000
0000
0000
0000
0000
0000
2100
0000
0000
0000
0000
0000
0000
0000
0000
0000
0000
0000
0000
0000
0000
0000
0000
0000
0000
0000
0000
0000
0000
0000
3101
0000
0000
0000
0000
0000
0000
0000
0000
0000
0000
0000
2010
0000
0000
0000
0000
0000
0000
0000
0000
0000
0000
0000
3000
0000
0000
0000
0000
0000
0000
0000
0000
0000
0000
0000
0021
0000
0000
0000
0000
0000
0000
0000
0030
0000
0000
0000
11M0
0000
0000
0000
0000
0000
0000
0000
0000
0000
0000
0000
0001
0000
0000
0000
0000
0000
0000
0000
0000
0000
0000
0000
0000
0000
0000
0000
0000
0000
0000
0000
0000
0000
0000
0000
1000
0000
0000
0000
0000
0000
0000
0000
0000
0000
0000
0000
0101
0000
0000
0000
0000
0000
0000
0000
0000
0000
0000
0000
0010
0000
0000
0000
0000
0000
0000
0000
0000
0000
0000
0000
0000
0000
0000
0000
0000
0000
0010
0000
0000
0000
0000
0000
0000
0000
0000
0000
0000
0000
0100
0000
0000
0000
0000
0000
,
1001
0000
0000
0000
0100
0000
0000
0000
1010
0000
0000
0000
0100
0000
0001
0000
1010
0000
0101
0000
0010
0000
0000
0000
1001
0000
0010
0000
0100
0001
0000
0100
,
1011
0000
1011
0000
0002
0003
0020
0030
0200
0300
2000
3000
0111
0000
0111
0000
1110
0000
1110
0000
1110
0000
1110
0000
0002
0003
2000
3000
0020
0030
0200
0300
,
1011
0000
1011
0000
0111
0000
0111
0000
1000
0100
0010
0001
1000
0100
0010
0001
1000
0100
0010
0001
1000
0100
0010
0001
1000
0100
0010
0001
1000
0100
0010
0001
,
1000
0100
0010
0001
1000
0100
0010
0001
1110
0000
1110
0000
0001
0000
0000
0000
1010
0000
0000
0000
0100
0000
0001
0000
1000
0000
0001
0000
0010
0000
0000
0000
,
0101
0000
0000
0000
0000
0000
0001
0000
0010
0000
0100
0000
1011
0000
0000
0000
0000
0000
0100
0000
0000
0000
0000
0000
1010
0000
0000
0000
0000
0000
0100
0000
0000
0001
0000
0000
0010
0000
0000
0000
0000
0000
0100
0000
0000
1010
0000
0000
,
0010
0100
0000
0011
0000
0100
0000
1010
0000
0100
0001
0010
1001
0010
0011
0100
,
1000
0000
0011
0000
0100
0000
1010
0000
0001
0100
0010
0000
0100
1010
0001
0010
,
0000
1100
0000
0010
0000
0101
0000
0010
1000
0001
1010
0100
1100
0001
1000
M000
,
0111
0000
1200
0000
0311
0200
0301
1020
0130
0000
2100
0M00
3011
2100
3001
0020
,
0131
0000
1020
0000
0131
0120
1030
0201
0310
1100
0021
000M
1130
0021
0130
0002
,
1013
0000
0120
0000
1031
0020
0031
1200
0301
0000
0102
0M00
1013
0102
0013
0200
,
1301
0000
2010
0000
3101
2000
3001
0120
0031
1010
0120
0M00
1130
0021
0130
2000
,
3111
0000
2010
0000
3101
2000
3100
1020
0031
0000
0102
0M00
1103
0002
1103
0211
,
1311
0000
0120
0000
1031
0020
0130
0012
1003
0001
0120
0M00
0131
1020
0131
1200
,
1311
0000
0201
0000
1310
0200
1300
0021
1030
0000
0210
00M0
1301
0200
1310
0112
,
1113
0001
0120
0000
1031
0020
0130
2010
3001
0110
2010
00M0
3101
2010
3100
0021
,
1131
0010
0201
0000
1310
0200
0301
1020
0031
1100
1002
M000
0113
1002
0103
1020
,
0131
0000
0000
0000
2002
0000
0000
0000
3113
0000
2002
0000
3010
0000
1203
0000
0320
0000
1001
0000
0231
0000
200M
0000
0311
0000
3201
0000
0320
0000
0102
0003
,
1131
0000
0000
0000
2020
0000
0000
0000
3131
0000
2020
0000
0031
0000
3210
0000
0302
0000
1010
0000
2103
0000
0M20
0000
3101
0000
2031
0000
3200
0300
0202
0300
,
1113
0001
1020
0001
0030
1200
0010
0301
0020
0100
0030
2100
0100
3001
1020
0000
,
1031
0000
0000
0000
;
