#TITLE:Sphere;
#SUBTITLE:;
#ARTIST:Tatsh feat. K.Nayuki;
#TITLETRANSLIT:;
#SUBTITLETRANSLIT:;
#ARTISTTRANSLIT:;
#CREDIT:;
#BANNER:sphere_banner.png;
#BACKGROUND:sphere_bg.png;
#LYRICSPATH:;
#CDTITLE:!eggmanTitle.png;
#MUSIC:Beatmania IIDX RED 11th Style - [Medieval Choir] Tatsh feat. K.Nayuki - Sphere.mp3;
#OFFSET:-0.201;
#SAMPLESTART:37.500;
#SAMPLELENGTH:12.000;
#SELECTABLE:YES;
#BPMS:0.000=160.000;
#STOPS:;
#BGCHANGES:;
// cache tags:
#FIRSTBEAT:0.000;
#LASTBEAT:276.000;
#SONGFILENAME:Songs/Community Keyboard Megapack - Volume 1/(EggmaniMN) Sphere/Sphere.sm;
#HASMUSIC:1;
#HASBANNER:1;
#MUSICLENGTH:109.590;
// end cache tags

//---------------dance-single - ----------------
#NOTES:
     dance-single:
     :
     Hard:
     10:
     1.000,1.000,1.000,0.000,1.000,711.000,184.000,0.000,0.000,0.000:
1100
0000
0000
0000
0000
0000
0100
1000
0010
0100
0001
1000
0100
0010
0100
1000
,
0000
0000
0000
0000
0000
0000
0000
0001
,
1001
0000
0000
0000
0000
0000
0001
0100
0010
0100
0001
1000
0100
1000
0001
0100
,
0000
0000
0000
0000
0000
0000
0000
0000
0000
0000
0000
0000
0000
0010
0100
0001
,
1000
0100
0000
0010
0100
0000
1000
0001
0100
0010
0100
0001
1000
0100
0010
0001
,
0000
0000
0000
0000
,
1000
0010
0000
0100
0001
0000
1000
0100
0010
0100
1000
0010
0100
0001
1000
0001
,
0100
0000
0000
0000
0000
0000
0000
0000
0001
0010
0001
0010
0001
0010
0001
0010
,
0100
1000
0000
0010
0100
0000
0001
1000
0001
0100
0010
1000
0100
0010
0100
1000
,
0001
0100
0000
0010
0000
0000
0100
0000
0000
0001
0000
0000
1000
0000
0100
0000
,
0010
0001
0000
1000
0010
0000
0100
0010
0100
0001
1000
0100
0010
0001
0010
0100
,
1000
0010
0000
0000
0100
0000
0000
0001
0000
1000
0000
0100
0000
0000
0010
0000
,
0001
1000
0000
0010
0100
0000
0001
1000
0100
1000
0010
0100
0001
0010
0100
0010
,
0001
0000
0000
1000
0010
0000
0000
0000
1010
0000
0000
0100
0001
0000
0011
0000
,
1100
0010
0001
0010
0001
0010
0001
0010
0001
0010
0001
0010
0001
0010
1100
0010
,
0001
1000
0001
1000
0001
1000
0001
1000
0001
1000
0001
1000
0001
1000
0001
1000
,
0000
0000
0000
0000
,
1001
0100
0010
0011
0101
1010
1001
0101
,
0110
1010
1100
0101
1010
1100
0110
0011
,
1001
1000
1100
0100
0110
0000
0010
0001
,
0011
0001
1001
1000
1010
0010
0110
0100
,
0101
0001
1000
1100
0110
0011
0101
1001
,
1100
0110
0011
0101
1010
1100
1001
1010
,
0101
0001
1001
1000
1100
0000
0100
0010
,
1001
0000
0100
0000
0011
0000
0001
0000
1001
0010
0000
0100
0000
0010
0000
0000
,
0001
0010
0100
1000
0001
0010
0100
1000
0001
0010
0100
1000
0001
0010
0100
1000
,
0010
0100
0001
1000
0100
0010
0100
1000
0010
0100
0001
0010
0100
1000
0010
0100
,
0001
1000
0100
0001
0100
1000
0010
0100
0001
0010
0100
0010
0001
1000
0010
0100
,
0001
1000
0100
1000
0001
0100
0001
0010
0001
0100
0010
1000
0010
0100
0001
0010
,
0100
0010
0001
0100
0010
0100
0001
1000
0100
0010
0100
1000
0010
0100
0001
1000
,
0001
0100
0010
1000
0100
0010
0100
1000
0010
0100
0001
1000
0001
0100
0010
1000
,
0100
0010
0001
0010
0100
0010
0001
1000
0100
0010
0100
1000
0010
0100
0001
1000
,
0010
0100
0001
1000
0100
0010
0001
1000
0010
0100
0001
1000
0100
0010
0001
1000
,
0010
0100
0010
1001
0010
1000
0110
0001
,
1000
0100
1100
1010
0101
0011
1100
1010
,
1001
0001
0100
0101
0100
0010
0110
0010
,
1000
0100
1100
0100
1010
1100
1010
1001
,
1001
0001
0101
1010
0010
1000
1100
0100
,
0010
0001
0011
0001
1001
1000
1100
0110
,
1100
0110
0011
1001
1100
0110
0011
1001
,
1010
0101
0011
0110
1100
0100
0110
0000
,
0011
1100
0011
1100
0011
0000
0000
0000
1100
0011
1100
0011
1100
0000
0000
0000
,
1001
1100
1010
1100
,
1001
0000
0000
0000
0000
0000
0000
0000
0011
0100
1000
0100
1000
0100
1000
0100
,
0011
0011
1001
0101
0101
0011
0101
1001
,
1001
1100
1010
1100
0101
0011
1001
1100
,
0110
0011
0110
1100
1010
0101
1010
1100
,
0011
1001
0101
0011
1100
0110
0011
1001
,
1001
1100
0110
0011
0101
1010
1100
0011
,
1001
1000
1001
1000
1010
0000
1001
0000
,
0000
1001
1001
0101
0101
1010
1010
1100
,
1001
0000
0000
0000
1001
0000
0000
0000
1000
0100
0010
0001
0010
0100
1000
0000
,
1001
0000
1001
0000
1001
0000
0000
0000
1000
0010
0100
0010
1000
0100
0010
0000
,
0011
0000
0011
0000
0011
0000
0000
0000
0001
0010
0100
1000
0001
0010
0100
0000
,
1001
0000
1001
0000
1001
0000
0000
0000
1000
0010
0100
0000
0001
0010
0100
0000
,
1001
1000
1010
1100
1001
0101
0011
0101
,
1001
1000
1100
1000
1001
0101
0011
0001
,
0000
0000
1001
0000
1100
0000
0000
0000
1001
0000
0000
0011
0000
0000
1001
0000
,
0000
1100
1100
0000
0110
0000
0011
0000
,
0001
1000
0100
1000
0010
1000
0001
1000
0001
1000
0010
1000
0100
1000
0010
0100
,
0001
0010
0100
0010
0001
1000
0010
0100
0001
1000
0100
0010
0100
1000
0010
0100
,
0001
1000
0010
0100
0001
1000
0100
0010
0100
1000
0010
0100
0001
0010
0001
0010
,
0001
0100
0010
0100
0001
1000
0100
0010
0100
1000
0010
0100
0001
1000
0001
0100
,
0010
1000
0100
0010
0001
0010
0100
0010
0001
1000
0010
0100
0001
0010
0100
0010
,
0001
1000
0010
0100
0010
1000
0100
0010
0001
0010
0100
1000
0010
0100
0001
1000
,
0100
0010
0100
1000
0001
0100
0001
0010
0001
1000
0010
0100
0010
1000
0100
0010
,
0100
1000
0010
0100
0001
0010
0100
0010
0001
1000
0010
0100
0001
1000
0100
1000
,
0010
0100
0001
1000
0100
0010
0100
1000
0010
0100
0001
0010
0100
0010
0001
1000
,
0100
0010
0001
1000
0010
0100
0001
0010
0100
1000
0100
0010
0001
0010
0100
1000
,
0001
0000
0000
0000
;
