#TITLE:Fuzzys Stole My Shell;
#SUBTITLE:Paper Mario;
#ARTIST:Yuka Tujiyoko;
#TITLETRANSLIT:;
#SUBTITLETRANSLIT:;
#ARTISTTRANSLIT:;
#CREDIT:;
#BANNER:Fuzzys Stole My Shell.jpg;
#BACKGROUND:Fuzzys Stole My Shell-bg.jpg;
#LYRICSPATH:;
#CDTITLE:!-TANYA-CDTITLe.png;
#MUSIC:Fuzzys Stole My Shell.mp3;
#OFFSET:-3.440;
#SAMPLESTART:3.404;
#SAMPLELENGTH:12.000;
#SELECTABLE:YES;
#BPMS:0.000=171.900;
#STOPS:;
#BGCHANGES:;
// cache tags:
#FIRSTBEAT:0.000;
#LASTBEAT:211.000;
#SONGFILENAME:Songs/VGMP 2/Fuzzys Stole My Shell (TanYa)/Fuzzys Stole My Shell.sm;
#HASMUSIC:1;
#HASBANNER:1;
#MUSICLENGTH:81.037;
// end cache tags

//---------------dance-single - With 32nds----------------
#NOTES:
     dance-single:
     With 32nds:
     Challenge:
     11:
     1.000,1.000,1.000,0.284,1.000,580.000,152.000,23.000,0.000,0.000:





1000
0100
0010
0100
1000
0100
0010
0100
1000
0000
0110
0000
0110
0000
1000
0000
,
0100
0000
0010
0001
1000
0000
0100
0000
0102
0000
1000
0000
1003
0000
0000
0000
,
0010
0100
0010
0000
1000
0000
0010
0000
1000
0001
0100
0000
0001
0000
0100
0000
,
0110
0000
1000
0001
0010
0000
0100
1000
0010
0100
0001
0100
0010
0000
0000
0000
,
1001
0000
1000
0000
0110
0000
0001
0000
1010
0000
0100
0010
0101
0000
0010
0000
,
1010
0000
0110
0001
0010
0000
1010
0000
0101
0000
0110
0000
0110
0000
1010
0000
,
1001
0010
1000
0010
1000
0010
1000
0010
1000
0010
1000
0010
1000
0010
1000
0010
1000
0000
0000
0000
0000
0000
0000
0000
0110
0000
0000
0000
0000
0000
0000
0000
,
0101
1000
0010
0100
0001
1000
0010
0100
0001
1000
0010
0100
0001
1000
0010
0100
0001
0000
0000
0000
0000
0000
0000
0000
1010
0000
0000
0000
0000
0000
0000
0000
,
1001
0010
0100
0010
0100
0010
0100
0010
0100
0010
0100
0010
0100
0010
0100
0010
0100
0000
0000
0000
0000
0000
0000
0000
0101
0000
0000
0000
0000
0000
0000
0000
,
1010
0100
0001
0100
0001
0100
0001
0100
0001
0100
0001
0100
0001
0100
0001
0100
0001
0000
0000
0000
0000
0000
0000
0000
0110
0000
0000
0000
0000
0000
0000
0000
,
0010
1000
0010
0100
0001
0000
0001
0000
0010
0000
1000
0000
0010
0000
0100
0000
,
0011
0000
0110
0000
2200
3300
0000
0000
0011
0000
0110
0000
2200
3300
0000
0000
,
0001
0100
0010
0001
0010
0000
0100
0000
0010
0000
1000
0000
0100
0000
0010
0000
,
1100
0000
0110
0000
0022
0033
0000
0000
1100
0000
0110
0000
0022
0033
0100
0000
,
0110
1000
0010
0100
0001
0000
0000
0000
1001
0010
0100
1000
0100
0000
0000
0000
,
1010
0100
0001
0010
0100
0010
0001
0010
1000
0010
0100
0010
1000
0001
0010
0100
,
0110
0110
0000
0110
1000
0100
1000
0110
,
0110
1000
0100
1000
1001
0010
0200
0300
,
0101
0110
0101
0000
1010
0110
1010
0000
,
1001
0000
1000
0100
0010
0000
0100
0010
0001
0000
0000
0000
1001
0000
0000
0000
,
1010
1010
0010
0101
0101
0101
0010
0110
,
0110
0000
0110
0000
1000
0000
0011
0000
0100
0000
0011
0000
0200
0300
0000
0000
,
0010
1000
0100
0001
0100
0010
0100
1000
0010
0000
0110
0000
0110
0000
0001
0000
,
0010
0000
0100
1000
0001
0000
0010
0000
2010
0000
0001
0000
3001
0000
0000
0000
,
0100
0010
0100
0000
0001
0000
0100
0000
0001
1000
0010
0000
1000
0000
0010
0000
,
0110
0000
0001
1000
0100
0000
0010
0001
0100
0010
1000
0010
0100
0000
0000
0000
,
1001
0000
0001
0000
0110
0000
1000
0000
0101
0000
0010
0100
1010
0000
0100
0000
,
0101
0000
0110
1000
0100
0000
0101
0000
1010
0000
0110
0000
0110
0000
0101
0000
,
1001
0100
0001
0100
0001
0100
0001
0100
0001
0100
0001
0100
0001
0100
0001
0100
0001
0000
0000
0000
0000
0000
0000
0000
0110
0000
0000
0000
0000
0000
0000
0000
,
1010
0001
0100
0010
1000
0001
0100
0010
1000
0001
0100
0010
1000
0001
0100
0010
1000
0000
0000
0000
0000
0000
0000
0000
0101
0000
0000
0000
0000
0000
0000
0000
,
1001
0100
0010
0100
0010
0100
0010
0100
0010
0100
0010
0100
0010
0100
0010
0100
0010
0000
0000
0000
0000
0000
0000
0000
1010
0000
0000
0000
0000
0000
0000
0000
,
0101
0010
1000
0010
1000
0010
1000
0010
1000
0010
1000
0010
1000
0010
1000
0010
1000
0000
0000
0000
0000
0000
0000
0000
0110
0000
0000
0000
0000
0000
0000
0000
,
0100
0001
0100
0010
1000
0000
1000
0000
0100
0000
0001
0000
0100
0000
0010
0000
,
1010
0000
0110
0000
0202
0303
0000
0000
1010
0000
0110
0000
0202
0303
0000
0000
,
1000
0010
0100
1000
0100
0000
0010
0000
0100
0000
0001
0000
0010
0000
0100
0000
,
0110
0000
1001
0000
0220
0330
0000
0000
1001
0000
0110
0000
2002
3003
0010
0000
,
0110
0001
0100
0010
1000
0000
0000
0000
1001
0100
0010
0001
0010
0000
0000
0000
,
0101
0010
1000
0100
0010
0100
1000
0100
0001
0100
0010
0100
0001
1000
0100
0010
,
0110
0110
0000
0110
0001
0010
0001
0110
,
0110
0001
0010
0001
1001
0100
0020
0030
,
1010
0110
1010
0000
0101
0110
0101
0000
,
1001
0000
0001
0010
0100
0000
0010
0100
1000
0000
0000
0000
1001
0000
0000
0000
,
0101
0101
0100
1010
1010
1010
0100
0110
,
0110
0000
0110
0000
0001
0000
1100
0000
0010
0000
1100
0000
0020
0030
0000
0000
,
0100
0010
1000
0010
0100
0001
0010
1000
0100
0000
0010
0000
0001
0000
0100
0000
,
1010
0000
0100
0010
0001
0000
0110
0000
2010
0000
0001
0000
3010
0000
0000
0000
,
0001
0100
0010
0000
1100
0000
0110
0000
0010
0100
0010
0000
0101
0000
1010
0000
,
1001
0000
0010
0100
0011
0000
1000
0100
0010
0100
1000
0100
0010
0001
0000
0000
,
1010
0000
0110
0000
0011
0000
0110
0000
1010
0000
0100
0010
0101
0000
0101
0000
,
1010
0000
0100
0010
0001
0000
1010
0000
1010
0000
0101
0000
0011
0000
0110
0000
,
1001
0010
1000
0010
1000
0010
1000
0010
1000
0010
1000
0010
1000
0010
1000
0010
1000
0000
0000
0000
0000
0000
0000
0000
1010
0000
0000
0000
0000
0000
0000
0000
,
0101
0010
0001
0010
0001
0010
0001
0010
0001
0010
0001
0010
0001
0010
0001
0010
0001
0000
0000
0000
0000
0000
0000
0000
0110
0000
0000
0000
0000
0000
0000
0000
,
0011
0100
1000
0010
0001
0100
1000
0010
0001
0100
1000
0010
0001
0100
1000
0010
0001
0000
0000
0000
0000
0000
0000
0000
1010
0000
0000
0000
0000
0000
0000
0000
;

//---------------dance-single - ----------------
#NOTES:
     dance-single:
     :
     Medium:
     9:
     0.881,0.879,0.728,0.457,0.469,404.000,59.000,37.000,0.000,0.000:





1000
0100
0010
0100
1000
0100
0010
0100
1000
0000
0010
0000
0010
0000
1000
0000
,
0100
0000
0010
0001
1000
0000
0100
0000
0002
0000
1000
0000
1003
0000
0000
0000
,
0010
0100
0010
0000
1000
0000
0010
0000
1000
0001
0100
0000
0001
0000
0100
0000
,
0110
0000
1000
0001
0010
0000
0100
1000
0010
0100
0001
0100
0010
0000
0000
0000
,
1001
0000
1000
0000
0110
0000
0001
0000
1010
0000
0100
0010
0001
0000
0010
0000
,
1010
0000
0010
0001
0010
0000
0100
0000
0101
0000
0010
0000
0110
0000
1000
0000
,
2002
0000
3003
0110
,
0202
0000
0303
1010
,
2020
0000
3030
0101
,
0220
0000
0330
0110
,
0010
1000
0010
0100
0001
0000
0001
0000
0010
0000
1000
0000
0010
0000
0100
0000
,
0010
0000
0100
0000
2000
3000
0000
0000
0010
0000
0100
0000
2000
3000
0000
0000
,
0001
0100
0010
0001
0010
0000
0100
0000
0010
0000
1000
0000
0100
0000
0010
0000
,
1000
0000
0100
0000
0020
0030
0000
0000
1000
0000
0100
0000
0020
0030
0100
0000
,
0100
1000
0010
0100
0001
0000
0000
0000
1000
0010
0100
1000
0100
0000
0000
0000
,
0010
0100
0001
0010
0100
0010
0001
0010
1000
0010
0100
0010
1000
0001
0010
0100
,
0010
0010
0000
0110
1000
0100
1000
0110
,
0110
1000
0100
1000
1001
0010
0200
0300
,
0101
0010
0101
0000
1010
0100
1010
0000
,
1001
0000
1000
0100
0010
0000
0100
0010
0001
0000
0000
0000
1001
0000
0000
0000
,
1000
1000
0010
0001
0001
0001
0010
0100
,
0100
0000
0100
0000
1000
0000
0001
0000
0100
0000
0001
0000
0200
0300
0000
0000
,
0010
1000
0100
0001
0100
0010
0100
1000
0010
0000
0100
0000
0100
0000
0001
0000
,
0010
0000
0100
1000
0001
0000
0010
0000
2000
0000
0001
0000
3001
0000
0000
0000
,
0100
0010
0100
0000
0001
0000
0100
0000
0001
1000
0010
0000
1000
0000
0010
0000
,
0110
0000
0001
1000
0100
0000
0010
0001
0100
0010
1000
0010
0100
0000
0000
0000
,
1001
0000
0001
0000
0110
0000
1000
0000
0101
0000
0010
0100
1000
0000
0100
0000
,
0101
0000
0100
1000
0100
0000
0100
0000
1010
0000
0100
0000
0110
0000
0010
0000
,
2002
0000
3003
0110
,
2020
0000
3030
0101
,
2200
0000
3300
1010
,
0202
0000
0303
0110
,
0100
0001
0100
0010
1000
0000
1000
0000
0100
0000
0001
0000
0100
0000
0010
0000
,
1000
0000
0100
0000
0002
0003
0000
0000
1000
0000
0010
0000
0200
0300
0000
0000
,
1000
0010
0100
1000
0100
0000
0010
0000
0100
0000
0001
0000
0010
0000
0100
0000
,
0100
0000
1000
0000
0020
0030
0000
0000
1000
0000
0100
0000
2000
3000
0010
0000
,
0100
0001
0100
0010
1000
0000
0000
0000
0001
0100
0010
0001
0010
0000
0000
0000
,
0100
0010
1000
0100
0010
0100
1000
0100
0001
0100
0010
0100
0001
1000
0100
0010
,
0100
0100
0000
0100
0001
0010
0001
0100
,
0100
0001
0010
0001
1000
0100
0020
0030
,
1010
0100
1010
0000
0101
0010
0101
0000
,
1001
0000
0001
0010
0100
0000
0010
0100
1000
0000
0000
0000
1001
0000
0000
0000
,
0001
0001
0100
1000
1000
1000
0100
0010
,
0010
0000
0010
0000
0001
0000
1000
0000
0010
0000
1000
0000
0020
0030
0000
0000
,
0100
0010
1000
0010
0100
0001
0010
1000
0100
0000
0010
0000
0001
0000
0100
0000
,
1010
0000
0100
0010
0001
0000
0100
0000
2000
0000
0001
0000
3010
0000
0000
0000
,
0001
0100
0010
0000
1000
0000
0100
0000
0010
0100
0010
0000
0100
0000
0010
0000
,
1000
0000
0010
0100
0001
0000
1000
0100
0010
0100
1000
0100
0010
0001
0000
0000
,
1010
0000
0100
0000
0011
0000
0100
0000
1010
0000
0100
0010
0001
0000
0100
0000
,
1010
0000
0100
0010
0001
0000
0010
0000
1010
0000
0100
0000
0011
0000
0010
0000
,
2002
0000
3003
1010
,
0202
0000
0303
0110
,
0022
0000
0033
1010
;

//---------------dance-single - Without 32nds----------------
#NOTES:
     dance-single:
     Without 32nds:
     Hard:
     10:
     1.000,1.000,1.000,0.555,0.469,414.000,151.000,45.000,0.000,0.000:

1000
0100
0010
0100
1000
0100
0010
0100
1000
0000
0110
0000
0110
0000
1000
0000
,
0100
0000
0010
0001
1000
0000
0100
0000
0102
0000
1000
0000
1003
0000
0000
0000
,
0010
0100
0010
0000
1000
0000
0010
0000
1000
0001
0100
0000
0001
0000
0100
0000
,
0110
0000
1000
0001
0010
0000
0100
1000
0010
0100
0001
0100
0010
0000
0000
0000
,
1001
0000
1000
0000
0110
0000
0001
0000
1010
0000
0100
0010
0101
0000
0010
0000
,
1010
0000
0110
0001
0010
0000
1010
0000
0101
0000
0110
0000
0110
0000
1010
0000
,
2002
0000
0000
0000
0000
0000
0000
0000
0000
0000
0000
0000
0000
0000
0000
0000
0000
0000
0000
0000
0000
0000
0000
0000
0000
0000
0000
0000
0000
0000
0000
0003
3010
0000
0000
0000
0000
0000
0000
0000
0000
0000
0000
0000
0000
0000
0000
0000
0110
0000
0000
0000
0000
0000
0000
0000
0000
0000
0000
0000
0000
0000
0000
0000
,
0202
0000
0000
0000
0000
0000
0000
0000
0000
0000
0000
0000
0000
0000
0000
0000
0000
0000
0000
0000
0000
0000
0000
0000
0000
0000
0000
0000
0000
0000
0000
0300
0013
0000
0000
0000
0000
0000
0000
0000
0000
0000
0000
0000
0000
0000
0000
0000
1010
0000
0000
0000
0000
0000
0000
0000
0000
0000
0000
0000
0000
0000
0000
0000
,
2002
0000
0000
0000
0000
0000
0000
0000
0000
0000
0000
0000
0000
0000
0000
0000
0000
0000
0000
0000
0000
0000
0000
0000
0000
0000
0000
0000
0000
0000
0000
0003
3100
0000
0000
0000
0000
0000
0000
0000
0000
0000
0000
0000
0000
0000
0000
0000
0000
0000
0000
0000
0000
0000
0000
0000
0000
0000
0000
0000
0000
0000
0000
0000
,
2020
0000
0000
0000
0000
0000
0000
0000
0000
0000
0000
0000
0000
0000
0000
0000
0000
0000
0000
0000
0000
0000
0000
0000
0000
0000
0000
0000
0000
0000
0000
0030
3100
0000
0000
0000
0000
0000
0000
0000
0000
0000
0000
0000
0000
0000
0000
0000
0110
0000
0000
0000
0000
0000
0000
0000
0000
0000
0000
0000
0000
0000
0000
0000
,
0010
1000
0010
0100
0001
0000
0001
0000
0010
0000
1000
0000
0010
0000
0100
0000
,
0011
0000
0110
0000
2200
3300
0000
0000
0011
0000
0110
0000
2200
3300
0000
0000
,
0001
0100
0010
0001
0010
0000
0100
0000
0010
0000
1000
0000
0100
0000
0010
0000
,
1100
0000
0110
0000
0022
0033
0000
0000
1100
0000
0110
0000
0022
0033
0100
0000
,
0110
1000
0010
0100
0001
0000
0000
0000
1001
0010
0100
1000
0100
0000
0000
0000
,
1010
0100
0001
0010
0100
0010
0001
0010
1000
0010
0100
0010
1000
0001
0010
0100
,
0110
0110
0000
0110
1000
0100
1000
0110
,
0110
1000
0100
1000
1001
0010
0200
0300
,
0101
0110
0101
0000
1010
0110
1010
0000
,
1001
0000
1000
0100
0010
0000
0100
0010
0001
0000
0000
0000
1001
0000
0000
0000
,
1010
1010
0010
0101
0101
0101
0010
0110
,
0110
0000
0110
0000
1000
0000
0011
0000
0100
0000
0011
0000
0200
0300
0000
0000
,
0010
1000
0100
0001
0100
0010
0100
1000
0010
0000
0110
0000
0110
0000
0001
0000
,
0010
0000
0100
1000
0001
0000
0010
0000
2010
0000
0001
0000
3001
0000
0000
0000
,
0100
0010
0100
0000
0001
0000
0100
0000
0001
1000
0010
0000
1000
0000
0010
0000
,
0110
0000
0001
1000
0100
0000
0010
0001
0100
0010
1000
0010
0100
0000
0000
0000
,
1001
0000
0001
0000
0110
0000
1000
0000
0101
0000
0010
0100
1010
0000
0100
0000
,
0101
0000
0110
1000
0100
0000
0101
0000
1010
0000
0110
0000
0110
0000
0101
0000
,
2002
0000
0000
0000
0000
0000
0000
0000
0000
0000
0000
0000
0000
0000
0000
0000
0000
0000
0000
0000
0000
0000
0000
0000
0000
0000
0000
0000
0000
0000
0000
0003
3100
0000
0000
0000
0000
0000
0000
0000
0000
0000
0000
0000
0000
0000
0000
0000
0110
0000
0000
0000
0000
0000
0000
0000
0000
0000
0000
0000
0000
0000
0000
0000
,
2020
0000
0000
0000
0000
0000
0000
0000
0000
0000
0000
0000
0000
0000
0000
0000
0000
0000
0000
0000
0000
0000
0000
0000
0000
0000
0000
0000
0000
0000
0000
0030
3100
0000
0000
0000
0000
0000
0000
0000
0000
0000
0000
0000
0000
0000
0000
0000
0101
0000
0000
0000
0000
0000
0000
0000
0000
0000
0000
0000
0000
0000
0000
0000
,
0022
0000
0000
0000
0000
0000
0000
0000
0000
0000
0000
0000
0000
0000
0000
0000
0000
0000
0000
0000
0000
0000
0000
0000
0000
0000
0000
0000
0000
0000
0000
0003
0130
0000
0000
0000
0000
0000
0000
0000
0000
0000
0000
0000
0000
0000
0000
0000
1010
0000
0000
0000
0000
0000
0000
0000
0000
0000
0000
0000
0000
0000
0000
0000
,
0202
0000
0000
0000
0000
0000
0000
0000
0000
0000
0000
0000
0000
0000
0000
0000
0000
0000
0000
0000
0000
0000
0000
0000
0000
0000
0000
0000
0000
0000
0000
0003
1300
0000
0000
0000
0000
0000
0000
0000
0000
0000
0000
0000
0000
0000
0000
0000
0110
0000
0000
0000
0000
0000
0000
0000
0000
0000
0000
0000
0000
0000
0000
0000
,
0100
0001
0100
0010
1000
0000
1000
0000
0100
0000
0001
0000
0100
0000
0010
0000
,
1010
0000
0110
0000
0202
0303
0000
0000
1010
0000
0110
0000
0202
0303
0000
0000
,
1000
0010
0100
1000
0100
0000
0010
0000
0100
0000
0001
0000
0010
0000
0100
0000
,
0110
0000
1001
0000
0220
0330
0000
0000
1001
0000
0110
0000
2002
3003
0010
0000
,
0110
0001
0100
0010
1000
0000
0000
0000
1001
0100
0010
0001
0010
0000
0000
0000
,
0101
0010
1000
0100
0010
0100
1000
0100
0001
0100
0010
0100
0001
1000
0100
0010
,
0110
0110
0000
0110
0001
0010
0001
0110
,
0110
0001
0010
0001
1001
0100
0020
0030
,
1010
0110
1010
0000
0101
0110
0101
0000
,
1001
0000
0001
0010
0100
0000
0010
0100
1000
0000
0000
0000
1001
0000
0000
0000
,
0101
0101
0100
1010
1010
1010
0100
0110
,
0110
0000
0110
0000
0001
0000
1100
0000
0010
0000
1100
0000
0020
0030
0000
0000
,
0100
0010
1000
0010
0100
0001
0010
1000
0100
0000
0010
0000
0001
0000
0100
0000
,
1010
0000
0100
0010
0001
0000
0110
0000
2010
0000
0001
0000
3010
0000
0000
0000
,
0001
0100
0010
0000
1100
0000
0110
0000
0010
0100
0010
0000
0101
0000
1010
0000
,
1001
0000
0010
0100
0011
0000
1000
0100
0010
0100
1000
0100
0010
0001
0000
0000
,
1010
0000
0110
0000
0011
0000
0110
0000
1010
0000
0100
0010
0101
0000
0101
0000
,
1010
0000
0100
0010
0001
0000
1010
0000
1010
0000
0101
0000
0011
0000
0110
0000
,
2020
0000
0000
0000
0000
0000
0000
0000
0000
0000
0000
0000
0000
0000
0000
0000
0000
0000
0000
0000
0000
0000
0000
0000
0000
0000
0000
0000
0000
0000
0000
0030
3001
0000
0000
0000
0000
0000
0000
0000
0000
0000
0000
0000
0000
0000
0000
0000
1010
0000
0000
0000
0000
0000
0000
0000
0000
0000
0000
0000
0000
0000
0000
0000
,
0202
0000
0000
0000
0000
0000
0000
0000
0000
0000
0000
0000
0000
0000
0000
0000
0000
0000
0000
0000
0000
0000
0000
0000
0000
0000
0000
0000
0000
0000
0000
0003
0310
0000
0000
0000
0000
0000
0000
0000
0000
0000
0000
0000
0000
0000
0000
0000
0110
0000
0000
0000
0000
0000
0000
0000
0000
0000
0000
0000
0000
0000
0000
0000
,
2200
0000
0000
0000
0000
0000
0000
0000
0000
0000
0000
0000
0000
0000
0000
0000
0000
0000
0000
0000
0000
0000
0000
0000
0000
0000
0000
0000
0000
0000
0000
0300
3010
0000
0000
0000
0000
0000
0000
0000
0000
0000
0000
0000
0000
0000
0000
0000
1010
0000
0000
0000
0000
0000
0000
0000
0000
0000
0000
0000
0000
0000
0000
0000
;
