#TITLE:8-Bit Assassin;
#SUBTITLE:Feels The Arrow;
#ARTIST:Peckerhead;
#TITLETRANSLIT:;
#SUBTITLETRANSLIT:;
#ARTISTTRANSLIT:;
#CREDIT:Ov3rHell3XoduZ;
#BANNER:../bn.png;
#BACKGROUND:../bg.png;
#LYRICSPATH:;
#CDTITLE:;
#MUSIC:8-Bit Assassin.ogg;
#OFFSET:-0.017;
#SAMPLESTART:43.998;
#SAMPLELENGTH:12.000;
#SELECTABLE:YES;
#BPMS:0.000=190.000;
#STOPS:;
#BGCHANGES:;
// cache tags:
#FIRSTBEAT:0.000;
#LASTBEAT:384.000;
#SONGFILENAME:Songs/EXoduz' Feels The Arrow/8-Bit Assassin - [Ov3rHell3XoduZ]/8-Bit Assassin.sm;
#HASMUSIC:1;
#HASBANNER:1;
#MUSICLENGTH:121.418;
// end cache tags

//---------------dance-single - Ov3rHell3XoduZ----------------
#NOTES:
     dance-single:
     Ov3rHell3XoduZ:
     Challenge:
     14:
     1.000,1.000,0.016,0.642,1.000,1380.000,2.000,78.000,0.000,0.000:

1000
0100
0010
0001
1000
0010
0100
0001
1000
0100
1000
0010
0100
0001
0010
0001
,
1000
0100
0010
0001
1000
0010
1000
0100
0010
0001
0100
0001
0100
0010
1000
0100
,
0010
0001
1000
0010
0100
0001
0100
0001
0010
0100
1000
0010
0100
0001
0010
0001
,
0010
0100
1000
0001
0100
0001
1000
0100
1000
0100
0010
0001
1000
0010
0100
0001
,
1000
0100
1000
0010
0100
0001
1000
0100
1000
0010
0100
0001
0010
0001
0010
0100
,
1000
0010
0100
0001
1000
0100
1000
0010
0100
0001
0010
0001
0010
0100
1000
0010
,
0100
0001
1000
0100
1000
0100
0010
0001
1000
0010
0100
0001
1000
0001
0010
0001
,
0010
0100
1000
0010
0100
0001
1000
0100
1000
0100
0010
0001
1000
0010
0100
0001
,
1000
0100
1000
0010
0100
0010
1000
0100
0010
0001
0100
0001
0100
0010
1000
0100
,
0010
0001
0010
0001
1000
0010
0100
0001
1000
0001
0010
0100
0010
0001
1000
0001
,
0100
0001
1000
0100
1000
0010
0100
0001
0010
0100
0010
0001
0100
0010
0100
0010
,
1000
0100
0010
0100
1000
0001
0100
0001
0100
0010
1000
0100
1000
0001
0010
0100
,
0010
0001
1000
0010
0100
0001
1000
0100
1000
0010
0100
0010
1000
0100
0010
0001
,
0100
0001
0100
0010
1000
0100
0010
0100
1000
0010
0100
0001
1000
0001
0010
0001
,
1000
0100
0010
0001
1000
0010
1000
0100
0010
0001
0100
0001
0100
0010
1000
0100
,
0010
0100
1000
0010
0100
0001
1000
0100
1000
0010
1000
0100
0010
0001
1000
0100
,
1000
0001
0100
0001
1000
0010
0100
0001
0010
0100
1000
0010
1000
0100
0010
0001
,
0100
0010
1000
0100
1000
0010
0100
0001
0010
0100
1000
0001
0100
0001
1000
0010
,
1000
0100
0010
0001
1000
0001
1000
0010
0100
0001
0010
0100
1000
0001
1000
0001
,
0010
0100
1000
0001
0100
0001
0010
0100
1000
0010
0100
0010
1000
0100
0010
0001
,
0100
0001
0010
0100
1000
0010
0100
0001
1000
0100
1000
0010
0100
0001
0010
0001
,
0010
0100
1000
0010
0100
0001
1000
0100
1000
0100
0010
0001
0010
0001
1000
0010
,
0100
0001
0010
0100
1000
0010
1000
0100
0010
0001
0100
0001
0100
0010
1000
0100
,
0010
0001
1000
0001
0010
0001
0010
0100
1000
0010
0100
0001
1000
0100
1000
0001
,
1000
0100
0010
0001
1000
0010
1000
0010
0100
0001
1000
0100
1000
0010
0100
0010
,
1000
0100
0010
0001
0100
0001
0100
0010
1000
0100
0010
0100
1000
0010
0100
0001
,
1000
0100
1000
0010
0100
0001
0010
0001
0010
0100
1000
0010
0100
0001
1000
0100
,
1000
0010
0100
0001
0010
0001
0010
0100
1000
0001
0100
0001
1000
0100
0010
0100
,
1000
0010
0100
0001
0010
0001
0010
0100
1000
0010
0100
0001
1000
0100
1000
0010
,
0100
0001
1000
0100
1000
0100
0010
0001
1000
0010
0100
0001
1000
0001
0010
0001
,
0010
0100
1000
0010
0100
0001
1000
0100
1000
0010
0100
0001
1000
0001
1000
0100
,
1000
0010
0100
0001
1000
0001
1000
0100
0010
0001
0100
0001
0100
0010
1000
0100
,
0010
0001
1000
0010
0100
0010
1000
0100
0010
0001
0100
0001
0010
0100
1000
0001
,
1000
0001
0100
0001
0010
0100
1000
0010
1000
0100
1000
0100
0010
0100
1000
0010
,
0100
0001
1000
0001
0010
0001
1000
0010
0100
0001
1000
0100
1000
0001
0100
0001
,
1000
0100
0010
0100
1000
0010
0100
0001
0010
0001
0010
0100
1000
0010
0100
0001
,
1000
0100
1000
0010
0100
0001
0010
0001
1000
0100
0010
0001
1000
0010
1000
0010
,
0100
0001
1000
0100
1000
0010
0100
0001
0010
0100
0010
0001
1000
0010
0100
0010
,
1000
0100
0010
0001
0100
0001
0100
0010
1000
0100
0010
0100
1000
0010
0100
0001
,
1000
0001
0010
0001
1000
0100
0010
0100
1000
0010
1000
0010
0100
0001
1000
0001
,
2000
0000
3200
0000
0000
0320
0000
0032
,
0000
0000
2003
3200
0320
0032
0000
2003
,
0000
0000
0000
0000
3020
0000
0230
0302
,
2003
3002
0023
0000
0000
0000
0000
0000
,
0230
0000
2300
0000
0000
3002
0000
0203
,
0000
0000
0320
2030
3200
0320
0032
0023
,
0000
0000
0000
0000
0230
0000
2300
3040
,
0000
0000
0000
0000
,
0230
0000
0000
0000
0302
0000
0000
0000
0000
0000
0023
0230
2300
0000
3020
0000
,
0230
0000
0000
0000
0302
0000
0000
0000
0000
0000
0203
0302
2003
0000
3200
0000
,
0320
0000
0032
0023
0032
0000
0000
0000
0000
0000
0023
0230
0320
0000
0230
0000
,
4300
0000
0000
0000
,
3001
0100
0010
0100
0001
1000
0100
0010
0001
0100
0010
1000
0001
0010
0100
1000
,
0001
1000
0010
0100
0001
0010
0100
1000
0010
0100
0001
1000
0100
0010
0001
1000
,
0002
0000
0023
0000
0000
0000
0130
1000
0001
0010
0100
1000
0100
1000
0010
0100
,
0001
1000
0100
1000
0010
0100
0001
0010
0100
1000
0001
0100
0001
1000
0100
0010
,
0002
1003
0100
1000
0010
0100
0001
0010
0001
1000
0010
0100
0001
1000
0100
1000
,
0100
0010
0001
1000
0010
0100
0001
1000
0100
1000
0010
0100
0001
0010
0001
1000
,
0010
0100
0001
1000
0100
0010
0100
1000
0001
0100
0001
0010
0100
1000
0010
0100
,
0010
1000
0100
0010
0001
1000
0100
1000
0100
0010
0001
1000
0010
0100
0001
1000
,
0001
0010
0001
0010
0100
1000
0010
0100
0001
1000
0100
1000
0010
0100
0010
1000
,
0100
0010
0100
1000
0010
0100
0001
0010
0100
0010
0001
0100
0010
0100
0001
0010
,
0100
1000
0010
0100
0001
1000
0100
1000
0010
0100
0001
0010
0001
0010
0100
1000
,
0002
0000
0000
0000
0000
0000
0000
0000
0203
0320
2030
3200
0320
0032
2003
3002
,
1003
0100
0010
0001
1000
0001
0010
0001
0010
0100
1000
0010
0100
0001
1000
0100
,
1000
0100
0010
0001
1000
0010
0100
0001
1000
0001
1000
0010
0100
0001
0010
0001
,
0010
0100
1000
0010
0100
0001
1000
0100
1000
0010
0100
0001
0010
0001
0010
0100
,
1000
0001
0100
0001
1000
0010
0100
0001
0010
0100
1000
0010
0100
0001
1000
0001
,
1000
0010
0100
0001
0010
0001
0010
0100
1000
0010
0100
0001
1000
0100
1000
0100
,
0010
0001
1000
0010
0100
0001
1000
0001
1000
0010
0100
0001
0010
0100
1000
0010
,
0100
0001
1000
0100
1000
0010
0100
0010
1000
0100
0010
0001
1000
0001
0100
0001
,
2000
3200
0320
0230
2300
3200
0320
0230
2300
3200
0320
0230
2300
3200
0320
0230
,
1300
0010
0100
0001
0010
0100
1000
0010
0100
0001
1000
0100
0010
0001
1000
0010
,
0100
0001
0010
0100
1000
0010
0100
0001
1000
0100
0010
0001
1000
0010
0100
0001
,
1000
0100
0010
0100
1000
0010
0100
0001
0010
0100
1000
0010
0100
0001
1000
0100
,
0010
0001
1000
0010
0100
0001
1000
0010
0100
0001
0010
0100
1000
0010
0100
0001
,
1000
0100
0010
0100
1000
0010
0100
0001
0010
0100
1000
0010
0100
0001
1000
0100
,
0010
0001
1000
0010
0100
0001
0010
0100
0010
0001
1000
0010
0100
0001
1000
0100
,
0010
0001
1000
0010
0100
0001
1000
0010
0100
0001
1000
0100
0010
0001
1000
0010
,
0100
0001
0010
0100
1000
0010
0100
0001
1000
0001
0100
0001
0010
0100
1000
0010
,
0200
0301
0100
0001
0010
0100
1000
0010
0100
0001
1000
0001
1000
0100
0010
0001
,
0010
0001
1000
0010
0100
0001
1000
0100
1000
0100
0010
0001
1000
0010
0100
0001
,
1000
0100
1000
0100
0010
0001
1000
0010
0100
0001
1000
0100
0010
0001
0010
0001
,
1000
0010
0100
0001
1000
0001
0010
0001
1000
0010
0100
0001
1000
0100
1000
0100
,
0010
0001
1000
0010
0100
0001
1000
0100
0010
0100
1000
0010
0100
0001
0010
0001
,
1000
0010
1000
0010
0100
0001
1000
0100
1000
0010
0100
0001
0010
0001
0010
0100
,
1000
0010
0100
0001
1000
0100
1000
0010
0100
0001
0010
0001
0010
0100
1000
0010
,
0100
0001
1000
0001
1000
0010
0100
0001
1000
0001
1000
0010
0100
0001
1000
0100
,
0020
0031
1000
0001
0100
0001
0010
0100
1000
0010
0100
0001
1000
0100
1000
0010
,
0100
0001
0010
0001
1000
0010
0100
0001
1000
0100
1000
0010
0100
0001
0010
0001
,
1000
0010
0100
0001
0100
0010
1000
0100
0010
0100
1000
0010
0100
0001
1000
0100
,
1000
0010
0100
0001
0010
0001
1000
0010
0100
0001
1000
0100
1000
0010
0100
0001
,
0010
0001
1000
0100
0010
0001
1000
0010
0100
0001
1000
0100
1000
0010
0100
0001
,
0010
0001
1000
0010
0100
0001
0010
0001
1000
0010
0100
0001
0010
0001
1000
0010
,
0100
0001
1000
0100
1000
0010
0100
0001
1000
0100
1000
0010
0100
0001
1000
0100
,
1000
0010
0100
0001
1000
0100
1000
0010
0100
0001
0010
0100
1000
0001
0100
0002
,
0003
0000
0000
0000
;
