#TITLE:Spit On You;
#SUBTITLE:;
#ARTIST:Angerfist;
#TITLETRANSLIT:;
#SUBTITLETRANSLIT:;
#ARTISTTRANSLIT:;
#CREDIT:;
#BANNER:../Jawn - ban.png;
#BACKGROUND:../Jawn - bg.png;
#LYRICSPATH:;
#CDTITLE:;
#MUSIC:spit.ogg;
#OFFSET:0.009;
#SAMPLESTART:68.550;
#SAMPLELENGTH:12.000;
#SELECTABLE:YES;
#DISPLAYBPM:230.000;
#BPMS:0.000=230.000;
#STOPS:;
#BGCHANGES:;
// cache tags:
#FIRSTBEAT:28.000;
#LASTBEAT:356.000;
#SONGFILENAME:Songs/Jimmy Jawns/Spit On You - [Aoreo]/spit.sm;
#HASMUSIC:1;
#HASBANNER:1;
#MUSICLENGTH:105.000;
// end cache tags

//---------------dance-single - J. Nero (warmup)----------------
#NOTES:
     dance-single:
     J. Nero (warmup):
     Challenge:
     15:
     0.993,1.000,0.248,0.143,1.000,676.000,26.000,15.000,0.000,7.000:
0000
0000
0000
0000
,
0000
0000
0000
0000
,
0000
0000
0000
0000
,
0000
0000
0000
0000
,
0000
0000
0000
0000
,
0000
0000
0000
0000
,
0000
0000
0000
0000
,
1000
0001
0000
0000
0100
0000
0000
0000
,
0101
0001
0010
0100
0000
1000
0010
0100
,
0101
0001
0010
0100
0000
1000
0010
0100
,
0101
0001
0010
0100
0000
0010
0001
0100
,
0010
0000
0100
0000
0010
1000
0001
1000
,
0001
0100
0001
1000
0010
0100
0010
1000
0001
1000
0100
0010
0001
1000
0001
0100
,
0001
0000
0000
0000
1000
0000
0000
0000
0100
0000
0000
0000
0010
0000
0000
0000
0001
0000
0000
0000
1000
0000
0000
0000
0001
0000
0000
0000
0100
0000
0000
0000
0010
0000
0000
0000
0100
0000
0000
0000
0001
0000
0000
0000
1000
0000
0000
0000
0400
0000
0300
0000
0040
0000
0030
0000
0004
0000
0003
0000
0400
0300
0000
0000
,
0001
1000
0100
0010
0001
1000
0001
0100
0010
0100
0001
1000
0010
0100
0010
1000
,
0001
0010
0100
1000
0001
0100
0001
1000
0001
0000
1000
0000
0100
0000
0010
0001
,
1000
0001
0100
0010
0100
0001
1000
0100
1000
0001
1000
0010
0100
0010
1000
0001
,
0100
0001
1000
0100
0010
0001
1000
0010
0100
0010
1000
0001
0010
0100
1000
0010
,
0100
0010
1000
0001
0100
0001
1000
0100
0010
0001
1000
0001
0100
0010
0100
0001
,
1000
0000
0001
0000
0100
0000
0001
0000
0000
0000
0010
0000
0200
0000
2300
3000
,
0001
0100
0001
1000
0010
0100
0010
1000
0100
0010
0001
1000
0001
0100
0010
0100
,
0001
1000
0001
0010
0100
1000
0001
0100
0010
1000
0001
0010
0100
0010
0001
0100
,
0010
0100
0001
1000
0001
0100
0010
1000
0010
0100
0001
1000
0001
0010
0100
1000
,
0001
0000
0100
0000
0010
0000
0100
0000
0001
0000
1000
0000
0001
0000
0100
0000
0001
0000
0000
0000
1000
0000
0000
0000
0200
0000
0300
0000
0020
0000
0000
0030
,
0001
1000
0001
0100
0010
0100
0001
1000
0001
0010
0100
1000
0001
0100
0001
1000
,
0010
0100
0010
1000
0001
0100
0001
1000
0100
0010
0100
1000
0001
0100
0001
0100
,
0010
1000
0001
0100
0010
0100
0001
1000
0001
0010
0100
1000
0001
0100
0010
1000
,
0001
0000
1000
0000
0001
0010
0100
0010
,
0100
0000
1000
0000
1001
0000
0000
0001
,
0000
0100
0010
0000
1010
0000
0000
0000
,
1000
0000
0100
0000
0110
0000
0000
0010
,
0000
0001
1000
0000
1001
0000
0000
0000
,
0001
0000
0100
0000
1010
0000
0000
0010
,
0000
1000
0100
0000
1100
0000
0000
0000
,
1000
0000
0100
0000
0110
0000
0000
0010
,
0000
0001
1000
0000
1001
0000
0000
0000
,
0001
0000
0100
0000
0101
0000
0000
0001
,
0000
1000
0010
0000
0110
0000
0000
0000
,
0100
0000
0001
0000
1001
0000
0000
1000
,
0000
0100
0010
0000
0011
0000
0000
0000
,
0001
1000
0000
1000
0000
1000
0000
0001
,
0100
0010
0000
1000
0100
0000
1000
0000
,
1001
0101
0100
0001
,
0010
0100
1000
0001
,
1101
0000
0111
0000
,
1110
0000
0100
0000
0111
0000
0002
0003
,
1001
0000
1100
0000
0100
1000
0010
0100
,
0001
0010
0100
1000
0010
0100
0001
0001
,
1000
0000
1101
0000
,
0111
0000
0010
0000
1101
0000
0002
0003
,
0020
0030
0200
0300
4000
0000
0000
0000
,
0000
0000
0000
0000
0000
3000
0001
0010
,
0100
0010
0001
0100
0010
1000
0100
0010
,
0100
1000
0010
0000
1000
0100
0010
0100
,
1000
0010
0100
0001
0010
0100
0010
0001
,
1000
0010
0100
0001
0010
0100
2000
0000
,
3010
0100
0001
0010
0100
1000
0010
0100
,
0010
1000
0100
0010
0001
1000
0100
1000
,
0001
0100
0010
0100
0000
0001
0010
0100
,
1000
0002
0000
0000
0000
0000
0000
0000
,
1003
0000
0000
0000
,
0000
0000
0000
0000
,
0002
0003
0000
0000
0000
0000
0000
0000
,
1000
0000
1000
0000
0010
0100
0010
0100
,
0001
1000
0100
0010
0000
0100
1000
0010
,
0400
0300
0010
1000
,
0001
0100
0001
1000
0100
0010
0001
1000
0001
0100
0010
0100
0001
1000
0001
0010
,
0100
1000
0001
0100
0001
1000
0010
0100
0010
1000
0001
1000
0001
0100
0010
1000
,
0100
0010
0001
1000
0010
1000
0001
0100
0010
0100
0001
1000
0010
1000
0001
0100
,
0001
1000
0100
1000
0001
0010
0100
1000
0001
0100
0001
1000
0100
0010
0100
1000
,
0010
0100
0001
0100
0010
1000
0001
0010
0100
1000
0001
0100
0001
0100
0010
1000
,
0001
0100
0001
1000
0100
0010
0001
1000
0001
0100
0010
0100
0001
1000
0010
0100
,
0001
0010
0100
1000
0001
0100
0010
0100
0001
1000
0100
0010
0001
1000
0010
0100
,
0010
1000
0001
0100
0001
1000
0100
0010
0001
1000
0001
0100
0001
1000
0010
0100
,
0001
0010
0100
1000
0001
0100
0001
1000
0100
1000
0001
0100
0010
0100
0001
1000
,
0001
0010
0100
0010
0001
1000
0010
1000
0001
0100
0001
1000
0100
0010
0001
0100
,
0010
1000
0001
0100
0010
1000
0001
0100
0001
1000
0010
0100
0010
1000
0001
1000
,
0100
0010
0001
1000
0100
1000
0001
0100
0010
0100
0001
1000
0001
0010
0100
1000
,
0010
1000
0001
0100
0001
1000
0100
0010
0001
1000
0001
0100
0010
0100
0001
1000
,
0001
0010
0100
1000
0001
0100
0001
0100
0010
1000
0001
1000
0100
0010
0001
1000
,
0100
0010
0100
0010
0001
0100
0100
0100
,
0002
0003
0000
0000
0000
0000
0000
0000
0002
0003
0000
0000
0000
0000
0000
0000
0002
0003
0000
0000
0000
0000
0000
0000
0002
0003
0000
0000
0000
0000
0000
0000
,
1000
0100
0010
0100
,
1000
0010
0100
0001
,
0010
0100
1000
0000
,
0001
0000
0000
0000
,
0000
0000
1000
0100
,
0010
0100
1000
0001
,
0100
0010
1000
0000
,
0001
0000
0000
0000
;
