#TITLE:Narcissus At Oasis;
#SUBTITLE:;
#ARTIST:Ryu*;
#TITLETRANSLIT:;
#SUBTITLETRANSLIT:;
#ARTISTTRANSLIT:;
#CREDIT:;
#BANNER:Narcissus At Oasis-BN.png;
#BACKGROUND:Narcissus At Oasis-BG.png;
#LYRICSPATH:;
#CDTITLE:!cattitle.png;
#MUSIC:Narcissus At Oasis.mp3;
#OFFSET:-3.690;
#SAMPLESTART:81.260;
#SAMPLELENGTH:14.980;
#SELECTABLE:YES;
#BPMS:0.000=170.000;
#STOPS:;
#BGCHANGES:;
// cache tags:
#FIRSTBEAT:0.000;
#LASTBEAT:316.000;
#SONGFILENAME:Songs/Community Keyboard Megapack - Volume 3/(Cat[S]) Narcissus at Oasis/Narcissus At Oasis.sm;
#HASMUSIC:1;
#HASBANNER:1;
#MUSICLENGTH:118.413;
// end cache tags

//---------------dance-single - ----------------
#NOTES:
     dance-single:
     :
     Hard:
     10:
     0.807,1.000,0.709,0.380,0.638,540.000,84.000,45.000,0.000,0.000:
0001
0000
0000
0100
0000
0000
0010
0000
,
1000
0000
0000
0010
0000
0000
0000
1000
,
0010
0000
0000
0100
0000
0000
0001
0000
,
0010
0000
0000
0100
0000
0000
1000
0000
,
0010
0000
0000
0100
0000
0000
0001
0000
,
1000
0000
0000
0010
0010
0000
0000
0001
,
0100
0000
0000
1000
0000
0000
0100
0000
,
0010
0000
0000
0001
0001
0000
0010
0000
,
1001
0000
0000
0101
0000
0000
1010
0000
,
1001
0000
0000
0101
0101
0000
0000
1010
,
1001
0000
0000
1010
0000
0000
1010
0000
,
1001
0000
0000
0101
0000
0000
1010
0000
,
0011
0000
0000
0000
0000
0000
1010
0101
,
1001
1010
1100
1001
,
0101
0000
0000
0000
,
2002
0000
0000
0000
,
0000
0000
3003
0000
,
1000
0010
0100
0002
0000
0000
0000
0000
0000
0000
0000
0000
0003
0000
0000
0000
,
1001
0000
0010
0001
0000
0100
0000
0010
,
1001
0000
0020
0030
0100
1000
0001
0000
0010
0000
0100
0000
1000
0001
0000
0100
,
1000
0000
0020
0030
0001
0000
0100
0000
0000
0000
0010
0000
1000
0000
1000
0001
,
1000
0000
0010
0000
0200
0300
0010
0000
1010
0000
1001
0000
0010
0000
0001
0100
,
1001
0000
0010
0000
1001
0000
0010
1000
0001
0000
1000
0001
0100
0010
1000
0000
,
0010
0000
0100
0000
0010
0000
0000
0100
0001
0000
0100
0000
0010
0000
0000
1000
,
0010
0000
0100
0000
0002
0003
0100
0000
1000
0000
0001
0000
0100
0000
0001
0100
,
1002
0003
0010
0000
1002
0003
0010
1000
0001
0000
0110
0000
1000
0000
0001
0100
,
1001
0000
0101
0000
0000
1010
0000
0000
,
1010
0000
0101
0000
0000
1010
1100
0000
,
1001
0000
0101
0000
0000
1010
0000
0000
,
1010
0000
0101
0000
0000
1010
1100
0000
,
1001
1010
0101
1001
1100
0101
1001
1010
,
0101
1001
1010
0101
1100
0101
1001
1010
,
0001
0100
0010
1000
0010
0100
0001
1000
0100
0010
0001
1000
0010
0100
0001
0010
,
0100
1000
0010
0100
0001
0100
0010
1000
0002
0000
0000
0000
0023
0000
0000
0000
,
0130
0000
0010
0000
0000
1000
0000
0000
,
0100
0000
0001
0000
0000
0100
0200
0000
,
0000
0000
0000
0000
,
0000
0000
0000
0000
,
0000
0000
0000
0300
,
2000
0000
0000
3002
0000
0000
0203
0000
,
0320
0000
0000
0000
0000
0000
0000
0000
0000
0000
0000
0000
2030
0000
0000
3000
2000
0000
0000
0000
0000
0000
0000
0000
0000
0000
0000
0000
3200
0000
0000
0000
,
0302
0000
0000
0023
0000
0000
0230
0000
,
2300
0000
0000
3200
0000
0000
0302
0000
,
0203
0000
0000
0320
0000
0000
2030
0000
,
0002
0000
0000
0000
3000
0000
0000
0000
0000
0000
0000
0000
0023
0000
0000
0030
0020
0000
0000
0000
0000
0000
0000
0000
0000
0000
0000
0000
0032
0000
0000
0000
,
2003
0000
0000
3020
0000
0000
0230
0000
,
0302
0000
0000
0000
0000
0000
0000
0000
0000
0000
0000
0000
0203
0000
0000
0300
0200
0000
0000
0000
0000
0000
0000
0000
0310
0000
0000
0000
0000
0000
0000
0000
,
1001
0000
0010
0000
0010
0000
0001
0010
0001
0100
0010
0100
0001
0000
1000
0010
,
0100
0000
0100
0000
0010
0000
1000
0010
0100
0010
0100
0000
0010
0000
0101
0000
,
1000
0000
0010
0000
0010
0000
0001
1000
0010
0100
0001
1000
0001
0000
0100
0001
,
1000
0000
1000
0000
0010
0000
0100
1000
0001
0100
0010
0000
1010
0000
1010
0000
,
1001
0010
1001
0010
1001
0010
1001
0101
,
1010
0001
1010
0001
0101
0010
0101
1001
,
0001
0100
0010
1000
0001
0010
0100
1000
0002
0000
0000
0000
0023
0000
0000
0000
,
1030
0000
0100
0010
0001
0100
0010
1000
,
1000
0010
0100
0001
1000
0100
0010
0001
0100
0010
1000
0001
0010
0100
1000
0010
,
0100
0001
1000
0100
0010
0100
1000
0001
0100
0010
1000
0001
0010
0100
0010
0001
,
1000
0010
0100
0010
1000
0010
0100
0001
0100
0010
1000
0010
0100
0001
0100
0010
,
0100
0001
0100
0010
1000
0100
0010
0100
1000
0001
0100
0010
0100
0001
1000
0010
,
0100
0001
0010
0100
0010
0001
1000
0010
0100
0010
1000
0001
0100
0010
1000
0010
,
0100
0001
0010
0100
1000
0010
0100
0001
0010
0100
1000
0010
0100
0001
0010
0100
,
1000
0010
0100
0001
1000
0100
0010
0001
0100
0010
1000
0010
0100
0001
1000
0001
,
0100
0010
1000
0001
1000
0010
0100
0001
1000
0100
1000
0010
0100
0001
0010
0001
,
0100
0010
1000
0010
0100
0001
0010
0001
0100
0010
1000
0100
1000
0010
0100
0001
,
0100
0010
1000
0100
1000
0010
0100
0001
0100
0010
1000
0010
0100
0001
0010
0100
,
0010
0001
1000
0010
0100
0010
1000
0100
0010
0100
1000
0001
0100
0010
0100
0001
,
1000
0010
0100
0001
0010
0100
1000
0010
0100
0001
0010
0100
1000
0010
0100
0001
,
1001
0010
1001
0010
1001
0010
1001
0101
,
1010
0001
1010
0001
0101
0010
0101
0010
,
1000
0010
0100
0001
1000
0100
0010
0001
1000
0010
0100
0001
0100
0010
1000
0001
,
0010
0100
1000
0100
0010
0001
0100
0010
2000
0000
0000
0000
3002
0000
0000
0000
,
1003
0000
0000
0010
0000
0000
0100
0000
,
0001
0000
0000
0010
0010
0000
1000
0100
,
0010
0000
0000
0001
0000
0000
0100
0000
,
0010
0000
0000
0001
0000
0000
0100
0000
,
2000
0000
0000
0000
,
3200
0000
0000
0000
,
0320
0000
0000
0000
,
0000
0000
0000
0000
,
0030
0000
0000
0000
;
