#TITLE:Vertex THETA;
#SUBTITLE:;
#ARTIST:Silvia;
#TITLETRANSLIT:;
#SUBTITLETRANSLIT:;
#ARTISTTRANSLIT:;
#CREDIT:;
#BANNER:banner.Png;
#BACKGROUND:bg.Png;
#LYRICSPATH:;
#CDTITLE:!NEETTitle.png;
#MUSIC:vertextheta.ogg;
#OFFSET:-0.110;
#SAMPLESTART:58.830;
#SAMPLELENGTH:12.000;
#SELECTABLE:YES;
#BPMS:0.000=399.999;
#STOPS:;
#BGCHANGES:;
// cache tags:
#FIRSTBEAT:4.000;
#LASTBEAT:596.000;
#SONGFILENAME:Songs/keyboard/NEET - Vertex Theta/NEET - Vertex Theta.sm;
#HASMUSIC:1;
#HASBANNER:1;
#MUSICLENGTH:92.186;
// end cache tags

//---------------dance-single - ----------------
#NOTES:
     dance-single:
     :
     Hard:
     14:
     1.000,1.000,1.000,0.890,0.195,837.000,168.000,82.000,0.000,6.000:
0000
0000
0000
0000
,
2002
0000
0000
0003
,
3100
0000
0110
0000
,
2002
0000
0000
3000
,
0013
0000
0110
0000
,
2002
0000
0000
0003
,
3100
0000
0011
0000
,
2200
0000
0000
0000
0300
0000
0010
0100
,
3010
0000
0000
0000
,
0202
0000
0000
0300
,
0013
0000
1001
0000
,
2020
0000
0000
0030
,
3100
0000
1001
0000
,
2002
0000
0000
3000
,
0013
0000
1100
0000
,
2002
0000
0000
0000
,
3113
0000
0000
0000
,
1100
0100
0010
0100
,
0011
0010
0100
0010
,
1100
0100
1000
0100
,
0011
0001
0100
1000
,
0011
0100
0010
1000
,
0101
0100
0010
1000
,
0101
0010
1000
0001
,
0110
0100
0010
0100
,
0001
0010
0100
1000
0100
0010
0001
0100
,
0010
1000
0100
0010
0100
1000
0010
1000
,
0001
0100
0001
0100
0010
1000
0100
1000
,
0100
0010
0001
0010
0100
0010
0001
0100
,
0010
1000
0100
0010
0001
0010
0100
1000
,
0001
0010
0001
0100
0010
0100
1000
0001
,
1000
0100
0010
0100
1000
0001
0100
0001
,
0010
1000
0100
0001
0010
0001
0010
0100
,
1001
0010
0100
0010
1000
0100
1000
0001
,
0110
0001
0100
0010
1000
0010
0100
0001
,
0110
0001
1000
0100
0001
0010
0100
0010
,
1001
0100
0010
0001
0010
0100
1000
0100
,
0011
1000
0010
0100
0001
0010
0001
1000
,
0101
0010
0100
1000
0100
0010
0001
1000
,
0110
0001
0100
0001
1000
0010
1000
0001
,
1010
0100
0010
1000
0010
0001
1000
0100
,
0011
0100
1000
0001
0100
0001
0100
0010
,
1100
0010
1000
0100
0001
0010
0001
1000
,
0011
0100
0001
0100
0010
1000
0100
1000
,
0101
1000
0010
1000
0010
0100
0001
0010
,
0101
1000
0001
1000
0010
0100
0010
1000
,
0011
0100
0001
0100
0010
1000
0001
0100
,
0011
1000
0010
1000
0001
0100
0001
1000
,
0110
0001
0010
0100
1000
0100
0010
0001
,
0110
1010
0011
0101
,
1010
0000
0110
0000
1001
0010
0100
1000
,
0101
1100
1001
0101
,
1100
0000
1010
0000
1001
0100
0010
0001
,
1010
0101
0011
1001
,
0110
0000
1001
0000
1010
0001
0010
0100
,
1001
0011
1010
0101
,
1001
0100
0010
0001
0010
0100
1000
0100
,
0011
0100
1000
0100
0010
1000
0010
0100
,
1000
0010
1000
0100
0001
0100
0001
0010
,
1000
0001
1000
0010
0100
0010
1000
0010
,
0100
0001
0100
0010
1000
0100
1000
0010
,
1000
0001
0010
0001
0010
0100
1000
0001
,
1000
0100
0010
0001
0010
0100
1000
0010
,
0100
0001
0010
0100
0010
0001
0100
0001
,
0010
1000
0010
1000
0100
0001
0010
0100
,
2002
0000
0003
3100
0000
0000
2200
0000
,
3322
0000
0033
2020
0000
0030
3100
0000
,
2002
0000
0003
3010
0000
0000
0202
0000
,
2323
0000
3030
0000
,
1000
0001
1000
0010
0000
0100
0001
1000
,
0001
0100
0001
0010
1000
0100
1000
0010
,
1000
0001
1000
0010
0000
0010
1000
0010
,
0100
0001
1000
0010
1000
0010
0001
1000
,
0202
0000
0300
0013
0000
0000
0110
0000
,
2020
0000
0030
3100
0000
0000
0022
0000
,
2233
0000
3300
0220
0330
0000
2020
0000
,
3232
0000
0303
0000
,
1000
0001
1000
0100
0000
0100
0001
1000
,
0010
0100
0001
1000
0001
0010
0100
1000
,
0001
1000
0001
0100
0000
0100
0001
0010
,
0001
1000
0010
1000
0010
0100
0010
0001
,
1000
0010
0100
0001
1000
0010
0100
0001
1000
0010
0100
0001
1000
0010
0100
0001
1000
0010
0100
0001
1000
0010
0100
0001
1000
0010
0100
0001
1000
0010
0100
0001
,
1000
0100
0010
0100
1000
0001
0100
0001
,
0010
1000
0001
1000
0010
0100
0010
0100
,
1000
0010
0100
0001
0010
0100
1000
0100
,
0010
0001
1000
0001
0100
0001
0010
1000
,
0100
1000
0010
1000
0010
0100
0001
0010
,
0001
0100
0010
1000
0010
1000
0100
1000
,
0001
0010
0001
0010
0100
1000
0001
0100
,
0010
1000
0010
0100
0001
1000
0100
0010
,
0001
0010
0100
1000
0010
0100
0001
1000
,
0001
0010
0100
0010
0001
1000
0100
1000
,
0100
0010
0001
0100
0010
0100
0001
0010
,
0001
0100
0001
1000
0010
1000
0100
0001
,
0010
0001
0100
0001
1000
0010
0100
0001
,
1000
0010
1000
0100
0010
0100
1000
0001
,
0010
0001
0010
0100
1000
0001
0100
0010
,
1000
0100
1000
0010
0100
0001
0010
0001
,
1100
0010
0100
0001
0010
0001
1000
0001
,
1100
0010
0100
1000
0010
1000
0001
0100
,
1010
0001
1000
0100
0010
0001
0010
0100
,
1001
0010
0100
0001
0010
0100
0010
0001
,
1100
0010
0100
0001
1000
0001
0100
1000
,
0110
0001
0010
1000
0100
1000
0001
0010
,
1100
0010
0001
1000
0001
0100
0010
0100
,
1001
0010
0100
0000
0220
0000
0330
0000
,
0110
1000
0010
0100
0001
0010
0001
1000
,
0101
0010
0100
1000
0010
0100
0010
1000
,
0011
0100
0001
0100
0010
1000
0100
0001
,
1010
0001
0010
0100
0010
1000
0100
1000
,
0110
0001
1000
0001
0010
0100
1000
0100
,
0011
0100
1000
0010
1000
0001
0100
0001
,
0010
0100
0010
1000
0010
0100
0001
1000
,
0011
0000
0000
0000
0100
0000
0000
0000
1000
0000
0000
0000
0010
0000
0000
0000
0001
0100
0010
1000
0001
0100
0010
1000
0001
0100
0010
1000
0001
0100
0010
1000
,
0101
1000
0011
0100
1010
0000
0110
0000
,
0011
1100
1010
0011
,
1001
0100
0011
1000
0101
0000
0011
0000
,
1010
0110
0101
1001
,
1010
0100
1001
0100
0011
0000
1001
0000
,
0011
1010
0101
0011
,
0110
1010
1100
0011
,
1010
0110
0101
1010
,
0101
0010
1100
0001
1010
0000
0110
0000
,
0011
1100
0101
1001
,
0110
0001
1010
0100
1001
0000
0110
0000
,
1001
1100
1010
1001
,
1010
0100
0011
1000
0101
0000
0011
0000
,
1001
1100
0110
1100
,
1001
0010
0100
1000
0101
1000
0100
0010
,
1001
0100
0010
0001
1010
0001
0010
0100
,
2002
0000
0000
3003
,
0002
0000
0000
0000
0023
0000
0000
0030
,
0022
0000
0000
0033
,
2000
0000
0000
0000
3200
0000
0000
0300
,
2200
0000
0000
3300
,
0020
0000
0000
0000
0230
0000
0000
0300
,
0220
0000
0000
0330
,
2002
0000
0000
3003
,
2002
0000
0000
0000
0000
0000
0000
3003
,
0020
0000
0000
0000
2030
0000
0000
3000
,
2020
0000
0000
3030
,
0200
0000
0000
0000
0302
0000
0000
0003
,
0202
0000
0000
0303
,
2000
0000
0000
0000
3002
0000
0000
0003
,
2002
0000
0000
0000
0000
0000
0000
3003
,
0220
0000
0000
0330
,
2222
0000
0000
0000
,
0000
0000
0000
0000
,
0000
0000
0000
0000
,
3333
0000
0000
0000
;
