#TITLE:OUTER LIMITS;
#SUBTITLE:;
#ARTIST:L.E.D.-G;
#TITLETRANSLIT:;
#SUBTITLETRANSLIT:;
#ARTISTTRANSLIT:;
#CREDIT:;
#BANNER:OUTER LIMITS.png;
#BACKGROUND:OUTER LIMITS-bg.png;
#LYRICSPATH:OUTER LIMITS.lrc;
#CDTITLE:!aptitle.png;
#MUSIC:OUTER LIMITS.mp3;
#OFFSET:-5.931;
#SAMPLESTART:18.550;
#SAMPLELENGTH:12.000;
#SELECTABLE:YES;
#DISPLAYBPM:342.000;
#BPMS:0.000=171.000,27.500=42.740,28.000=85.500,28.500=171.000,30.000=341.999,398.000=42.739,398.500=85.500,399.000=171.000,400.000=341.999;
#STOPS:27.500=1.400
,398.000=1.400
;
#BGCHANGES:;
// cache tags:
#FIRSTBEAT:0.000;
#LASTBEAT:528.000;
#SONGFILENAME:Songs/Community Keyboard Megapack - Volume 1/(Aperson) Outer Limits/OUTER LIMITS.sm;
#HASMUSIC:1;
#HASBANNER:1;
#MUSICLENGTH:111.177;
// end cache tags

//---------------dance-single - ----------------
#NOTES:
     dance-single:
     :
     Challenge:
     11:
     1.000,1.000,1.000,0.387,0.004,615.000,212.000,43.000,0.000,0.000:  // measure 1
1001
0000
1000
0000
1000
0000
1000
0100
,  // measure 2
0001
0000
0001
0000
0001
0000
0001
0100
,  // measure 3
1000
0100
0010
0001
0100
0001
1000
0100
,  // measure 4
0010
0000
0001
0000
1000
0000
0001
0010
0100
0000
0001
0000
0000
0000
0100
0000
,  // measure 5
1000
0000
1000
0000
0100
0000
0100
0010
,  // measure 6
0001
0100
1000
0100
0001
0000
0001
0100
,  // measure 7
0010
0000
0010
0000
1000
0000
1000
0100
,  // measure 8
0000
0000
1001
0001
,  // measure 9
0011
0000
0100
1000
0100
0010
0001
0000
,  // measure 10
0011
0000
1100
0000
0001
0010
0001
0000
,  // measure 11
1100
0000
0011
0000
0001
0100
0000
0100
,  // measure 12
0001
1001
1000
1100
,  // measure 13
0011
0000
1000
0010
0100
0001
0100
0000
,  // measure 14
0100
0001
0000
0000
2002
0000
0000
0000
,  // measure 15
3003
0000
0000
0000
1000
0001
1000
0010
,  // measure 16
1000
0001
1100
0011
,  // measure 17
1100
0000
0001
0010
0100
0010
0001
0000
,  // measure 18
1100
0011
1010
0101
,  // measure 19
1010
0000
1000
0100
0000
0100
1000
0000
,  // measure 20
1001
0110
1100
1000
,  // measure 21
1001
0000
1000
0001
0000
0001
1000
0000
,  // measure 22
1001
0000
0011
0000
1100
0010
0101
0000
,  // measure 23
0101
0010
1100
0000
1100
0010
1100
0000
,  // measure 24
0011
1100
0000
0000
1001
0000
1000
0000
,  // measure 25
1010
0000
1000
0010
0100
0001
0010
0000
,  // measure 26
0011
0000
1100
0000
1000
0100
1000
0000
,  // measure 27
0011
0000
1100
0000
0010
0001
1000
0001
,  // measure 28
0010
1100
0011
0001
,  // measure 29
1001
0000
1001
0000
1000
0001
0000
0001
,  // measure 30
1000
0010
0100
0000
1001
0100
1001
0000
,  // measure 31
1100
0000
1100
0000
1000
0100
0010
0001
,  // measure 32
0010
0011
1001
1000
,  // measure 33
1010
0000
1000
0010
0100
0001
0100
0000
,  // measure 34
0100
0001
0100
0000
1010
0000
0101
0000
,  // measure 35
0011
1100
0101
0110
,  // measure 36
1001
0000
0110
0000
1000
0100
0010
0001
,  // measure 37
0010
0000
0011
0000
1000
0010
0000
0010
,  // measure 38
1000
1001
1100
1100
,  // measure 39
1000
0010
0100
0001
1000
0000
1000
0001
,  // measure 40
0000
1001
1001
0001
,  // measure 41
0011
0001
1100
0110
,  // measure 42
0011
0001
1100
0110
,  // measure 43
0011
0001
1100
0110
,  // measure 44
0011
1000
0011
0110
,  // measure 45
1100
0001
1100
0110
,  // measure 46
1100
0000
0110
0000
0001
0010
0001
0000
,  // measure 47
1000
0100
1000
0000
1000
0100
1000
0100
,  // measure 48
1000
0100
1000
0100
0022
0000
0000
0000
,  // measure 49
0033
2200
0000
3300
,  // measure 50
2002
0000
0000
3003
,  // measure 51
1000
0100
0010
0001
,  // measure 52
0100
0010
0022
0000
,  // measure 53
0033
2200
0000
3300
,  // measure 54
0022
0000
0000
0000
0033
0000
1000
0100
,  // measure 55
1000
0001
0011
0011
,  // measure 56
0010
0010
1100
1100
,  // measure 57
0012
0000
0000
0000
1003
0000
1000
0001
,  // measure 58
1000
0000
0011
0000
1000
0001
1000
0000
,  // measure 59
0110
0000
0110
0000
1000
0010
1000
0000
,  // measure 60
0101
0000
0101
0000
1000
0100
1000
0000
,  // measure 61
0001
0010
0001
0000
1000
0001
1000
0100
,  // measure 62
1000
0000
1100
0000
0001
0010
0100
1000
,  // measure 63
0010
0100
0001
0010
0100
1000
0010
0100
,  // measure 64
0001
0010
0100
1000
0011
0000
0011
0000
,  // measure 65
2100
0000
0000
0000
3001
0010
0100
0010
,  // measure 66
1001
0000
1001
0000
1000
0010
1000
0000
,  // measure 67
0011
0000
1100
0000
0001
0100
0001
0010
,  // measure 68
0100
0000
0011
0000
1000
0010
1000
0000
,  // measure 69
0001
0100
0001
0000
0100
0010
0100
0001
,  // measure 70
0100
0101
2020
3030
,  // measure 71
1001
0000
1001
2010
,  // measure 72
0000
0000
3001
0000
0001
0010
0100
0000
,  // measure 73
1100
0000
1100
0000
1000
0100
0010
0000
,  // measure 74
0011
0000
0011
0000
0001
0100
0010
1000
,  // measure 75
0110
1001
1100
1100
,  // measure 76
0011
0000
0001
0010
1100
0000
1000
0100
,  // measure 77
0011
0000
0001
0010
0001
0010
0100
1000
,  // measure 78
0011
0000
1000
0100
0011
0000
1100
0000
,  // measure 79
0011
0000
1000
0100
0010
0001
0010
0100
,  // measure 80
1001
0000
0001
0010
0101
0000
1000
0001
,  // measure 81
0110
0000
1001
0100
0010
0100
1001
0000
,  // measure 82
1001
0000
1000
0100
1001
0100
0010
0001
,  // measure 83
1100
0000
0001
0010
0001
0010
0100
1000
,  // measure 84
0011
0000
0100
0010
1001
0000
0110
0000
,  // measure 85
1001
0100
0011
0100
1001
0000
1100
0000
,  // measure 86
0011
0000
1000
0010
0101
0000
0101
0000
,  // measure 87
1010
0000
1000
0010
0000
0110
0000
0010
,  // measure 88
1000
1010
2002
0000
,  // measure 89
0000
0000
0000
3003
,  // measure 90
1000
0100
1000
0100
,  // measure 91
0010
0001
0010
0001
,  // measure 92
1000
0000
0010
0001
0100
0000
0001
0000
,  // measure 93
1000
0010
0100
0001
,  // measure 94
0010
0100
1000
0001
,  // measure 95
0010
0100
1000
0001
,  // measure 96
0010
0100
2002
0000
,  // measure 97
0000
0000
3003
0000
,  // measure 98
0000
0000
0000
0000
,  // measure 99
0000
0000
0000
0000
,  // measure 100
0000
0000
0000
0000
,  // measure 101
1001
0000
1001
0000
0110
1000
0001
0100
,  // measure 102
0010
1000
0100
0010
1100
0000
1000
0000
,  // measure 103
1001
0000
1001
0000
0110
0001
1000
0010
,  // measure 104
0100
0001
0010
0100
0011
0000
1100
0000
,  // measure 105
0011
0000
0011
0000
1100
0010
0001
0100
,  // measure 106
0010
1000
0100
1000
0001
0010
1100
0000
,  // measure 107
2002
0000
0000
0000
3003
0000
1000
0010
,  // measure 108
1000
0100
1000
0100
0010
0001
0010
0000
,  // measure 109
1100
0000
0011
0000
1100
0000
0001
0010
,  // measure 110
0001
0010
0100
1000
0011
0000
1100
0000
,  // measure 111
1000
0010
1000
0010
0100
0001
1010
0000
,  // measure 112
1000
0100
0010
0001
1100
0000
0011
0000
,  // measure 113
1000
0100
0010
0000
0011
0000
0011
0000
,  // measure 114
0001
0010
0100
0000
1100
0000
1100
0000
,  // measure 115
2002
3003
2002
3003
,  // measure 116
2002
0000
3003
0000
1000
0100
0010
0001
,  // measure 117
1100
1100
0011
1100
,  // measure 118
0110
0000
1100
0010
1001
0000
0011
0000
,  // measure 119
1100
0000
0110
0000
0011
0000
1001
0100
,  // measure 120
0011
0000
0110
0000
1000
0001
1000
0001
,  // measure 121
1100
1100
0110
1100
,  // measure 122
0011
0000
1001
0010
1100
0000
1001
0010
,  // measure 123
0101
0000
0101
0000
1000
0100
0011
0100
,  // measure 124
1000
0100
0010
0001
0100
0010
1000
0100
,  // measure 125
0022
0000
0033
2200
,  // measure 126
0000
3300
0022
0000
,  // measure 127
0033
0000
0000
0000
,  // measure 128
1100
0000
0011
0000
0001
0010
0001
0010
,  // measure 129
2200
0000
3300
0022
,  // measure 130
0000
0033
2200
0000
,  // measure 131
3300
0000
0000
0000
,  // measure 132
1001
0000
0001
1000
0100
0010
0001
0010
,  // measure 133
0001
0000
0000
0000
;

//---------------dance-single - ----------------
#NOTES:
     dance-single:
     :
     Hard:
     11:
     0.826,1.000,0.693,0.018,0.000,564.000,77.000,2.000,0.000,0.000:  // measure 1
0000
0000
0000
0000
,  // measure 2
0000
0000
0000
0000
,  // measure 3
0000
0000
0000
0000
,  // measure 4
0000
0000
0000
0000
,  // measure 5
1000
1000
0001
0001
,  // measure 6
0100
0100
0010
0010
,  // measure 7
1000
0000
0100
0000
0010
0000
0001
1000
,  // measure 8
0000
0000
1001
1010
,  // measure 9
1001
0000
1000
0100
1000
0000
0001
0000
,  // measure 10
0001
0000
0010
0000
0100
1000
0100
0010
,  // measure 11
0001
0000
1000
0000
0100
0010
0001
0000
,  // measure 12
0011
0000
0101
0000
0001
0010
0001
0000
,  // measure 13
0010
0000
0100
0000
1000
0100
1000
0000
,  // measure 14
0100
0022
0000
0000
,  // measure 15
0033
1000
1000
0100
,  // measure 16
0100
0010
0000
0000
0011
0000
1000
0010
,  // measure 17
0100
0000
0001
0010
0100
0000
0010
0100
,  // measure 18
1000
0100
0010
0000
0001
1000
0010
0100
,  // measure 19
0010
1000
0100
0010
,  // measure 20
0001
0100
0001
0000
1000
0000
0100
0000
,  // measure 21
0010
0001
0010
0000
0001
0010
0000
0100
,  // measure 22
1000
1100
0011
0000
,  // measure 23
1100
0000
0011
0000
,  // measure 24
1000
0100
1000
0000
1100
0000
1000
0000
,  // measure 25
0010
0000
0100
0000
0001
0010
0000
0100
,  // measure 26
1000
0000
1001
0000
1000
0100
0000
0010
,  // measure 27
0001
0000
1000
0010
0000
0100
0001
0000
,  // measure 28
0100
1001
1010
1001
,  // measure 29
1000
0100
1000
0100
0010
0001
0010
0001
,  // measure 30
1000
0010
0100
0001
,  // measure 31
0100
0010
1000
0000
0001
0010
0100
1000
,  // measure 32
0100
0000
1100
0000
1000
0100
0000
1000
,  // measure 33
0010
0000
1000
0001
0000
0100
0001
0000
,  // measure 34
0011
0000
1001
0000
0001
0010
0000
0001
,  // measure 35
0100
0000
0001
1000
0000
0010
1000
0000
,  // measure 36
0010
1000
0010
0100
0001
0000
1000
0000
,  // measure 37
0010
0000
0100
0010
1000
0000
1100
0000
,  // measure 38
1000
0001
0000
0001
1000
0100
0010
0000
,  // measure 39
0110
0000
0100
0010
0001
0000
0001
1000
,  // measure 40
0000
1000
0010
0000
1010
0000
1001
0000
,  // measure 41
0101
1001
0110
1001
,  // measure 42
1000
0100
1000
0000
0011
0000
0110
0000
,  // measure 43
1100
0001
1100
1001
,  // measure 44
1000
0010
1000
0000
0101
0000
1001
0000
,  // measure 45
0110
0000
1000
0100
0000
0010
0001
0000
,  // measure 46
1000
0010
1000
0000
0001
0100
0001
0010
,  // measure 47
0001
0000
1000
0010
1000
0100
1000
0000
,  // measure 48
0001
0100
0010
1000
0100
0000
0000
0000
,  // measure 49
0000
1000
0000
0000
,  // measure 50
0001
0000
0000
0000
,  // measure 51
0000
0000
0000
0000
,  // measure 52
0000
0000
1000
0000
,  // measure 53
0000
0001
0000
0000
,  // measure 54
1000
0000
0000
0000
,  // measure 55
0000
0000
1100
1001
,  // measure 56
0100
0001
0100
0001
0100
0010
0000
1000
,  // measure 57
0001
0000
0001
1000
0000
1000
0100
0000
,  // measure 58
0010
0001
0010
0000
0001
0010
0000
0010
,  // measure 59
0001
0000
1000
0100
0000
0100
1000
0000
,  // measure 60
1100
0000
0011
0000
1000
0100
1000
0000
,  // measure 61
0011
0000
0011
0000
0001
0010
0001
0000
,  // measure 62
1100
1100
1000
0010
,  // measure 63
0100
0001
1000
0010
,  // measure 64
0100
0000
0001
0000
1000
0010
0000
0010
,  // measure 65
0100
0000
0100
0001
0000
0001
1000
0000
,  // measure 66
1001
0000
0110
0000
0010
0001
1000
0100
,  // measure 67
0010
0001
1000
0100
0010
0001
1000
0100
,  // measure 68
0010
0001
1000
0000
0001
0000
0001
0000
,  // measure 69
1000
0000
1000
0000
0100
0010
0100
1000
,  // measure 70
0001
1001
0000
0000
,  // measure 71
0000
0000
0000
0000
,  // measure 72
0000
0000
1001
0110
,  // measure 73
1001
0000
1000
0100
1000
0100
1000
0000
,  // measure 74
1010
0000
0101
0000
0001
0010
0000
0100
,  // measure 75
1000
0000
0001
0100
0000
0010
1000
0000
,  // measure 76
1010
0000
1001
0000
1000
0010
1000
0010
,  // measure 77
0100
0000
0010
0100
0010
0100
0001
0010
,  // measure 78
0001
0000
1000
0100
0010
0000
0011
0000
,  // measure 79
1100
0000
0001
0010
0100
1000
0010
0100
,  // measure 80
0001
0010
0100
1000
0100
0000
1000
0100
,  // measure 81
1000
0000
1100
0000
0001
1000
0001
0000
,  // measure 82
1010
0000
1000
0010
0100
0000
0001
0100
,  // measure 83
0010
0000
1000
0010
0100
0001
0100
0010
,  // measure 84
1000
0100
0010
0001
0010
0000
0100
1000
,  // measure 85
0100
0000
0010
0001
0010
0000
0100
1000
,  // measure 86
0100
0010
0001
0010
0100
0000
0100
0010
,  // measure 87
0100
0000
0100
1000
0100
0000
0001
0010
,  // measure 88
0000
0100
1000
0000
1100
0000
0000
0000
,  // measure 89
0000
0000
0000
0000
,  // measure 90
0000
0000
0000
0000
,  // measure 91
0000
0000
0000
0000
,  // measure 92
0000
0000
1001
0000
,  // measure 93
0000
0000
0000
0000
,  // measure 94
0000
0000
0000
0000
,  // measure 95
0000
0000
0000
0000
,  // measure 96
0000
0000
1001
0000
,  // measure 97
0000
0000
0000
0000
,  // measure 98
0000
0000
0000
0000
,  // measure 99
0000
0000
0000
0000
,  // measure 100
0000
0000
0000
0000
,  // measure 101
1000
0100
1000
0000
0001
0000
1000
0010
,  // measure 102
1000
0010
1000
0000
0001
0000
0100
0000
,  // measure 103
0010
1000
0010
0000
0100
0000
0001
0010
,  // measure 104
0001
0010
0001
0000
1000
0000
0100
0000
,  // measure 105
0010
0001
0010
0000
0100
0000
1000
0010
,  // measure 106
1000
0010
1000
0000
1010
0000
0101
0000
,  // measure 107
1100
0000
0011
0000
1000
0100
1000
0000
,  // measure 108
0001
0010
0000
0100
1000
0000
0000
0000
,  // measure 109
1001
0000
0110
0000
,  // measure 110
1000
0100
0010
0001
0010
0000
0000
0000
,  // measure 111
0100
1000
0100
0010
0001
0000
1000
0100
,  // measure 112
0010
0001
0010
0100
1000
0000
1100
0000
,  // measure 113
0001
0100
0010
0000
1100
0000
0011
0000
,  // measure 114
1000
0010
0100
0000
0011
0000
1100
0000
,  // measure 115
0001
0010
0100
1000
0001
0100
0010
1000
,  // measure 116
0001
0010
0100
0010
0001
1000
0100
0010
,  // measure 117
0001
1000
0100
1000
0001
0010
0001
0000
,  // measure 118
1000
0100
0010
0001
,  // measure 119
1000
0100
1000
0001
0010
0001
1000
0000
,  // measure 120
0001
0010
0100
1000
,  // measure 121
1000
0010
1000
0001
0100
0001
1000
0000
,  // measure 122
0001
0100
0001
1000
0010
1000
0001
0000
,  // measure 123
1000
0100
0010
0001
0100
0010
1000
0100
,  // measure 124
0010
0001
0100
0001
1000
0100
0010
0100
,  // measure 125
1000
0000
0000
1001
,  // measure 126
0000
0000
0110
0000
,  // measure 127
1000
0100
1000
0100
,  // measure 128
0010
0001
0010
0001
,  // measure 129
1100
0000
0000
0011
,  // measure 130
0000
0000
1100
0000
,  // measure 131
1000
0100
1000
0000
0001
0000
0010
0000
,  // measure 132
0100
0000
1000
0000
0001
0010
0001
0000
,  // measure 133
1001
0000
0000
0000
;
