#TITLE:Huge Speaker On The Roof;
#SUBTITLE:;
#ARTIST:m1dy;
#TITLETRANSLIT:;
#SUBTITLETRANSLIT:;
#ARTISTTRANSLIT:;
#CREDIT:Rynker;
#BANNER:Bn-Roof.png;
#BACKGROUND:Bg-Roof.png;
#LYRICSPATH:;
#CDTITLE:;
#MUSIC:Huge speaker on the roof - m1dy.ogg;
#OFFSET:-0.125;
#SAMPLESTART:93.095;
#SAMPLELENGTH:12.000;
#SELECTABLE:YES;
#BPMS:0.000=185.000;
#STOPS:;
#BGCHANGES:;
// cache tags:
#FIRSTBEAT:10.000;
#LASTBEAT:377.750;
#SONGFILENAME:Songs/SPEEEDCOOOORE/Huge Speaker On The Roof - [Rynker]/Huge speaker on the roof.sm;
#HASMUSIC:1;
#HASBANNER:1;
#MUSICLENGTH:124.345;
// end cache tags

//---------------dance-single - Rynker----------------
#NOTES:
     dance-single:
     Rynker:
     Challenge:
     12:
     1.000,1.000,0.257,0.000,1.000,951.000,32.000,0.000,2.000,0.000:

0000
0000
0000
0000
,
0000
0000
0000
0000
,
0000
0000
0000
0000
0000
0000
0000
0000
0101
0000
0100
0001
0100
0000
0010
1000
,
0000
0010
1000
0000
0100
0000
1000
0100
1000
0000
0100
1000
0100
0000
0010
0001
,
0000
0010
0001
0000
0010
0000
0001
0100
0001
0000
0100
0001
0100
0000
0010
1000
,
0000
0010
1000
0000
0001
0000
0010
0100
0010
0000
0100
1000
0100
0000
1000
0001
,
0000
0100
0001
0000
0100
0000
0010
1000
0010
0000
1000
0001
1000
0000
0100
1000
,
0000
0100
1000
0000
0100
0000
0010
0100
0010
0000
0001
0010
0001
0000
0100
0001
,
0000
0100
0010
0000
1000
0000
0010
1000
0010
0000
1000
0100
1000
0000
0100
0010
,
0000
0001
0010
0000
0001
0000
0100
0001
0100
0000
0001
0100
0001
0000
0100
0010
,
0000
1000
0010
0000
1000
0000
0010
0100
0010
0000
1000
0001
1000
0000
0100
0010
,
0000
0100
0010
0000
0001
0000
0100
0001
0100
0000
0010
1000
0010
1000
0001
0010
,
0100
1000
0100
0010
0001
0100
0010
1000
0001
0010
0100
0010
0001
1000
0010
0100
,
0001
0000
0000
1000
0000
0000
0100
0000
0000
0010
0000
0000
0001
0000
0000
0100
0000
0000
0010
0000
0000
1000
0000
0000
0100
0000
0000
0000
0000
0000
0000
0000
0000
0000
0000
0000
0000
0000
0000
0000
1000
0000
0000
0000
0000
0000
0100
0000
,
0000
0000
0000
0000
0010
0000
0000
0000
0000
0000
0000
0000
0000
0000
0000
0000
0001
0000
0000
0000
0000
0000
0000
0000
0000
0000
0000
0000
0000
0000
0000
0000
0000
0000
0000
0000
0000
0000
0000
0000
0000
0000
0000
0000
0000
0000
0000
0000
0000
0000
0000
0000
0000
0000
0000
0000
0000
0000
0000
0000
0000
0000
0000
0000
0000
0000
0000
0000
0000
0000
0000
0000
0000
0000
0000
0000
0000
0000
0000
0000
0000
0000
0000
0000
0000
0000
0000
0000
0000
0000
0000
0000
0000
0000
0000
0000
1000
0000
0000
0000
0000
0000
0000
0000
0000
0000
0000
0000
0000
0000
0000
0010
0000
0000
0000
0000
0000
0000
0000
0000
0000
0000
0000
0000
0000
0000
0000
0000
0000
0100
0000
0000
0000
0000
0000
0000
0000
0000
0000
0000
0000
0000
0000
0000
0000
0000
0000
0000
0000
0000
0010
0000
0000
0000
0000
0000
0000
0000
0000
0000
0000
0000
1000
0000
0000
0000
0000
0000
0000
0000
0000
0000
0000
0000
0000
0000
0000
0001
0000
0000
0000
0000
0000
0000
0000
0000
0000
0000
0000
0000
0000
0000
,
0010
0000
0000
0000
0000
0000
0000
0000
1001
0000
0000
0000
1001
0000
0000
0001
,
0100
0000
0010
0000
1000
0000
0100
0000
0110
0000
0000
0000
0110
0000
0000
0010
,
0001
0000
1000
0000
0010
0000
0100
0000
0101
0000
0000
0000
0101
0000
0000
0001
,
0100
0000
0010
0000
1000
0000
0100
0000
0110
0000
0000
0000
0011
0000
0000
0001
,
0100
0000
0010
0000
1000
0010
0100
0001
1000
0000
0000
0000
1001
0000
0000
0001
,
0010
0000
0100
0000
1000
0000
0010
0000
0110
0000
0000
0000
0110
0000
0000
0100
,
0001
0000
1000
0000
0100
0000
0010
0000
0011
0000
0000
0000
0011
0000
0000
0001
,
1000
0000
0010
0000
0100
0000
0001
0000
1001
0000
0000
0000
1001
0000
0000
1000
,
0100
0000
0010
0000
0001
0010
0100
0010
0001
0000
1000
0000
0010
0000
0100
0010
,
1000
0000
0001
0000
0010
0000
0100
0000
1000
0000
0001
0000
0010
0000
0100
1000
,
0001
0000
0100
0000
0010
0000
0100
0000
0001
0000
0010
0000
0100
0000
1000
0010
,
0100
0000
0001
0000
1000
0000
0100
1000
0010
0000
1000
0000
0001
0000
1000
0010
,
0100
0000
0001
0000
1000
0010
1000
0100
0010
0000
0001
0000
1000
0000
0010
0100
,
0001
0000
0010
0000
0100
0000
0010
0000
0001
0000
0100
0000
0010
0000
1000
0100
,
0010
0000
0100
0000
1000
0001
0100
0000
0010
0000
0100
0000
0010
0000
1000
0001
,
0100
0000
0001
0000
0010
0000
0100
1000
0001
0000
0001
0100
0010
1000
0010
1000
,
0001
0100
0001
0010
0100
1000
0100
0010
0001
0000
0100
0001
0100
0000
0010
1000
,
0000
0010
1000
0000
0100
0000
1000
0100
1000
0000
0100
1000
0100
0000
0010
0001
,
0000
0010
0001
0000
0010
0000
0001
0100
0001
0000
0100
0001
0100
0000
0010
1000
,
0000
0010
1000
0000
0001
0000
0010
0100
0010
0000
0100
1000
0100
0000
1000
0001
,
0000
0100
0001
0000
0100
0000
0010
1000
0001
0000
0100
0001
0100
0000
0010
1000
,
0000
0010
1000
0000
0100
0000
1000
0100
1000
0000
0100
1000
0100
0000
0010
0001
,
0000
0010
0001
0000
0010
0000
0001
0100
0001
0000
0100
0001
0100
0000
0010
1000
,
0000
0010
1000
0000
0001
0000
0010
0100
0010
0000
0001
1000
0001
0000
1000
0001
,
0000
1000
0001
0000
1000
0000
0001
1000
0001
0000
0100
0001
1000
0000
0100
0010
,
0100
0010
0100
0000
1000
0000
0001
0100
0010
0000
1000
0001
0010
0000
0100
1000
,
0100
1000
0100
0000
0010
0000
0100
0010
0001
0000
1000
0010
0100
0000
0010
1000
,
0010
1000
0010
0000
0100
0000
0001
1000
0100
0000
0010
0001
1000
0000
0001
0100
,
0001
0100
0001
1000
0100
1000
0100
0010
0001
0000
0100
0001
1000
0000
0100
0010
,
0100
0010
0100
0000
1000
0000
0001
0100
0010
0000
1000
0001
0010
0000
0100
1000
,
0100
1000
0100
0000
0010
0000
0100
1000
0001
0000
0100
0001
1000
0000
0010
0100
,
0010
0100
0010
0000
0100
0000
0001
1000
0100
0010
0001
0010
0001
0100
0010
1000
,
0010
0100
0001
0000
1000
0000
0100
0010
0001
0000
1000
0010
0100
0000
0001
1000
,
0001
1000
0001
0000
1000
0000
0001
0010
0100
0000
1000
0001
0010
0000
0001
0010
,
0001
0010
0001
0000
0010
0000
0100
0010
0001
0000
1000
0010
0100
0000
0001
0100
,
0001
0100
0001
0000
0010
0000
0001
1000
0100
0000
0010
0001
1000
0000
0010
0100
,
0010
0100
0010
1000
0001
0010
0100
0010
0001
0000
1000
0010
0100
0000
0001
1000
,
0001
1000
0001
0000
1000
0000
0001
0010
0100
0000
1000
0001
0010
0000
0100
1000
,
0100
1000
0100
0000
0010
0000
0100
0010
0001
0000
1000
0010
0100
0000
0001
0100
,
0001
0100
0001
0000
1000
0000
0001
1000
0010
0000
0100
0001
1000
0000
0010
1000
,
0010
1000
0010
0100
0001
0010
0100
1000
0001
0000
1000
0000
0100
0000
0010
0000
,
0100
0000
1000
0000
0001
0000
0100
0000
0010
0000
1000
0000
0010
0000
0100
0001
,
0100
0001
0100
0010
1000
0001
0010
0100
,
0010
0000
0001
0000
1000
0000
0010
0100
0010
0000
0100
0000
0001
0000
1000
0100
,
1000
0000
0001
0000
1000
0010
1000
0010
0100
0000
0001
0000
0100
0000
0010
0000
,
1000
0000
0001
0000
0010
0000
0100
0000
0010
0100
1000
0001
0100
0010
1000
0001
,
1000
0001
0010
0100
0010
0001
1000
0001
0100
0000
0000
0000
0000
0000
0000
0000
,
0000
0000
0000
0000
,
0000
0000
0000
0000
0000
0000
0000
0000
1001
0000
0000
0000
1001
0000
0000
1000
,
0010
0000
0100
0000
0001
0000
0010
0000
0110
0000
0000
0000
0110
0000
0000
0100
,
1000
0000
0001
0000
0100
0000
0010
0000
1010
0000
0000
0000
1010
0000
0000
1000
,
0010
0000
0100
0000
0001
0000
0010
0000
0110
0000
0000
0000
1100
0000
0000
1000
,
0010
0000
1000
0001
1000
0001
0010
0100
1000
0000
0000
0000
1001
0000
0000
1000
,
0100
0000
0010
0000
0001
0000
0100
0000
0110
0000
0000
0000
0110
0000
0000
0010
,
1000
0000
0001
0000
0010
0000
0100
0000
1100
0000
0000
0000
1100
0000
0000
1000
,
0001
0000
0100
0000
0010
0000
1000
0000
1001
0000
0000
0000
1001
0000
0000
0001
,
0010
0000
0100
0000
1000
0100
0010
0100
1000
0000
0001
0000
0100
0000
0010
0100
,
0001
0000
1000
0000
0010
0000
1000
0000
0010
0000
0100
0000
0001
0000
0010
0001
,
1000
0000
0010
0000
0100
0000
0010
0000
1000
0000
0100
0000
0010
0000
0001
0100
,
0010
0000
1000
0000
0001
0000
0010
0100
1000
0000
0001
0000
1000
0000
0001
0100
,
0010
0000
1000
0000
0001
0100
0001
0010
0100
0000
1000
0000
0001
0000
0100
0010
,
1000
0000
0100
0000
0010
0000
0100
0000
1000
0000
0010
0000
0100
0000
0001
0010
,
0100
0000
0010
0000
0001
1000
0010
0000
1000
0000
0010
0000
0100
0000
0001
1000
,
0010
0000
1000
0000
0100
0000
0010
0001
1000
0000
1000
0010
0100
0001
0100
0001
,
1000
0010
1000
0100
0010
0001
0010
0100
1000
0000
0010
1000
0001
0000
0010
0100
,
0010
0100
0010
0000
0100
0000
1000
0010
0100
0000
0001
0100
0010
0000
1000
0010
,
1000
0010
1000
0000
0001
0000
0010
0100
1000
0000
0100
0010
0001
0000
1000
0001
,
1000
0001
1000
0000
0001
0000
0100
0010
1000
0000
0001
0010
0100
0000
0010
0001
,
0010
0001
0010
0000
0001
0000
0100
0001
MM00
0000
0000
0000
1001
0000
0001
0100
,
0001
0100
0001
0000
0010
0000
0001
0100
0010
0000
1000
0010
0100
0000
0001
0100
,
0001
0100
0001
0000
1000
0000
0100
0010
0001
0000
0010
0100
1000
0000
0001
1000
,
0001
1000
0001
0000
1000
0000
0010
0100
0001
0000
1000
0100
0010
0000
0100
1000
,
0100
1000
0100
0010
0001
0100
0010
1000
0001
0000
0100
0001
0100
0000
0010
1000
,
0000
0010
1000
0000
0100
0000
1000
0100
1000
0000
0100
1000
0100
0000
0010
0001
,
0000
0010
0001
0000
0010
0000
0001
0100
0001
0000
0100
0001
0100
0000
0010
1000
,
0000
0010
1000
0000
0001
0000
0010
0100
0010
0000
0100
1000
0100
0000
1000
0001
,
0000
0100
0001
0000
0100
0000
0010
1000
0001
0000
0100
0001
0100
0000
0010
1000
,
0000
0010
1000
0000
0100
0000
1000
0100
1000
0000
0100
1000
0100
0000
0010
0001
,
0000
0010
0001
0000
0010
0000
0001
0100
0001
0000
0100
0001
0100
0000
0010
1000
,
0000
0010
1000
0000
0001
0000
0010
0100
0000
0000
0000
0000
0000
0000
0000
0000
;
