#TITLE:Zigeunerweisen, Op.20;
#SUBTITLE:;
#ARTIST:CJ Crew feat. SHAZZA;
#TITLETRANSLIT:;
#SUBTITLETRANSLIT:;
#ARTISTTRANSLIT:;
#CREDIT:;
#BANNER:Zigeunerweisen, Op.20.png;
#BACKGROUND:Zigeunerweisen, Op.20-bg.png;
#LYRICSPATH:;
#CDTITLE:Fenicle Originals.png;
#MUSIC:26 - Zigeunerweisen, Op.20.mp3;
#OFFSET:-3.510;
#SAMPLESTART:5.340;
#SAMPLELENGTH:12.000;
#SELECTABLE:YES;
#BPMS:0.000=179.995;
#STOPS:;
#BGCHANGES:;
// cache tags:
#FIRSTBEAT:0.000;
#LASTBEAT:276.000;
#SONGFILENAME:Songs/IzzySM Keyboard Mega Pack/Zigeunerweisen Op 20/Zigeunerweisen, Op.20.sm;
#HASMUSIC:1;
#HASBANNER:1;
#MUSICLENGTH:96.731;
// end cache tags

//---------------dance-single - Maniac----------------
#NOTES:
     dance-single:
     Maniac:
     Hard:
     11:
     1.000,1.000,1.000,0.000,1.000,735.000,145.000,0.000,0.000,1.000:

1000
0010
1000
0010
1000
0010
1000
0001
0100
0001
0100
0001
0100
0001
0100
0010
,
1000
0001
0100
0010
0100
0000
1001
0000
1001
0000
1100
0000
1001
0000
0101
0000
,
1001
0000
1010
0000
1001
0000
0000
0000
0001
0001
0001
0000
0000
0000
1000
0100
,
1000
0010
0100
0010
1000
0100
1000
0001
0100
0001
1000
0100
1000
0010
0100
0010
,
1000
0001
1000
0100
0010
0000
1000
0000
0110
0000
1000
0100
0001
0000
0001
0100
,
1000
0100
0001
0000
0000
0000
0010
0100
1000
0001
1000
0010
0100
0010
1000
0001
,
1000
0010
0100
0010
1000
0001
0100
0010
1000
0001
0100
0010
1000
0100
0010
0001
,
1000
0000
0110
0000
1001
0000
0000
0000
1000
0000
0001
0001
0001
0000
1000
1000
,
1000
0010
0010
0000
0000
0000
1000
0100
1000
0001
1000
0100
1000
0010
1000
0100
,
1000
0010
1000
0100
1000
0001
1000
0010
1000
0100
1000
0010
0100
0001
1000
0010
,
0100
0000
1001
0000
1001
0000
0000
0000
0001
0010
0100
1000
0001
0010
0100
1000
,
0001
0100
0010
1000
0001
0100
0010
1000
0001
0010
0100
1000
0001
0000
0110
0000
,
1001
0000
0000
0000
0100
0000
0000
0000
1000
0100
0010
0001
1000
0100
0010
0001
,
1000
0010
0100
0001
1000
0010
0100
0001
1000
0100
0010
0001
1000
0000
0110
0000
,
1001
0000
0000
0000
0010
0000
0000
0000
1000
0100
0010
0100
1000
0100
0010
0100
,
1000
0100
0010
0100
1000
0100
0010
0100
1000
0100
0010
0100
1000
0000
0110
0000
,
1001
0000
0000
0000
0100
0000
0000
0000
0001
0010
0100
0010
0001
0010
0100
0010
,
0001
0010
0100
0010
0001
0010
0100
0010
0001
0010
0100
0010
0001
0000
0110
0000
,
1001
0000
0110
1001
,
1100
0000
0000
0000
0101
0000
0000
0000
0000
0000
0001
0001
0001
0000
0000
0000
,
1100
0000
0000
0000
0000
0000
0000
0000
1000
0001
1000
0001
1000
0010
0100
0010
,
0100
0010
1000
0001
1000
0010
0100
0010
1000
0001
1000
0010
0100
0010
1000
0001
,
1000
0110
1001
0000
0101
0000
1010
0000
,
1001
0000
0000
0000
0101
0000
0000
0000
0000
0000
0010
0010
0010
0000
0000
0000
,
1001
0000
0000
0000
0000
0000
0000
0000
0001
0010
0001
0100
0010
0100
0001
0010
,
0001
0100
0010
0100
0001
1000
0001
0100
0010
0100
0001
0010
0100
1000
0001
0000
,
0110
1001
0110
0000
1010
1100
1010
1100
,
1010
0000
0110
0000
1010
0000
0110
0000
0001
0010
0100
1000
0100
0010
0001
0010
,
0100
1000
0100
0010
0001
0010
0100
1000
0100
0010
0001
0010
0100
1000
0100
0000
,
1001
0110
1001
0000
0011
1100
0011
1100
,
0011
0000
1100
0000
0011
0000
1100
0000
0001
0100
0010
1000
0010
0100
0001
0100
,
0010
1000
0010
0100
0001
0100
0010
1000
0010
0100
0001
0100
0010
1000
0001
0000
,
0011
0110
1100
0000
1001
1100
1001
1100
,
1001
0000
0101
0000
1001
0000
0101
0000
0001
0010
0001
1000
0100
1000
0010
0100
,
0010
1000
0100
1000
0001
0100
0001
1000
0010
1000
0001
0100
0001
1000
0100
1000
,
0100
1000
0001
0100
0001
0100
0001
0000
0110
0000
1100
0000
0110
0000
0011
0000
,
0110
0000
1100
0000
0110
0000
0011
0000
1000
0100
0001
0100
1000
0100
0010
0100
,
1000
0100
0001
0100
1000
0100
0010
0100
1000
0100
0001
0100
1000
0100
0010
0100
,
1000
0001
0100
0000
1001
1001
1100
1100
,
1001
0000
1001
0000
0011
0000
0000
0000
1000
0100
1000
0000
0000
0000
0000
0000
,
0010
0100
0010
0000
1000
0001
1000
0000
0001
0010
0001
0000
1000
0010
1000
0000
,
0001
0100
0001
0000
1000
0010
1000
0000
0011
0000
0011
0000
1010
0000
1010
0000
,
1100
0000
1100
0000
0101
0000
0000
0000
0001
0010
0100
0000
0000
0000
0000
0000
,
0001
0010
0100
0000
1000
0100
0010
0000
0001
0100
0010
0000
1000
0010
0100
0000
,
0001
0101
1001
0000
1001
0000
1001
0000
,
0101
0000
1100
0000
0000
0000
0000
0000
1000
0100
1000
0000
0101
0000
0001
0000
,
1100
1000
1010
0010
0110
0100
0101
0001
,
1001
0110
1001
1100
,
1001
0011
0000
0000
1100
1100
0110
0110
,
0011
0011
1100
1100
0011
0011
1100
0110
,
0011
0000
0110
0000
1100
0000
0000
0000
0001
0010
0001
0000
0100
0010
0100
0000
,
0000
0000
0001
0010
0100
1000
0010
1000
0010
1000
0001
0100
0001
0000
1000
0000
,
1000
0000
0001
1000
0001
0100
0010
1000
0100
1000
0001
0000
0001
0000
0001
0000
,
1000
0100
1000
0000
0010
0000
0010
0000
1000
0100
1000
0100
1000
0100
1000
0001
,
0100
0001
0100
0001
0100
0000
0000
0000
1000
0100
0010
0001
0010
0000
0100
0000
,
1000
0000
0100
0010
0100
0010
1000
0001
0010
0100
1000
0010
0100
0000
0001
0000
,
1000
0000
0010
0100
0001
0100
0010
1000
0100
0010
0100
0000
1001
0000
0000
0000
,
0001
0010
0100
0000
1001
0000
0000
0000
1000
0100
1000
0001
0100
0001
1000
0010
,
1000
0001
0010
0001
1000
0000
0000
0000
0101
0000
0000
0000
1001
0000
0000
0000
,
1100
0000
0000
0000
0011
0000
0000
0000
0000
0000
1000
0100
1000
0000
0000
0000
,
1001
0000
0000
0000
0010
0000
0000
0000
0001
0010
0001
0010
0100
0010
0001
0010
,
0100
1000
0100
0010
0001
0010
0100
1000
0100
0010
0001
0010
0100
0010
0001
0010
,
0001
1001
0110
0000
1100
0000
0101
0000
,
1100
0000
0000
0000
1100
0000
0101
0000
0000
0000
1000
0100
0010
0000
1001
0000
,
1100
0000
1001
0000
1100
0000
0000
0000
0001
0010
0001
1000
0010
1000
0001
0010
,
0001
1000
0100
1000
0001
0100
0001
1000
0100
1000
0010
0100
0010
1000
0100
1000
,
0001
0100
0001
0100
0010
0100
0001
0100
0001
0100
0010
0100
0001
0100
0010
0100
,
0001
0100
0010
0100
0001
0100
0010
0100
0001
0100
0010
0100
0001
0100
0010
0100
,
0011
0110
1100
0110
0011
0000
0110
0000
,
1101
0000
0000
0000;
