#TITLE:SaPeR BluNt FoRCe TRauMa;
#SUBTITLE:;
#ARTIST:Saper;
#TITLETRANSLIT:;
#SUBTITLETRANSLIT:;
#ARTISTTRANSLIT:;
#CREDIT:;
#BANNER:;
#BACKGROUND:;
#LYRICSPATH:;
#CDTITLE:;
#MUSIC:10._SaPeR_-_BLuNT_FoRCe_TRauMa.ogg;
#OFFSET:0.080;
#SAMPLESTART:55.052;
#SAMPLELENGTH:12.000;
#SELECTABLE:YES;
#BPMS:0.000=137.500,16.000=275.000,17.000=280.000,19.000=135.000,19.250=270.000,20.750=130.000,21.500=300.000,27.000=158.900,29.000=275.000,33.000=550.000,37.000=275.000,38.000=550.000,41.000=275.000,45.000=550.000,47.000=275.000,49.000=550.000,50.000=275.000,59.000=550.000,61.000=275.000,93.000=550.000,101.000=275.000,105.500=550.000,108.000=275.000,149.000=550.000,157.000=275.000,158.000=137.500,161.500=275.000,162.500=137.500,166.000=275.000,167.000=137.500,170.500=275.000,171.500=137.500,175.000=275.000,176.000=137.500,179.500=275.000,184.000=275.000,185.000=137.500,188.500=275.000,189.500=137.500,193.000=275.000,198.500=550.000,217.000=275.000,217.500=137.500,218.000=275.000,218.500=137.500,219.000=550.000,223.000=137.500,224.500=550.000,225.500=137.500,227.000=275.000,227.500=137.500,228.000=275.000,228.500=137.500,229.000=275.000,229.500=137.500,230.000=275.000,230.500=137.500,231.000=275.000,231.500=137.500,232.000=275.000,232.500=137.500,233.000=275.000,233.500=137.500,234.000=275.000,234.500=137.500,235.000=550.000,252.000=275.000,289.000=137.500,290.000=275.000,292.000=137.500,293.000=275.000,295.000=137.500,296.000=275.000,298.000=137.500,300.000=50.290,302.000=275.000,458.500=550.000,462.000=275.000;
#STOPS:33.000=0.054
,33.500=0.054
,34.000=0.055
,34.500=0.054
,35.000=0.054
,35.500=0.054
,36.000=0.054
,36.500=0.054
,38.000=0.054
,38.500=0.054
,39.000=0.054
,39.500=0.055
,40.000=0.054
,40.500=0.054
,45.000=0.055
,45.500=0.054
,46.000=0.055
,46.500=0.054
,49.000=0.109
,59.000=0.109
,60.000=0.110
,93.000=0.109
,94.000=0.109
,95.000=0.109
,96.000=0.109
,97.000=0.054
,97.500=0.054
,98.000=0.054
,98.500=0.054
,99.000=0.054
,99.500=0.054
,100.000=0.054
,100.500=0.054
,105.500=0.054
,106.000=0.055
,106.500=0.055
,107.000=0.055
,107.500=0.055
,149.000=0.109
,150.000=0.110
,151.000=0.027
,151.250=0.027
,151.500=0.027
,151.750=0.027
,152.000=0.027
,152.250=0.027
,152.500=0.027
,152.750=0.027
,153.000=0.027
,153.250=0.027
,153.500=0.027
,153.750=0.026
,154.000=0.028
,154.250=0.027
,154.500=0.027
,154.750=0.027
,155.000=0.028
,155.250=0.028
,155.500=0.026
,155.750=0.027
,156.000=0.027
,156.250=0.027
,156.500=0.029
,156.750=0.027
,157.500=0.002
,180.500=0.054
,180.750=0.054
,181.000=0.054
,181.250=0.054
,181.500=0.054
,181.750=0.054
,182.000=0.054
,182.250=0.054
,182.500=0.054
,182.750=0.054
,183.000=0.054
,183.250=0.058
,183.500=0.054
,183.750=0.054
,190.500=0.076
,198.500=0.054
,199.000=0.110
,200.000=0.109
,201.000=0.109
,202.000=0.027
,202.250=0.027
,202.500=0.027
,202.750=0.027
,203.000=0.027
,203.250=0.027
,203.500=0.028
,203.750=0.027
,204.000=0.109
,205.000=0.028
,205.250=0.027
,205.500=0.028
,205.750=0.027
,206.000=0.109
,207.000=0.027
,207.250=0.028
,207.500=0.027
,207.750=0.027
,208.000=0.109
,209.000=0.027
,209.250=0.027
,209.500=0.028
,209.750=0.027
,210.000=0.027
,210.250=0.027
,210.500=0.027
,210.750=0.027
,211.000=0.027
,211.250=0.028
,211.500=0.027
,211.750=0.027
,212.000=0.109
,213.000=0.055
,213.500=0.054
,214.000=0.109
,215.000=0.109
,216.000=0.110
,217.000=0.109
,218.000=0.110
,219.000=0.110
,220.000=0.054
,220.500=0.054
,221.000=0.110
,222.000=0.109
,223.250=0.005
,224.500=0.104
,225.750=0.005
,227.000=0.104
,228.000=0.110
,229.000=0.110
,230.000=0.110
,231.000=0.108
,232.000=0.109
,233.000=0.109
,234.000=0.109
,235.000=0.109
,236.000=0.109
,237.000=0.054
,237.500=0.054
,238.000=0.109
,239.000=0.054
,239.500=0.054
,240.000=0.110
,241.000=0.055
,241.500=0.054
,242.000=0.109
,243.000=0.109
,244.000=0.109
,245.000=0.109
,246.000=0.109
,247.000=0.109
,248.000=0.110
,249.000=0.109
,250.000=0.054
,250.500=0.054
,251.000=0.108
,251.500=0.015
,294.000=0.004
,297.000=0.003
,458.500=0.054
,459.000=0.054
,459.500=0.054
,460.000=0.054
,460.500=0.054
,461.000=0.054
,461.500=0.054
;
#BGCHANGES:;
// cache tags:
#FIRSTBEAT:7.500;
#LASTBEAT:525.000;
#SONGFILENAME:Songs/SSSC Pack 2/Saper Blunt Force Trauma - [Monst3rjoe]/NEW BLANSIKS.sm;
#HASMUSIC:1;
#HASBANNER:0;
#MUSICLENGTH:130.675;
// end cache tags

//---------------dance-single - Monst3rjoe----------------
#NOTES:
     dance-single:
     Monst3rjoe:
     Challenge:
     13:
     0.853,1.000,0.704,0.383,0.310,621.000,92.000,50.000,331.000,0.000:

0000
0000
0000
0000
,
0000
0000
0000
0000
0000
0000
0000
000M
,
0000
0000
0000
0000
0000
0000
0000
00M0
,
0000
0000
0000
0000
0000
0000
0000
000M
,
40M0
000M
0M00
00M0
000M
0M00
00M0
000M
,
0M00
00M0
000M
0M00
00M0
000M
0M00
00M0
,
000M
0000
0000
0M00
0000
0000
00M0
0000
0000
000M
0000
0000
0000
0000
0000
0000
0000
0000
3000
0MM0
0000
0000
0MM0
0000
,
M00M
0000
0000
0000
0001
1000
0001
1000
0001
1000
0001
1000
0001
1000
0001
1000
,
0001
1000
0001
1000
00M4
0000
0M00
0000
00M0
0000
0M00
0000
00M0
0000
0M00
0000
,
00M0
0000
0M00
0003
1000
0001
1000
0001
4000
0000
0M00
0000
00M0
0000
0M00
0000
,
00M0
3M00
0001
0100
0010
1000
1000
0100
,
0010
0000
M004
01M0
M000
01M3
0010
1000
,
0100
0000
MM11
0000
M1M1
0001
0100
0010
,
1000
1000
0100
0010
0001
0100
0010
1000
,
0100
0010
0001
0100
0100
0010
1M1M
0000
,
1MM1
0000
1100
0000
0100
0010
0001
0100
,
0010
0000
1010
0000
1000
0100
0020
2030
,
3002
0103
0101
0000
0110
0000
0011
0000
,
0101
0000
0100
0010
1000
0100
0100
0010
,
0001
0000
1001
0000
1000
0100
0010
0000
,
0011
0000
0101
0000
0100
0020
0032
2003
,
3100
0000
0010
1000
0001
1000
0100
1000
,
0100
0010
0011
0000
1000
0000
1000
0000
,
0101
0000
0000
0000
0000
0000
0000
0000
0000
0000
0000
0000
0000
0000
0000
0000
2MM2
0000
0000
0000
0000
0000
0000
0000
0000
0000
0000
0000
0000
0000
0000
3003
2MM2
0000
0000
0000
0000
0000
0000
0000
0000
0000
0000
0000
0000
0000
0000
3003
2MM2
0000
0000
0000
0000
0000
0000
0000
0000
0000
0000
0000
0000
0000
0000
3003
,
2MM2
0000
0000
0000
0000
0000
0000
3003
00M1
0000
0000
0000
M400
0000
0000
0000
001M
0000
0000
0000
M000
0000
0000
0000
001M
0000
0000
0000
M000
0000
0000
0000
,
001M
M300
0010
1000
1001
0000
0001
1000
,
0100
0010
0001
M400
001M
M000
001M
M300
,
001M
000M
1000
0001
1000
0100
0010
0100
,
1000
0100
1100
0000
0100
0010
0001
1000
,
0010
1000
0100
0010
0100
0010
0000
0001
,
0100
0000
0020
0000
0032
0000
2003
0000
3100
0000
0001
0000
0100
0010
0100
0010
,
1000
0000
0010
1000
0100
0010
0000
0001
,
0100
0100
0010
1000
0001
1000
0100
0100
,
0000
0MMM
1000
0100
1000
0001
1000
0010
,
1000
0001
1000
0100
0010
0100
1000
0001
,
0100
0100
0010
1000
0000
0100
0000
0000
,
0010
0000
0011
0000
0001
0010
0001
1000
,
0001
0100
M1M1
0000
1MM1
0000
0400
M0M0
,
M00M
0000
M0MM
0000
M00M
0000
00M0
0000
M0MM
0000
00M0
00M0
M00M
0000
00M0
M000
,
000M
00M0
M300
00M0
1001
0000
0000
0000
1001
0000
00M0
00M0
00M0
00M0
00M0
00M0
,
00M0
00M0
00M0
00M0
00M0
0000
0110
0000
0000
0000
0110
0000
000M
M000
00M0
000M
,
0M00
M000
0M00
0000
000M
0000
00M0
0000
0M00
0000
0M00
0000
0M00
0000
0M00
0000
1001
0000
0000
0000
0000
0000
0000
0000
1001
0000
0000
0000
0M00
0000
00M0
0000
,
M000
0M00
M000
00M0
0M00
000M
00M0
000M
M000
000M
0110
0000
0000
0000
0110
0000
,
000M
M000
0M00
00M0
0M00
M000
0M00
00M0
000M
0000
000M
0000
1001
0000
0000
0000
,
1001
0000
00M0
0M00
M00M
0000
00M0
0M00
M00M
0000
0M00
0M00
M00M
0000
0110
0000
,
0000
0000
0110
0000
M000
00M0
0M00
000M
00M0
M000
0M00
000M
00M0
M000
0M00
0001
,
1001
0000
0000
0000
1001
0000
00M0
00M0
00M0
00M0
00M0
00M0
0M00
M000
0M00
000M
,
000M
000M
0110
0000
0000
0000
0110
0000
0000
0000
MMMM
0000
0000
0000
0000
0000
,
0000
0000
0M0M
0000
0M00
00M0
000M
0000
,
0M00
00M0
000M
0000
1000
0001
1000
0000
,
0001
0000
1100
0000
00M0
000M
00M0
000M
,
0M00
0000
0M00
0000
1010
0000
0M00
000M
00M0
M000
0M00
0000
1001
0M00
00M0
000M
,
00M0
0M00
000M
0000
1100
0000
000M
00M0
0M00
M000
00M0
0M00
000M
M000
00M0
0M00
,
000M
M000
0000
0000
01M1
0000
M000
0000
00M0
0M00
0000
0000
1001
0000
0000
0000
,
0004
0000
0003
0000
0011
0000
0020
0030
0110
0000
0200
0300
1100
0000
0000
0000
,
0100
1000
0010
0000
0110
0000
1001
4000
,
0000
3000
1MM1
0000
0000
0000
1MM1
0000
0004
0000
0000
0003
1000
0000
0020
0030
,
0100
0000
2000
3000
0100
0000
0002
0003
0010
0000
0200
0300
0010
0000
2000
3000
,
0010
0000
0002
0003
0100
0000
0020
0030
0100
0000
2000
3000
0100
0000
0000
0000
,
0110
0000
0010
1000
0200
0000
0310
0001
,
0200
0000
0310
1000
0200
0300
0200
0300
,
1001
0000
0040
0030
1001
0000
0400
0300
,
1001
0000
1100
0000
0100
0010
0000
0000
,
0004
0000
0000
0000
0000
0000
0003
0100
,
0040
0000
0000
0000
,
4030
0000
0000
0000
0000
0000
0000
3100
,
0040
0000
0000
0030
,
0011
0000
0000
0101
0000
0000
1010
0000
,
1100
0000
0000
0110
0000
0000
1001
0000
,
0004
00M0
00M0
M000
,
0000
0M00
M000
00M0
,
0M00
M000
00M0
MM00
,
0000
MMM0
MMM0
0000
,
MMM0
MMM0
0000
MMM0
,
MMM3
0000
0000
0000
MMM0
0M00
00M0
M000
,
MMM0
0000
0000
0000
00M0
0000
0000
0000
0M00
0000
0000
0000
000M
0000
0000
M000
0000
0000
0M00
0000
00M0
0000
0000
0000
0110
0000
0000
0000
0000
0000
0000
0000
0000
0000
0000
0000
0000
0000
0000
0000
0000
0000
1001
0000
0000
0000
0000
0000
,
0000
0000
0110
0000
1001
0000
0000
0110
,
0000
0000
1001
0000
1000
0001
MMM1
1000
,
0001
MMM1
1000
0010
1000
0001
0010
0001
,
1000
0010
1000
0001
1001
0000
0000
0011
,
0000
0001
0010
0000
0100
0010
0100
1000
,
0000
0001
0100
0010
1000
1000
0100
0100
,
0000
0010
0001
0100
0010
1000
0100
1000
,
0001
0001
0000
1000
0100
0010
0001
0100
,
0000
0100
0010
1000
0100
0000
1000
0010
,
0000
0100
0001
0010
0001
0100
0010
1000
,
0000
0100
1000
0010
0100
0001
0010
0001
,
0000
0010
0001
0100
0010
0010
1000
0001
,
0001
1000
1000
0100
0010
0001
0001
1000
,
0000
0010
0100
0001
0010
0100
1000
0001
,
0000
0100
0001
0100
0010
1000
0100
0001
,
0100
0010
0001
1000
0001
1000
0001
1000
,
0001
1000
0001
1000
0100
0000
1000
0010
,
0000
0100
0001
0000
1000
0001
MMM1
1000
,
0001
MMM1
0010
0100
1000
0000
0010
0100
,
0000
0001
0010
0100
1000
0000
0001
0100
,
0000
0010
1000
0000
1100
0100
1000
0001
,
0000
0100
0010
0000
0100
0001
0010
0100
,
0000
0000
1100
0000
1001
0000
0001
0010
,
0000
0010
0001
0000
0011
0000
0000
0011
,
0000
0000
0011
0000
0011
0001
0010
0100
,
0000
0100
0010
0000
1100
0100
1000
0001
,
0000
0100
0010
0000
1010
1000
0001
0010
,
0000
0100
1000
0000
0001
0100
1000
0100
,
0001
0010
1000
0010
0100
1000
0010
0100
,
0001
0000
1000
0000
0001
1000
0001
1000
0002
0000
0000
0000
0000
0000
2000
0000
,
0000
0003
3001
1000
0001
0001
1000
1000
,
0001
0000
1000
0000
0001
1000
0001
1000
0002
0000
0000
0000
0000
0000
2000
0000
,
0003
0000
0002
3000
2000
0000
3003
1001
,
0000
0000
0110
0000
1001
0000
0000
0110
,
000M
M000
00M0
0M00
M000
00M0
000M
0M00
,
00M0
M000
000M
0M00
1001
0000
1001
0000
,
00M0
M000
0M00
00M0
000M
M000
0M00
M000
,
00MM
0000
0000
0000
1001
1000
0001
1001
,
0000
0001
1000
0001
4000
000M
00M0
0M00
,
00M0
000M
00M0
3M00
M001
0010
0100
100M
,
0010
0100
M001
0010
010M
1000
0010
M100
,
0001
0000
0001
0000
40M0
3000
0100
0000
M010
0000
0001
0000
0010
0000
M100
0000
,
0010
0000
0000
0000
0000
0000
0000
0000
0000
0000
0000
0000
0000
0000
0000
0000
0000
0000
0000
0000
0000
0000
0000
0000
0100
0000
0000
0000
0000
0000
0000
0000
0000
0000
0000
0000
0000
0000
0000
0000
0000
0000
0000
0000
0000
0000
0000
0000
100M
0000
0000
0000
0000
0000
0000
0000
0000
0000
0000
0000
0000
0000
0000
0000
0000
0000
0000
0000
0000
0000
0000
0000
0010
0000
0000
0000
0000
0000
0000
0000
0000
0000
0000
0000
0000
0000
0000
0000
0000
0000
0000
0000
0000
0000
0000
0000
0200
0300
0000
0000
0000
0000
0000
0000
0000
0000
0000
0000
0000
0000
0000
0000
0000
0000
0000
0000
0000
0000
0000
0000
2000
3000
0000
0000
0000
0000
0000
0000
0000
0000
0000
0000
0000
0000
0000
0000
0000
0000
0000
0000
0000
0000
0000
0000
0002
0003
0000
0000
0000
0000
0000
0000
0000
0000
0000
0000
0000
0000
0000
0000
0000
0000
0000
0000
0000
0000
0000
0000
0020
0030
0000
0000
0000
0000
0000
0000
0000
0000
0000
0000
0000
0000
0000
0000
0000
0000
0000
0000
0000
0000
0000
0000
,
0002
0003
0000
0000
0000
0000
0000
0000
0000
0000
0000
0000
0000
0000
0000
0000
0000
0000
0000
0000
0000
0000
0000
0000
2000
3000
0000
0000
0000
0000
0000
0000
0000
0000
0000
0000
0000
0000
0000
0000
0000
0000
0000
0000
0000
0000
0000
0000
0200
0300
0000
0000
0000
0000
0000
0000
0000
0000
0000
0000
0000
0000
0000
0000
0000
0000
0000
0000
0000
0000
0000
0000
0002
0003
0000
0000
0000
0000
0000
0000
0000
0000
0000
0000
0000
0000
0000
0000
0000
0000
0000
0000
0000
0000
0000
0000
1000
0000
0000
0000
0000
0000
0000
0000
0000
0000
0000
0000
0000
0000
0000
0000
0000
0000
0000
0000
0000
0000
0000
0000
0100
0000
0000
0000
0000
0000
0000
0000
0000
0000
0000
0000
0000
0000
0000
0000
0000
0000
0000
0000
0000
0000
0000
0000
0010
0000
0000
0000
0000
0000
0000
0000
0000
0000
0000
0000
0000
0000
0000
0000
0000
0000
0000
0000
0000
0000
0000
0000
0001
0000
0000
0000
0000
0000
0000
0000
0000
0000
0000
0000
0000
0000
0000
0000
0000
0000
0000
0000
0000
0000
0000
0000
,
0100
0010
1000
0001
1000
0010
0100
0010
,
1000
0000
0100
0000
0002
0003
0100
0000
0010
0000
0001
0000
0100
0000
2000
3000
,
0100
0000
2000
3000
0100
0000
0001
0000
0010
0000
0100
0000
1000
0000
0100
0000
,
0002
0003
0100
0000
0020
0030
0001
0000
0100
0000
1000
0000
0100
0000
0010
0000
,
0001
0010
0100
1000
0100
0010
0001
0010
,
0100
1000
0100
0001
0010
1000
0010
0100
,
0001
0100
0010
1000
0010
0100
0001
0100
,
0010
1000
0010
0100
1000
0001
0100
0001
,
0100
0010
1000
0000
0100
1000
1000
0001
,
0010
0100
1000
0100
1000
0001
1000
0001
,
1000
0000
0001
0000
1000
0001
1000
0001
1000
0000
0001
0000
0100
0000
0010
0000
,
1000
1001
0000
0000
;
