#TITLE:Energizer;
#SUBTITLE:;
#ARTIST:ZiGZaG;
#TITLETRANSLIT:;
#SUBTITLETRANSLIT:;
#ARTISTTRANSLIT:;
#CREDIT:;
#BANNER:Energizer-bn.png;
#BACKGROUND:Energizer-bg.png;
#LYRICSPATH:;
#CDTITLE:!spazzbiteTitle.png;
#MUSIC:Energizer.mp3;
#OFFSET:-0.215;
#SAMPLESTART:40.350;
#SAMPLELENGTH:11.590;
#SELECTABLE:YES;
#BPMS:0.000=303.000,264.333=76.000,281.000=70.000,282.000=303.000;
#STOPS:;
#BGCHANGES:;
// cache tags:
#FIRSTBEAT:16.000;
#LASTBEAT:482.000;
#SONGFILENAME:Songs/Fresh Flock of Fantastic Files F4/(Spazzbite) Energizer/Energizer.sm;
#HASMUSIC:1;
#HASBANNER:1;
#MUSICLENGTH:107.937;
// end cache tags

//---------------dance-double - ----------------
#NOTES:
     dance-double:
     :
     Challenge:
     13:
     1.000,1.000,0.667,0.241,0.287,705.000,72.000,26.000,12.000,17.000:
00000000
00000000
00000000
00000000
,
00000000
00000000
00000000
00000000
,
00000000
00000000
00000000
00000000
,
00000000
00000000
00000000
00000000
,
00000000
00000000
00000000
00000000
,
00000000
00000000
00000000
00000000
,
00000000
00000000
00000000
00000000
00001001
00000000
00000010
00001000
,
00000100
00000000
00001000
00000010
00002020
00000000
00010000
00000000
,
00010100
00003030
00000000
00000000
00010000
00000000
00001000
01000000
,
00010000
00000000
00100000
00010000
00220000
00000000
00001000
00000000
,
01001000
00330000
00000000
00000000
00010000
00000000
01000000
00100000
,
10000000
00000000
01000000
00100000
02200000
00000000
00010000
00000000
,
10010000
03300000
00000000
00000000
01000000
10000000
00000000
00010000
,
01000000
00000000
00001000
00010000
00000000
00000001
00001000
00000000
,
00000100
00000010
00000001
00000100
00000010
00001000
00000100
00000000
,
00000010
00000000
00000001
00000100
00000010
00000000
00010000
00001000
,
00000000
00000100
00001000
00000000
00010000
00001000
01000000
00000000
,
00100000
00000000
10000000
01000000
00100000
00000000
00001000
00010000
,
00000000
01000000
00010000
00000000
00001000
00010000
00000100
00000000
,
00000010
00000000
00000001
00000100
00000010
00000000
00010000
00100000
,
00000000
10000000
01000000
00000000
00100000
00001000
00000100
00000000
,
00000001
00000000
00000010
00000100
00001000
00000000
00000001
00000200
,
00000010
00000001
00000010
00000300
00001000
00000100
00000010
00000000
,
00000100
00000000
00100000
00010000
01000000
00000000
00001000
00010000
,
00000000
00000010
00000100
00000000
00001000
00010000
00000100
00000000
,
00000010
00000000
00000100
00010000
00100000
00000000
01000000
00100000
,
00000000
10000000
01000000
00000000
00100000
00010000
10000000
00000000
,
01000000
00000000
00100000
00001000
00000010
00000000
00000001
00000100
,
00000000
00000010
00001000
00000000
00000100
00000000
00000010
00001001
,
00000000
00000000
00000010
00000100
00000001
00000000
00001000
00000200
,
00001000
00000310
00000110
00001100
,
00011000
00000000
01000000
00100000
10000000
00000000
01000000
00100000
,
00010000
01000000
00100000
00000000
01000000
00001000
00010000
00000000
,
00010100
00000000
00010000
00001000
00100000
00000000
00011000
00000000
,
00010010
00001100
01000100
00011000
,
00001010
00000000
00000010
00000100
00001000
00000000
00000001
00000100
,
00000010
00001000
00000100
00000000
00000010
00000001
00000100
00001000
,
00010000
00000100
00010000
00001000
01000000
00000000
00011000
00000000
,
01001000
00000000
00010000
10000000
01000000
00000000
01100000
00000000
,
10010000
00000000
10000000
01000000
00100000
00010000
10000000
00100000
,
01000000
00010000
01000000
10000000
01000000
00100000
01000000
00001000
,
00010000
00001000
00100000
00001000
00010000
00000010
00001000
00000100
,
00000001
00000100
00001000
00000010
00001000
00000001
00000010
00000100
,
00001000
00000001
00000100
00000010
00000100
00000001
00000100
00001000
,
00000100
00000010
00010000
00001000
00010000
00000100
00010000
00001000
,
01000000
00001000
00010000
00001000
00100000
00000000
01000100
00000000
,
00022000
00000000
00000000
00000000
00033000
00000000
00001000
00010000
,
00000100
00000000
00000010
00000000
00002200
00000000
00000000
00010000
,
00010010
00003300
00000000
00000000
00001001
00000000
00000100
00000010
,
00001000
00000000
00001100
00000000
00000010
00010000
00001000
01000000
,
00100000
00000000
10010000
00000000
01010000
00000000
00100000
00010000
,
01000000
00000000
10100000
00000000
20020000
00000000
00000000
01000000
,
01100000
30030000
00000000
00000000
10010000
00000000
01000000
00100000
,
00001000
00000000
00011000
00000000
00010000
00000100
00001000
00000001
,
00000010
00000100
00001000
00000000
0000MMMM
00000000
00001000
00000001
,
00000100
00000000
00000110
00000000
00020020
00000000
00000000
00000100
,
00001100
00030030
00000000
00000000
00011000
00000000
00001000
01000000
,
00100000
02020000
00100000
00101000
,
10100000
03030000
00000000
00000000
10100000
00000000
01000000
00100000
,
00001000
00000000
00100010
00000000
00022000
00000000
00000000
00000010
,
00000110
00033000
00000000
00000000
00010100
00000000
00001000
00000100
,
00000010
00000000
00000000
00000011
00000000
00000000
00000001
00000000
00001000
00000000
00000100
00000000
,
00010000
00000000
00001000
00000000
01000000
00000000
00220000
00000000
00000000
00000000
00000000
00000000
,
00000000
00000000
00000000
00000000
,
00000000
00000000
00000000
00000000
,
00000000
00000000
00000000
00000000
,
00000000
00000000
00000000
00000000
00000000
00000000
00330000
00000000
00000000
00000000
MMMM0000
00000000
10000000
00100000
01000000
00010000
01000000
00100000
10000000
01000000
00100000
00010000
10000000
00100000
,
00010000
00001000
00000010
00000001
00001000
00000010
00000100
00000001
00000100
00000010
00001000
00000100
00000010
00001000
00010000
00100000
10000000
01000000
00100000
00001000
00010000
01000000
00100000
00001000
,
00010000
00100000
01000000
00010000
10000000
01000000
00010000
00001000
00000010
00000100
00010000
00001000
00000100
00000001
00001000
00000100
00000010
00000001
00001000
00000010
00000100
00000010
00001000
00000001
,
00000010
00000100
00010000
00001000
01000000
00010000
10000000
00100000
00010000
00100000
10000000
01000000
00100000
00001000
00010000
00000100
00000010
00000001
00001000
00000010
00010000
00001000
01000000
00010000
,
10010000
00000000
00000000
00000000
MMMM0000
00000000
01010000
00000000
00000000
10010000
00000000
00000000
00100000
00000000
00000000
00010000
00000000
00000000
01000000
00000000
00000000
00100000
00000000
00000000
,
10000000
01000000
00100000
00010000
01000000
00100000
10000000
01000000
,
00100000
00010000
10010000
00000000
00001000
00010000
00000100
00010000
,
00001000
00010000
00000010
00001000
00000100
00001000
00000001
00000000
,
00000101
00000000
00001001
00000000
00001000
00000100
00000010
00000001
,
00000100
00000010
00001000
00000100
00010000
00001000
01000000
00100000
,
01000000
00010000
10000000
01000000
00010000
01000000
10000000
00100000
,
01000000
00010000
00100000
00001000
00010000
00001000
01000000
00010000
,
00100000
00001000
00010000
00000000
01000000
00010000
00001000
00010000
,
00000100
00001000
00000010
00000100
00000001
00000010
00000100
00001000
,
00000001
00000100
00000010
00001000
00000100
00000010
00000001
00000100
,
00000010
00010000
00001000
01000000
00001000
00010000
01000000
10000000
,
01000000
00010000
01000000
00100000
00010000
01000000
00100000
01000000
,
00001000
00010000
01000000
10000000
00010000
10000000
00100000
10000000
,
01000000
00100000
00010000
01000000
00001000
00010000
00001000
00000010
,
00000001
00001000
00000010
00000100
00000001
00000010
00000100
00001000
,
00000001
00000100
00000101
00000000
00000001
00001000
00000010
00000000
,
00000100
00000000
00000001
00001000
00000100
00000000
00010000
00001000
,
00000000
00000100
00001000
00000000
00100000
00010000
01000000
00000000
,
00100000
00000000
10000000
01000000
00100000
00000000
00010000
10000000
,
00000000
00001000
00010000
00000000
00000100
00010000
01000000
00000000
,
00010000
00000000
00001000
00010000
00000010
00000000
00000100
00000001
,
00000000
00000100
00001000
00000000
00010000
00001000
01000000
00000000
,
00001000
00000000
00010000
00000100
00000010
00000000
00000001
00000200
,
00000010
00000001
00000010
00000300
00001000
00000100
00000010
00000000
,
00000001
00000000
00000100
00000010
00010000
00000000
00100000
10000000
,
00000000
01000000
00100000
00000000
00010000
10000000
01000000
00000000
,
00100000
00000000
00001000
01000000
00010000
00000000
00100000
01000000
,
00000000
00010000
00000010
00000000
00001000
00000100
00000010
00000000
,
00000001
00000000
00000100
00000010
00001000
00000000
00000100
00000001
,
00000000
00000100
00010000
00000000
00100000
00000000
10000000
01000000
,
00000000
00000000
00100000
00010000
01000000
00000000
00100000
20000000
,
01000000
00000000
00010000
30000000
00100000
10000000
01000000
00100000
,
00010000
01000000
00100000
00000000
01000000
00000000
01001000
00000000
,
00011000
00000000
00010010
00000000
00010000
00001000
01000000
00001000
,
00010000
00000100
00010000
00001000
00000010
00001000
00000100
00000010
,
00000001
00000000
00001100
00000000
00000001
00000100
00000010
00010000
,
00001000
01000000
00001000
00010000
00001000
00000000
00011000
00000000
,
00010010
00000000
00001010
00000000
00000001
00000100
00000010
00001000
,
00000100
00001000
00000001
00000100
00000010
00010000
00001000
00000000
,
00011000
00000000
00010100
00000000
00001000
00000100
00010000
00001000
,
01000000
00100000
10000000
01000000
00100000
00000000
00110000
00000000
,
00101000
00000000
00011000
00000000
01000000
00001000
00010000
00001000
,
00100000
00010000
01000000
00100000
10000000
01000000
00100000
00010000
,
01000000
00100000
10000000
01000000
00100000
00001000
00010000
00000100
,
00001000
00000010
00000100
00000001
00001000
00000000
00001001
00000000
,
00011000
00000000
10100000
00000000
10000000
00100000
01000000
00001000
,
00010000
00000100
00000010
00000001
00000100
00000010
00001000
00000100
,
00010000
00000100
01000000
00001000
02020000
00000000
00000000
00000000
,
00000000
00000000
00000000
00000000
,
00000000
00000000
03030000
00000000
;

//---------------dance-single - ----------------
#NOTES:
     dance-single:
     :
     Hard:
     12:
     0.944,1.000,0.834,0.037,0.148,619.000,90.000,4.000,0.000,0.000:
0000
0000
0000
0000
,
0000
0000
0000
0000
,
0000
0000
0000
0000
,
0000
0000
0000
0000
,
0100
1000
0010
0000
0010
1000
0100
0000
,
0000
0101
0000
0000
,
0001
1000
0010
0000
0010
1000
0100
1000
,
0100
1000
0010
1000
0010
0000
0000
0000
,
0001
0100
0001
0000
1000
0100
1000
0000
,
0000
1010
0000
0000
,
1000
0010
0001
0000
0001
0010
0100
0010
,
0001
1000
0010
1000
0100
0000
0000
0000
,
0001
1000
0001
0000
0001
1000
0100
0000
,
0000
0000
1010
0000
0000
0000
0001
0010
,
0100
0010
0100
1000
0010
0100
0001
1000
,
0010
1000
0100
0010
0001
1000
0001
0010
,
0001
0000
0001
0000
0001
1000
0001
0000
,
0001
1000
0000
1000
0010
0000
0010
0100
,
0010
0000
0010
0000
0010
1000
0100
0000
,
0100
0010
0000
0010
0100
0000
1000
0001
,
1000
0000
1000
0000
1000
0001
1000
0000
,
0001
0010
0000
0010
0001
0000
0100
0001
,
0100
0000
0100
0000
0100
1000
0010
0000
,
1000
0010
0000
1000
0010
0000
0001
0010
,
0001
0000
0001
0000
0001
1000
0100
0000
,
1000
0010
0000
0010
0100
0000
0001
0010
,
0100
0000
1000
0000
0010
0100
0010
0000
,
1000
0010
0000
0010
1000
0000
0100
0010
,
0001
0000
0100
0000
0001
1000
0001
0000
,
0001
0100
0000
0100
0010
0000
0100
0001
,
0100
0000
0001
0000
0001
1000
0010
0000
,
1000
0010
0000
0010
0100
0000
0001
0000
,
0100
0001
1000
0010
,
1000
0010
0001
1000
,
0001
0000
1000
0000
0001
1000
0001
0000
,
0010
0001
1000
0001
,
1000
0010
0100
0001
,
0010
0001
1000
0100
,
1000
0000
0010
0000
0100
1000
0001
0000
,
0010
0100
1000
0010
,
0100
0000
0001
0010
0001
0010
0100
0010
,
0100
1000
0010
1000
0010
0100
0001
0100
,
0001
0100
1000
0010
0100
0001
0010
0001
,
0100
0010
0100
0010
1000
0010
0100
0001
,
1000
0100
1000
0001
0100
0010
1000
0010
,
0001
0010
0100
1000
0100
0010
0001
0100
,
0001
0010
0001
0100
0010
1000
0001
0100
,
0001
0010
0100
0010
0001
0000
0000
0000
,
0010
1000
0100
0000
0001
0000
1100
0000
,
0000
1001
0000
0000
,
0001
1000
0001
0000
0001
1000
0010
0100
,
0010
0100
0001
0100
0001
0000
0000
0000
,
0001
1000
0100
0000
0100
0000
0110
0000
,
0000
1001
0000
0000
,
0100
1000
0001
0000
0001
0000
0100
1000
,
0010
1000
0010
0100
0000
0000
0000
0000
,
0001
1000
0001
0000
0001
0000
1000
0000
,
0000
1010
0000
0000
,
0001
0100
0001
0000
0001
1000
0100
0000
,
0011
0101
0000
0000
,
0100
0010
0100
0000
1000
0000
1100
0000
,
0000
0101
0000
0000
,
0010
0000
0000
0100
0000
0000
1000
0000
0000
0000
0000
0000
0001
0000
0000
0000
0000
0000
1001
0000
0000
0000
1010
0000
,
0000
0101
0000
0011
0000
1010
0000
0110
0000
2002
0000
0000
,
0000
0000
0000
0000
,
0000
0000
0000
0000
,
3003
0000
0000
0000
0000
0000
0000
0000
0000
0000
0000
0000
1001
0000
0010
0000
1100
0110
0011
0000
0001
0000
1001
0011
,
0101
0000
0000
0000
0010
0000
1100
0000
0000
0000
0001
0000
0101
0000
0000
1001
1001
0000
0010
0000
0100
0000
0001
0000
,
1100
0000
0000
0000
0000
0000
0001
0000
0010
0000
0100
0000
1001
0000
0010
0000
0101
1001
1010
0000
0001
0000
1010
0011
,
1010
0000
0000
0000
1000
0000
0101
0000
0000
0000
0010
0000
1001
0000
0000
0110
1010
0000
0001
0000
1000
0000
0010
0000
,
0101
0101
1000
0010
,
0001
0010
1000
0010
,
0100
0001
0010
0100
,
1000
0000
0010
1000
0010
0000
0100
0000
,
0001
0010
0100
1000
,
0010
0100
0001
0010
,
0100
1000
0010
0100
,
0001
0010
1000
0010
,
0001
1000
0100
0010
0100
1000
0001
1000
,
0001
1000
0010
0100
0001
0100
0001
0100
,
0010
0100
0001
1000
0010
1000
0100
0010
,
0001
1000
0010
0100
0001
0010
0001
1000
,
0100
1000
0010
0100
0001
0010
0100
1000
,
0100
0001
1000
0100
0010
0001
1000
0010
,
0100
0001
0100
0010
1000
0010
0100
0001
,
0010
0001
0100
1000
0100
0010
0001
1000
,
0100
1000
0001
0000
0010
0001
0101
0000
,
0101
0000
1000
0010
1000
0000
1001
0110
,
0000
0101
1001
0000
0001
1000
1100
0000
,
1100
0000
0010
0100
0010
0000
0110
0101
,
0000
0101
0011
0000
0001
0010
0110
0000
,
0110
0000
0010
0001
1000
0000
0101
1010
,
0000
1010
0101
0000
0001
1000
0001
0000
,
0010
0000
1000
0010
1010
0000
0011
1100
,
0000
0101
1001
0000
0001
1000
0100
0000
,
1000
0000
0010
0100
1001
0000
1001
1010
,
0000
1010
1001
0000
0010
1000
0110
0000
,
0101
0000
0001
0010
0001
0000
0110
1100
,
0000
1001
0011
0000
0100
0001
0010
0000
,
0100
0000
0100
1000
0010
0000
0010
0100
,
0000
0100
0001
0000
0001
0010
0100
0000
,
0010
0000
0100
1000
0100
0000
1000
0000
,
0010
0000
0001
0000
1000
0010
0100
0010
,
1000
0100
1001
0000
0000
0000
0001
1000
,
0100
0000
0100
1000
0001
0000
0001
0010
,
0100
1000
0010
0100
,
0001
0000
0100
0000
0100
1000
0001
0010
,
0001
1000
1001
0000
0000
0000
0001
0010
,
0100
0000
0000
0000
0000
0000
1001
0000
0100
0000
1000
0000
,
1010
0000
0000
0000
0000
0000
1001
0000
0100
0000
0001
0000
,
0011
0000
0001
0000
1000
0010
0100
0001
,
0100
0010
1001
0000
0000
0000
0100
0010
,
0100
0100
0001
1000
,
0010
0100
1000
0001
,
0100
0001
0010
0100
,
0001
1000
0010
0100
,
1000
0000
0100
0000
0010
0000
1001
0100
,
0010
1000
0101
0010
1000
0001
0110
1000
,
0001
0100
1001
0010
2002
0000
0000
0000
,
0000
0000
3003
0000
;
