#TITLE:Adios;
#SUBTITLE:;
#ARTIST:Rammstein;
#TITLETRANSLIT:;
#SUBTITLETRANSLIT:;
#ARTISTTRANSLIT:;
#CREDIT:;
#BANNER:Adios - bn.png;
#BACKGROUND:Adios - bg.png;
#LYRICSPATH:;
#CDTITLE:../aCD.png;
#MUSIC:Adios.ogg;
#OFFSET:0.009;
#SAMPLESTART:86.426;
#SAMPLELENGTH:16.000;
#SELECTABLE:YES;
#DISPLAYBPM:311.000;
#BPMS:0.000=305.000,6.000=315.000,20.000=311.000,32.000=310.900,96.000=310.750,160.000=311.000,192.000=310.600,256.000=310.800,320.000=310.520,384.000=311.000,448.000=310.800,480.000=311.000,544.000=310.800,608.000=310.600,640.000=311.300,704.000=310.500,768.000=294.000,772.000=308.000,776.000=293.000,782.000=274.500;
#STOPS:;
#BGCHANGES:;
// cache tags:
#FIRSTBEAT:8.000;
#LASTBEAT:816.000;
#SONGFILENAME:Songs/Aoreo's Index Jawn 2/Adios - [Aoreo]/Adios.sm;
#HASMUSIC:1;
#HASBANNER:1;
#MUSICLENGTH:160.366;
// end cache tags

//---------------dance-single - J. Nero----------------
#NOTES:
     dance-single:
     J. Nero:
     Challenge:
     31:
     1.000,1.000,0.000,0.150,1.000,2258.000,0.000,24.000,0.000,0.000:
0000
0000
0000
0000
,
0000
0000
0000
0000
,
1000
0001
0010
0100
,
1000
0010
0100
0001
,
1000
0100
1000
0010
0100
0001
0010
0100
,
1000
0001
0100
0001
0010
0100
1000
0010
,
1000
0100
0010
0001
1000
0010
0100
0010
,
1000
0001
1000
0100
0010
0001
1000
0010
,
1000
0001
1000
0010
0100
0001
0100
0010
1000
0001
1000
0010
0100
0001
1000
0001
,
0010
0100
1000
0001
1000
0010
0100
0001
1000
0001
0010
0100
1000
0001
0100
0001
,
0100
0010
1000
0010
0100
0001
1000
0010
1000
0001
0010
0100
0010
0001
1000
0001
,
0100
0010
1000
0010
0100
0001
1000
0001
0100
0010
1000
0001
0100
0001
1000
0010
,
0100
0001
1000
0001
0010
0100
0010
0001
1000
0001
0100
0010
1000
0010
0100
0001
,
1000
0001
0010
0100
1000
0001
1000
0010
0100
0001
0100
0010
1000
0001
0010
0100
,
0010
0001
1000
0001
0100
0010
1000
0010
0100
0001
1000
0001
0010
0100
1000
0001
,
1000
0010
0100
0001
0100
0010
1000
0001
1000
0100
0010
0100
1000
0001
0010
0001
,
1000
0010
0100
0001
0100
0010
1000
0001
1000
0100
0010
0100
1000
0001
1000
0100
,
0010
0001
1000
0001
0100
0010
1000
0010
0100
0001
1000
0001
0010
0100
0010
0001
,
1000
0001
0100
0010
1000
0010
0100
0001
1000
0001
0010
0100
1000
0001
1000
0010
,
0100
0001
1000
0100
0010
0100
1000
0001
1000
0010
0100
0001
0100
0010
1000
0001
,
1000
0010
0100
0001
0100
0010
1000
0001
1000
0100
0010
0001
1000
0001
0100
0010
,
1000
0010
0100
0001
1000
0001
0010
0100
1000
0001
0100
0001
1000
0010
0100
0010
,
1000
0001
1000
0100
0010
0100
1000
0001
0100
0010
0100
0001
1000
0001
0010
0100
,
1000
0001
1000
0010
0100
0001
1000
0001
0010
0100
1000
0001
1000
0010
0100
0001
,
1000
0100
1000
0010
0100
0010
1000
0100
,
0010
0001
1000
0001
0100
0001
0010
0100
,
1000
0010
0100
0010
1000
0100
0010
0001
,
0100
0001
1000
0100
2000
3010
0200
0301
,
0020
0130
1000
0001
0100
0010
0100
0001
,
0010
0001
1000
0100
0010
0100
1000
0010
,
0100
0010
1000
0100
0010
0001
1000
0010
,
1000
0100
1000
0001
0020
0031
0200
0310
,
2000
3100
0010
0001
0100
0010
0100
0001
,
0010
0100
1000
0001
0100
0010
0100
0001
,
1000
0001
0010
0100
1000
0010
0100
0010
,
1000
0100
0010
0100
2000
3010
0200
0301
,
0020
0130
1000
0001
1000
0010
0100
0010
,
1000
0001
0010
0100
1000
0001
0100
0001
,
1000
0010
0100
0010
1000
0001
0010
0100
,
1000
0001
1000
0001
1000
0001
1000
0001
,
1000
0010
0100
0001
1000
0001
0010
0100
0010
0001
1000
0001
0100
0010
1000
0001
,
1000
0010
0100
0001
0100
0010
1000
0001
1000
0100
0010
0100
1000
0001
1000
0001
,
0100
0010
1000
0010
0100
0001
1000
0001
0010
0100
0010
0001
1000
0001
0100
0010
,
1000
0010
0100
0001
1000
0001
0010
0100
0010
0001
1000
0010
0100
0001
0100
0010
,
1000
0001
0010
0100
0010
0001
1000
0001
0100
0010
1000
0010
0100
0001
1000
0001
,
0010
0100
1000
0001
1000
0010
0100
0001
0100
0010
1000
0001
1000
0100
0010
0100
,
1000
0001
1000
0010
0100
0001
0100
0010
1000
0001
1000
0100
0010
0001
1000
0001
,
0100
0010
1000
0010
0100
0001
1000
0100
0010
0100
1000
0001
1000
0010
0100
0001
,
1000
0100
1000
0010
0100
0010
1000
0001
,
0010
0001
1000
0010
1000
0100
0010
0001
,
1000
0001
0100
0010
0100
0001
1000
0100
,
0010
0100
0010
0001
2000
3010
0200
0301
,
0020
0130
1000
0010
0100
0010
1000
0100
,
0010
0001
1000
0010
0100
0010
1000
0100
,
1000
0001
1000
0010
0100
0001
1000
0001
,
0010
0100
1000
0001
0020
0031
0200
0310
,
2000
3100
1000
0001
0100
0010
0100
0001
,
1000
0100
0010
0100
1000
0001
0100
0001
,
1000
0100
1000
0010
1000
0001
0010
0100
,
1000
0010
1000
0001
0020
0031
0200
0310
,
2000
3100
0010
0100
1000
0010
0100
0010
,
2000
3100
0010
0001
0100
0001
1000
0010
,
0100
0010
1000
0001
0010
0100
1000
0010
,
1000
0001
1000
0001
1000
0001
1000
0001
,
1000
0010
0100
0010
1000
0001
0100
0001
1000
0010
0100
0010
1000
0001
1000
0100
,
0010
0001
1000
0001
0100
0010
0100
0001
1000
0010
0100
0010
1000
0001
1000
0100
,
0010
0001
1000
0001
0100
0010
1000
0010
0100
0001
0100
0001
1000
0010
0100
0001
,
1000
0001
0010
0100
0010
0001
1000
0001
0100
0010
1000
0010
0100
0001
1000
0010
,
1000
0001
0100
0010
0100
0001
1000
0001
0010
0100
0010
0001
1000
0001
0100
0010
,
1000
0010
0100
0001
0100
0010
1000
0001
0100
0001
1000
0100
0010
0001
1000
0001
,
0100
0010
1000
0010
0100
0001
1000
0001
0010
0100
1000
0001
1000
0010
0100
0001
,
0100
0010
1000
0001
1000
0100
0010
0001
1000
0001
0100
0010
1000
0010
0100
0001
,
1000
0001
0010
0100
1000
0001
1000
0010
0100
0010
1000
0001
1000
0100
0010
0001
,
1000
0001
0100
0010
1000
0010
0100
0001
1000
0001
0100
0010
1000
0010
0100
0001
,
1000
0001
0010
0100
1000
0001
1000
0010
0100
0001
0100
0010
1000
0001
0010
0100
,
1000
0001
1000
0010
0100
0001
0100
0010
1000
0001
1000
0100
0010
0001
1000
0001
,
0100
0010
1000
0001
0010
0100
0010
0001
1000
0001
0100
0010
1000
0010
0100
0001
,
1000
0001
0010
0100
1000
0001
1000
0010
0100
0001
0100
0010
1000
0010
0100
0001
,
1000
0001
1000
0100
0010
0100
1000
0001
1000
0010
0100
0001
0100
0001
1000
0010
,
0100
0010
1000
0001
1000
0100
0010
0001
1000
0001
0100
0010
1000
0010
0100
0001
,
1000
0001
0010
0100
,
1000
0010
0100
0001
,
1000
0100
1000
0010
,
1000
0100
0010
0001
,
0100
0001
0010
0100
,
1000
0010
0100
0001
,
0010
0001
0100
0001
,
0010
0100
1000
0010
,
1000
0001
0100
0010
,
0100
0001
1000
0001
,
0010
0100
1000
0010
,
0100
0001
1000
0001
,
0200
0000
0000
0000
,
0000
0000
0000
0000
,
0300
0000
0000
0000
,
0000
0000
0000
0000
,
0001
1000
0001
0100
0010
1000
0001
1000
0010
0100
0001
0100
0010
1000
0001
1000
,
0100
0010
0001
0100
0001
1000
0010
0100
0010
1000
0001
1000
0100
0010
0100
1000
,
0001
1000
0010
0100
0001
0100
0010
1000
0001
0100
0001
1000
0010
0100
0010
1000
,
0001
1000
0010
0100
0001
0100
0001
1000
0100
0010
0100
1000
0001
1000
0010
0100
,
0001
1000
0001
1000
0010
0100
0001
0100
0010
1000
0001
1000
0100
0010
0100
1000
,
0001
1000
0010
0100
0001
0100
0010
1000
0001
0100
0010
0100
0001
1000
0100
0010
,
0100
1000
0001
1000
0010
0100
0001
1000
0001
0010
0100
0010
0001
1000
0001
0100
,
0010
1000
0010
0100
0001
1000
0010
0100
0010
1000
0001
1000
0100
0010
0001
1000
,
0001
0100
0010
1000
0010
0100
0001
1000
0001
0100
0010
0100
0001
1000
0001
0010
,
0100
1000
0001
1000
0010
0100
0001
0100
0010
1000
0001
1000
0100
0010
0001
1000
,
0001
0100
0010
0100
0001
1000
0100
0010
0100
1000
0001
1000
0010
0100
0001
0100
,
0010
1000
0001
0100
0001
0100
0010
1000
0001
1000
0100
0010
0100
1000
0001
1000
,
0010
0100
0001
0100
0010
1000
0001
1000
0010
0100
0001
0100
0001
1000
0100
0010
,
0001
0100
0001
1000
0010
0100
0001
1000
0100
0010
0100
1000
0010
0100
0001
0100
,
0010
1000
0001
1000
0100
0010
0001
1000
0001
0100
0010
0100
0001
1000
0001
0010
,
0100
0010
0001
1000
0010
0100
0001
1000
0001
0010
0100
1000
0001
1000
0010
0100
,
0001
1000
0001
0000
0100
0100
1000
0000
,
0100
0100
0001
0000
0010
0010
1000
0001
,
0100
0100
1000
0000
0100
0100
0001
0000
,
0010
0010
1000
0100
0100
0001
0010
0001
,
0100
0100
1000
0000
0100
0100
0001
0000
,
0010
0010
1000
0000
0100
0100
0001
0000
,
0010
0010
1000
0000
0100
0100
0001
0000
,
0010
0010
1000
0100
0100
0001
0010
0010
,
1000
0001
1000
0010
0100
0001
1000
0001
0010
0100
1000
0010
1000
0001
0100
0010
,
0100
0001
1000
0100
0010
0100
1000
0010
0100
0001
0100
0010
1000
0001
0010
0100
,
0010
0001
0100
0010
1000
0010
0100
0001
1000
0001
0010
0100
1000
0010
1000
0001
,
0100
0001
1000
0100
0010
0001
0100
0001
1000
0010
0100
0010
1000
0001
1000
0100
,
0010
0100
1000
0010
0100
0001
0100
0010
1000
0001
1000
0100
0010
0001
0100
0010
,
1000
0010
0100
0001
1000
0100
0010
0001
0100
0001
1000
0010
0100
0001
0100
0010
,
1000
0100
0010
0100
1000
0001
0100
0010
0100
0001
0010
0100
1000
0001
0100
0010
,
1000
0100
1000
0001
0100
0001
0010
0100
1000
0001
0100
0010
0100
0001
1000
0010
,
1000
0100
0010
0001
1000
0010
0100
0001
0010
0100
0010
0001
1000
0010
0100
0001
,
1000
0001
0010
0100
1000
0001
1000
0010
0100
0001
0100
0010
1000
0100
0010
0001
,
1000
0001
0100
0010
1000
0010
0100
0001
1000
0100
0010
0100
1000
0010
0100
0001
,
1000
0001
0010
0100
1000
0010
0100
0001
0100
0010
1000
0001
0100
0010
0100
0001
,
1000
0100
0010
0100
1000
0010
0100
0001
0100
0010
1000
0001
1000
0100
0010
0001
,
0100
0001
1000
0010
0100
0010
1000
0001
1000
0010
0100
0001
0010
0100
1000
0010
,
1000
0001
0100
0001
0100
0010
1000
0001
1000
0100
0010
0001
0100
0001
1000
0010
,
0100
0010
1000
0001
0010
0100
0010
0001
0100
0010
1000
0010
0100
0001
1000
0010
,
1000
0100
1000
0010
0100
0010
1000
0100
,
0010
0001
1000
0001
0100
0001
0010
0100
,
1000
0010
0100
0010
1000
0100
0010
0001
,
0100
0001
1000
0100
1000
0010
0100
0001
,
0010
0100
1000
0001
0100
0010
0100
0001
,
0010
0001
1000
0100
0010
0100
1000
0010
,
0100
0010
1000
0100
0010
0001
1000
0010
,
1000
0100
1000
0001
0010
0001
0100
0010
,
1000
0100
0010
0001
0100
0010
0100
0001
,
0010
0100
1000
0001
0100
0010
0100
0001
,
1000
0001
0010
0100
1000
0010
0100
0010
,
1000
0100
0010
0100
1000
0010
0100
0001
,
0010
0100
1000
0001
1000
0010
0100
0010
,
1000
0001
0010
0100
1000
0001
0100
0001
,
1000
0010
0100
0010
1000
0001
0010
0100
,
1000
0001
1000
0001
1000
0001
1000
0001
,
2000
3000
0000
0000
,
0000
0000
0000
0000
,
0000
0000
0000
0000
,
0000
0000
0000
0000
,
0000
0000
0000
0000
,
0000
0000
0000
0000
,
0000
0000
0000
0000
,
0002
0003
0000
0000
0000
0000
0000
0000
0002
0003
0000
0000
0000
0000
0000
0000
,
1000
0001
1000
0010
0100
0001
1000
0001
0010
0100
1000
0010
1000
0001
0100
0010
,
0100
0001
1000
0100
0010
0100
1000
0010
0100
0001
0100
0010
1000
0001
0010
0100
,
0010
0001
0100
0010
1000
0010
0100
0001
1000
0001
0010
0100
1000
0010
1000
0001
,
0100
0001
1000
0100
0010
0001
0100
0001
1000
0010
0100
0010
1000
0001
1000
0100
,
0010
0100
1000
0010
0100
0001
0100
0010
1000
0001
1000
0100
0010
0001
0100
0010
,
1000
0010
0100
0001
1000
0100
0010
0001
0100
0001
1000
0010
0100
0001
0100
0010
,
1000
0100
0010
0100
1000
0001
0100
0010
0100
0001
0010
0100
1000
0001
0100
0010
,
1000
0100
1000
0001
0100
0001
0010
0100
1000
0001
0100
0010
0100
0001
1000
0010
,
1000
0100
0010
0001
1000
0010
0100
0001
0010
0100
0010
0001
1000
0010
0100
0001
,
1000
0001
0010
0100
1000
0001
1000
0010
0100
0001
0100
0010
1000
0100
0010
0001
,
1000
0001
0100
0010
1000
0010
0100
0001
1000
0100
0010
0100
1000
0010
0100
0001
,
1000
0001
0010
0100
1000
0010
0100
0001
0100
0010
1000
0001
0100
0010
0100
0001
,
1000
0100
0010
0100
1000
0010
0100
0001
0100
0010
1000
0001
1000
0100
0010
0001
,
0100
0001
1000
0010
0100
0010
1000
0001
1000
0010
0100
0001
0010
0100
1000
0010
,
1000
0001
0100
0001
0100
0010
1000
0001
1000
0100
0010
0001
0100
0001
1000
0010
,
0100
0010
1000
0001
0010
0100
0010
0001
0100
0010
1000
0010
0100
0001
1000
0010
,
1000
0001
0100
0010
1000
0001
1000
0100
0010
0001
0100
0001
1000
0010
0100
0010
,
1000
0001
0010
0100
0010
0001
0100
0010
1000
0010
0100
0001
1000
0100
0010
0100
,
1000
0010
0100
0001
0100
0010
1000
0001
1000
0100
0010
0001
0100
0001
1000
0010
,
1000
0001
0010
0100
1000
0010
1000
0001
0100
0010
0100
0001
1000
0001
0010
0100
,
0010
0001
0100
0010
1000
0010
0100
0001
1000
0001
0010
0100
1000
0010
0100
0001
,
0100
0010
1000
0001
0010
0100
1000
0010
1000
0001
0100
0010
1000
0010
0100
0001
,
0010
0100
0010
0001
1000
0010
0100
0010
1000
0100
0010
0001
1000
0010
0100
0001
,
0010
0001
1000
0010
1000
0100
0010
0001
1000
0010
0100
0010
1000
0001
0100
0001
,
0010
0100
1000
0001
0100
0010
1000
0100
0010
0100
1000
0001
0100
0010
1000
0001
,
1000
0100
0010
0001
1000
0001
0100
0010
1000
0010
0100
0001
0010
0100
1000
0001
,
1000
0010
0100
0001
0100
0010
1000
0001
0010
0100
0010
0001
0100
0010
1000
0001
,
1000
0100
0010
0001
0100
0010
1000
0010
0100
0001
1000
0010
0100
0010
1000
0001
,
0010
0100
0010
0001
0100
0010
1000
0010
0100
0001
1000
0001
0010
0100
1000
0010
,
1000
0001
0100
0010
0100
0001
1000
0001
0100
0010
1000
0100
0010
0001
0100
0001
,
1000
0010
1000
0010
0100
0001
1000
0001
0010
0100
1000
0010
1000
0001
0100
0010
,
0100
0001
1000
0100
0010
0100
1000
0010
0100
0001
0100
0010
1000
0001
0100
0001
,
1000
0100
0010
0001
1000
0001
0100
0010
1000
0010
0100
0001
1000
0001
1000
0100
,
0010
0001
1000
0001
0100
0010
1000
0010
0100
0001
0100
0001
1000
0010
0100
0001
,
1000
0001
0010
0100
0010
0001
1000
0001
0100
0010
0100
0001
1000
0001
0010
0100
,
1000
0001
1000
0010
0100
0001
0100
0010
1000
0001
0010
0100
1000
0010
0100
0001
,
2000
0000
0000
0000
,
0000
0000
0000
0000
,
0000
0000
0000
0000
,
0000
0000
0000
0000
,
0000
0000
0000
0000
,
0000
0000
0000
0000
,
0000
0000
0000
0000
,
0000
0000
0000
0000
,
3000
0000
0000
0000
;

//---------------dance-single - J. Nero----------------
#NOTES:
     dance-single:
     J. Nero:
     Hard:
     30:
     1.000,1.000,0.037,0.156,1.000,2072.000,6.000,25.000,0.000,0.000:
0000
0000
0000
0000
,
0000
0000
0000
0000
,
1000
0001
0010
0100
,
1000
0010
0100
0001
,
1000
0100
1000
0010
0100
0001
0010
0100
,
1000
0001
0100
0001
0010
0100
1000
0010
,
1000
0100
0010
0001
1000
0010
0100
0010
,
1000
0001
1000
0100
0010
0001
1000
0010
,
1000
0001
1000
0010
0100
0001
0100
0010
1000
0001
1000
0010
0100
0001
1000
0001
,
0010
0100
1000
0001
1000
0010
0100
0001
1000
0001
0010
0100
1000
0001
0100
0001
,
0100
0010
1000
0010
0100
0001
1000
0010
1000
0001
0010
0100
0010
0001
1000
0001
,
0100
0010
1000
0010
0100
0001
1000
0001
0100
0010
1000
0001
0100
0001
1000
0010
,
0100
0001
1000
0001
0010
0100
0010
0001
1000
0001
0100
0010
1000
0010
0100
0001
,
1000
0001
0010
0100
1000
0001
1000
0010
0100
0001
0100
0010
1000
0001
0010
0100
,
0010
0001
1000
0001
0100
0010
1000
0010
0100
0001
1000
0001
0010
0100
1000
0001
,
1000
0010
0100
0001
0100
0010
1000
0001
1000
0100
0010
0100
1000
0001
0010
0001
,
1000
0010
0100
0001
0100
0010
1000
0001
1000
0100
0010
0100
1000
0001
1000
0100
,
0010
0001
1000
0001
0100
0010
1000
0010
0100
0001
1000
0001
0010
0100
0010
0001
,
1000
0001
0100
0010
1000
0010
0100
0001
1000
0001
0010
0100
1000
0001
1000
0010
,
0100
0001
1000
0100
0010
0100
1000
0001
1000
0010
0100
0001
0100
0010
1000
0001
,
1000
0010
0100
0001
0100
0010
1000
0001
1000
0100
0010
0001
1000
0001
0100
0010
,
1000
0010
0100
0001
1000
0001
0010
0100
1000
0001
0100
0001
1000
0010
0100
0010
,
1000
0001
1000
0100
0010
0100
1000
0001
0100
0010
0100
0001
1000
0001
0010
0100
,
1000
0001
1000
0010
0100
0001
1000
0001
0010
0100
1000
0001
1000
0010
0100
0001
,
1000
0100
1000
0010
0100
0010
1000
0100
,
0010
0001
1000
0001
0100
0001
0010
0100
,
1000
0010
0100
0010
1000
0100
0010
0001
,
0100
0001
1000
0100
2000
3010
0200
0301
,
0020
0130
1000
0001
0100
0010
0100
0001
,
0010
0001
1000
0100
0010
0100
1000
0010
,
0100
0010
1000
0100
0010
0001
1000
0010
,
1000
0100
1000
0001
0020
0031
0200
0310
,
2000
3100
0010
0001
0100
0010
0100
0001
,
0010
0100
1000
0001
0100
0010
0100
0001
,
1000
0001
0010
0100
1000
0010
0100
0010
,
1000
0100
0010
0100
2000
3010
0200
0301
,
0020
0130
1000
0001
1000
0010
0100
0010
,
1000
0001
0010
0100
1000
0001
0100
0001
,
1000
0010
0100
0010
1000
0001
0010
0100
,
1000
0001
1000
0001
1000
0001
1000
0001
,
1000
0010
0100
0001
1000
0001
0010
0100
0010
0001
1000
0001
0100
0010
1000
0001
,
1000
0010
0100
0001
0100
0010
1000
0001
1000
0100
0010
0100
1000
0001
1000
0001
,
0100
0010
1000
0010
0100
0001
1000
0001
0010
0100
0010
0001
1000
0001
0100
0010
,
1000
0010
0100
0001
1000
0001
0010
0100
0010
0001
1000
0010
0100
0001
0100
0010
,
1000
0001
0010
0100
0010
0001
1000
0001
0100
0010
1000
0010
0100
0001
1000
0001
,
0010
0100
1000
0001
1000
0010
0100
0001
0100
0010
1000
0001
1000
0100
0010
0100
,
1000
0001
1000
0010
0100
0001
0100
0010
1000
0001
1000
0100
0010
0001
1000
0001
,
0100
0010
1000
0010
0100
0001
1000
0100
0010
0100
1000
0001
1000
0010
0100
0001
,
1000
0100
1000
0010
0100
0010
1000
0001
,
0010
0001
1000
0010
1000
0100
0010
0001
,
1000
0001
0100
0010
0100
0001
1000
0100
,
0010
0100
0010
0001
2000
3010
0200
0301
,
0020
0130
1000
0010
0100
0010
1000
0100
,
0010
0001
1000
0010
0100
0010
1000
0100
,
1000
0001
1000
0010
0100
0001
1000
0001
,
0010
0100
1000
0001
0020
0031
0200
0310
,
2000
3100
1000
0001
0100
0010
0100
0001
,
1000
0100
0010
0100
1000
0001
0100
0001
,
1000
0100
1000
0010
1000
0001
0010
0100
,
1000
0010
1000
0001
0020
0031
0200
0310
,
2000
3100
0010
0100
1000
0010
0100
0010
,
2000
3100
0010
0001
0100
0001
1000
0010
,
0100
0010
1000
0001
0010
0100
1000
0010
,
1000
0001
1000
0001
1000
0001
1000
0001
,
1000
0010
0100
0010
1000
0001
0100
0001
1000
0010
0100
0010
1000
0001
1000
0100
,
0010
0001
1000
0001
0100
0010
0100
0001
1000
0010
0100
0010
1000
0001
1000
0100
,
0010
0001
1000
0001
0100
0010
1000
0010
0100
0001
0100
0001
1000
0010
0100
0001
,
1000
0001
0010
0100
0010
0001
1000
0001
0100
0010
1000
0010
0100
0001
1000
0010
,
1000
0001
0100
0010
0100
0001
1000
0001
0010
0100
0010
0001
1000
0001
0100
0010
,
1000
0010
0100
0001
0100
0010
1000
0001
0100
0001
1000
0100
0010
0001
1000
0001
,
0100
0010
1000
0010
0100
0001
1000
0001
0010
0100
1000
0001
1000
0010
0100
0001
,
0100
0010
1000
0001
1000
0100
0010
0001
1000
0001
0100
0010
1000
0010
0100
0001
,
1000
0001
0010
0100
1000
0001
1000
0010
0100
0010
1000
0001
1000
0100
0010
0001
,
1000
0001
0100
0010
1000
0010
0100
0001
1000
0001
0100
0010
1000
0010
0100
0001
,
1000
0001
0010
0100
1000
0001
1000
0010
0100
0001
0100
0010
1000
0001
0010
0100
,
1000
0001
1000
0010
0100
0001
0100
0010
1000
0001
1000
0100
0010
0001
1000
0001
,
0100
0010
1000
0001
0010
0100
0010
0001
1000
0001
0100
0010
1000
0010
0100
0001
,
1000
0001
0010
0100
1000
0001
1000
0010
0100
0001
0100
0010
1000
0010
0100
0001
,
1000
0001
1000
0100
0010
0100
1000
0001
1000
0010
0100
0001
0100
0001
1000
0010
,
0100
0010
1000
0001
1000
0100
0010
0001
1000
0001
0100
0010
1000
0010
0100
0001
,
1000
0001
0010
0100
,
1000
0010
0100
0001
,
1000
0100
1000
0010
,
1000
0100
0010
0001
,
0100
0001
0010
0100
,
1000
0010
0100
0001
,
0010
0001
0100
0001
,
0010
0100
1000
0010
,
1000
0001
0100
0010
,
0100
0001
1000
0001
,
0010
0100
1000
0010
,
0100
0001
1000
0001
,
0200
0000
0000
0000
,
0000
0000
0000
0000
,
0300
0000
0000
0000
,
0000
0000
0000
0000
,
0001
1000
0001
0100
0010
1000
0001
1000
0010
0100
0001
0100
0010
1000
0001
1000
,
0100
0010
0001
0100
0001
1000
0010
0100
0010
1000
0001
1000
0100
0010
0100
1000
,
0001
1000
0010
0100
0001
0100
0010
1000
0001
0100
0001
1000
0010
0100
0010
1000
,
0001
1000
0010
0100
0001
0100
0001
1000
0100
0010
0100
1000
0001
1000
0010
0100
,
0001
1000
0001
1000
0010
0100
0001
0100
0010
1000
0001
1000
0100
0010
0100
1000
,
0001
1000
0010
0100
0001
0100
0010
1000
0001
0100
0010
0100
0001
1000
0100
0010
,
0100
1000
0001
1000
0010
0100
0001
1000
0001
0010
0100
0010
0001
1000
0001
0100
,
0010
1000
0010
0100
0001
1000
0010
0100
0010
1000
0001
1000
0100
0010
0001
1000
,
0001
0100
0010
1000
0010
0100
0001
1000
0001
0100
0010
0100
0001
1000
0001
0010
,
0100
1000
0001
1000
0010
0100
0001
0100
0010
1000
0001
1000
0100
0010
0001
1000
,
0001
0100
0010
0100
0001
1000
0100
0010
0100
1000
0001
1000
0010
0100
0001
0100
,
0010
1000
0001
0100
0001
0100
0010
1000
0001
1000
0100
0010
0100
1000
0001
1000
,
0010
0100
0001
0100
0010
1000
0001
1000
0010
0100
0001
0100
0001
1000
0100
0010
,
0001
0100
0001
1000
0010
0100
0001
1000
0100
0010
0100
1000
0010
0100
0001
0100
,
0010
1000
0001
1000
0100
0010
0001
1000
0001
0100
0010
0100
0001
1000
0001
0010
,
0100
0010
0001
1000
0010
0100
0001
1000
0001
0010
0100
1000
0001
1000
0010
0100
,
0001
1000
0001
0000
0100
0100
1000
0000
,
0100
0100
0001
0000
0010
0010
1000
0001
,
0100
0100
1000
0000
0100
0100
0001
0000
,
0010
0010
1000
0100
0100
0001
0010
0001
,
0100
0100
1000
0000
0100
0100
0001
0000
,
0010
0010
1000
0000
0100
0100
0001
0000
,
0010
0010
1000
0000
0100
0100
0001
0000
,
0010
0010
1000
0100
0100
0001
0010
0010
,
0100
0100
1000
0001
0100
0100
1000
0001
,
0100
0100
0100
0100
0100
0100
1000
0001
,
0010
0010
1000
0001
0010
0010
1000
0001
,
0100
0100
0100
0100
0100
0100
1000
0001
,
0100
0100
1000
0010
0100
0100
1000
0001
,
0010
0010
1000
0001
0100
0100
1000
0001
,
0010
0010
1000
0001
0100
0100
1000
0001
,
0100
0100
0100
0100
0100
0100
1000
0001
,
0010
0010
1000
0001
0100
0100
1000
0001
,
0100
0100
1000
0001
0010
0010
1000
0001
,
0100
0100
1000
0001
0010
0010
1000
0001
,
0100
0100
0100
0100
0100
0100
1000
0001
,
0010
0010
1000
0001
0100
0100
1000
0001
,
0010
0010
1000
0001
0100
0100
1000
0001
,
0100
0100
1000
0001
0010
0010
1000
0001
,
0100
0100
0100
0100
0100
0100
1000
0001
,
1000
0100
1000
0010
0100
0010
1000
0100
,
0010
0001
1000
0001
0100
0001
0010
0100
,
1000
0010
0100
0010
1000
0100
0010
0001
,
0100
0001
1000
0100
1000
0010
0100
0001
,
0010
0100
1000
0001
0100
0010
0100
0001
,
0010
0001
1000
0100
0010
0100
1000
0010
,
0100
0010
1000
0100
0010
0001
1000
0010
,
1000
0100
1000
0001
0010
0001
0100
0010
,
1000
0100
0010
0001
0100
0010
0100
0001
,
0010
0100
1000
0001
0100
0010
0100
0001
,
1000
0001
0010
0100
1000
0010
0100
0010
,
1000
0100
0010
0100
1000
0010
0100
0001
,
0010
0100
1000
0001
1000
0010
0100
0010
,
1000
0001
0010
0100
1000
0001
0100
0001
,
1000
0010
0100
0010
1000
0001
0010
0100
,
1000
0001
1000
0001
1000
0001
1000
0001
,
2000
3000
0000
0000
,
0000
0000
0000
0000
,
0000
0000
0000
0000
,
0000
0000
0000
0000
,
0000
0000
0000
0000
,
0000
0000
0000
0000
,
0000
0000
0000
0000
,
0002
0003
0000
0000
0000
0000
0000
0000
0002
0003
0000
0000
0000
0000
0000
0000
,
1000
0001
1000
0010
0100
0001
1000
0001
0010
0100
1000
0010
1000
0001
0100
0010
,
0100
0001
1000
0100
0010
0100
1000
0010
0100
0001
0100
0010
1000
0001
0010
0100
,
0010
0001
0100
0010
1000
0010
0100
0001
1000
0001
0010
0100
1000
0010
1000
0001
,
0100
0001
1000
0100
0010
0001
0100
0001
1000
0010
0100
0010
1000
0001
1000
0100
,
0010
0100
1000
0010
0100
0001
0100
0010
1000
0001
1000
0100
0010
0001
0100
0010
,
1000
0010
0100
0001
1000
0100
0010
0001
0100
0001
1000
0010
0100
0001
0100
0010
,
1000
0100
0010
0100
1000
0001
0100
0010
0100
0001
0010
0100
1000
0001
0100
0010
,
1000
0100
1000
0001
0100
0001
0010
0100
1000
0001
0100
0010
0100
0001
1000
0010
,
1000
0100
0010
0001
1000
0010
0100
0001
0010
0100
0010
0001
1000
0010
0100
0001
,
1000
0001
0010
0100
1000
0001
1000
0010
0100
0001
0100
0010
1000
0100
0010
0001
,
1000
0001
0100
0010
1000
0010
0100
0001
1000
0100
0010
0100
1000
0010
0100
0001
,
1000
0001
0010
0100
1000
0010
0100
0001
0100
0010
1000
0001
0100
0010
0100
0001
,
1000
0100
0010
0100
1000
0010
0100
0001
0100
0010
1000
0001
1000
0100
0010
0001
,
0100
0001
1000
0010
0100
0010
1000
0001
1000
0010
0100
0001
0010
0100
1000
0010
,
1000
0001
0100
0001
0100
0010
1000
0001
1000
0100
0010
0001
0100
0001
1000
0010
,
0100
0010
1000
0001
0010
0100
0010
0001
0100
0010
1000
0010
0100
0001
1000
0010
,
1000
0001
0100
0010
1000
0001
1000
0100
0010
0001
0100
0001
1000
0010
0100
0010
,
1000
0001
0010
0100
0010
0001
0100
0010
1000
0010
0100
0001
1000
0100
0010
0100
,
1000
0010
0100
0001
0100
0010
1000
0001
1000
0100
0010
0001
0100
0001
1000
0010
,
1000
0001
0010
0100
1000
0010
1000
0001
0100
0010
0100
0001
1000
0001
0010
0100
,
0010
0001
0100
0010
1000
0010
0100
0001
1000
0001
0010
0100
1000
0010
0100
0001
,
0100
0010
1000
0001
0010
0100
1000
0010
1000
0001
0100
0010
1000
0010
0100
0001
,
0010
0100
0010
0001
1000
0010
0100
0010
1000
0100
0010
0001
1000
0010
0100
0001
,
0010
0001
1000
0010
1000
0100
0010
0001
1000
0010
0100
0010
1000
0001
0100
0001
,
0010
0100
1000
0001
0100
0010
1000
0100
0010
0100
1000
0001
0100
0010
1000
0001
,
1000
0100
0010
0001
1000
0001
0100
0010
1000
0010
0100
0001
0010
0100
1000
0001
,
1000
0010
0100
0001
0100
0010
1000
0001
0010
0100
0010
0001
0100
0010
1000
0001
,
1000
0100
0010
0001
0100
0010
1000
0010
0100
0001
1000
0010
0100
0010
1000
0001
,
0010
0100
0010
0001
0100
0010
1000
0010
0100
0001
1000
0001
0010
0100
1000
0010
,
1000
0001
0100
0010
0100
0001
1000
0001
0100
0010
1000
0100
0010
0001
0100
0001
,
1000
0010
1000
0010
0100
0001
1000
0001
0010
0100
1000
0010
1000
0001
0100
0010
,
0100
0001
1000
0100
0010
0100
1000
0010
0100
0001
0100
0010
1000
0001
0100
0001
,
1000
0000
0000
0000
,
1001
0000
0000
0000
,
0101
0000
0011
0000
,
0110
0000
1100
0000
,
2002
0000
0000
0000
,
0000
0000
0000
0000
,
0000
0000
0000
0000
,
0000
0000
0000
0000
,
0000
0000
0000
0000
,
0000
0000
0000
0000
,
0000
0000
0000
0000
,
0000
0000
0000
0000
,
3003
0000
0000
0000
;

//---------------dance-single - J. Nero----------------
#NOTES:
     dance-single:
     J. Nero:
     Medium:
     28:
     1.000,1.000,0.062,0.256,1.000,1958.000,10.000,41.000,0.000,0.000:
0000
0000
0000
0000
,
0000
0000
0000
0000
,
1000
0001
0010
0100
,
1000
0010
0100
0001
,
1000
0100
1000
0010
0100
0001
0010
0100
,
1000
0001
0100
0001
0010
0100
1000
0010
,
1000
0100
0010
0001
1000
0010
0100
0010
,
1000
0001
1000
0100
0010
0001
1000
0010
,
1000
0001
1000
0010
0100
0001
0100
0010
1000
0001
1000
0010
0100
0001
1000
0001
,
0010
0100
1000
0001
1000
0010
0100
0001
1000
0001
0010
0100
1000
0001
0100
0001
,
0100
0010
1000
0010
0100
0001
1000
0010
1000
0001
0010
0100
0010
0001
1000
0001
,
0100
0010
1000
0010
0100
0001
1000
0001
0100
0010
1000
0001
0100
0001
1000
0010
,
0100
0001
1000
0001
0010
0100
0010
0001
1000
0001
0100
0010
1000
0010
0100
0001
,
1000
0001
0010
0100
1000
0001
1000
0010
0100
0001
0100
0010
1000
0001
0010
0100
,
0010
0001
1000
0001
0100
0010
1000
0010
0100
0001
1000
0001
0010
0100
1000
0001
,
1000
0010
0100
0001
0100
0010
1000
0001
1000
0100
0010
0100
1000
0001
0010
0001
,
1000
0010
0100
0001
0100
0010
1000
0001
1000
0100
0010
0100
1000
0001
1000
0100
,
0010
0001
1000
0001
0100
0010
1000
0010
0100
0001
1000
0001
0010
0100
0010
0001
,
1000
0001
0100
0010
1000
0010
0100
0001
1000
0001
0010
0100
1000
0001
1000
0010
,
0100
0001
1000
0100
0010
0100
1000
0001
1000
0010
0100
0001
0100
0010
1000
0001
,
1000
0010
0100
0001
0100
0010
1000
0001
1000
0100
0010
0001
1000
0001
0100
0010
,
1000
0010
0100
0001
1000
0001
0010
0100
1000
0001
0100
0001
1000
0010
0100
0010
,
1000
0001
1000
0100
0010
0100
1000
0001
0100
0010
0100
0001
1000
0001
0010
0100
,
1000
0001
1000
0010
0100
0001
1000
0001
0010
0100
1000
0001
1000
0010
0100
0001
,
1000
0100
1000
0010
0100
0010
1000
0100
,
0010
0001
1000
0001
0100
0001
0010
0100
,
1000
0010
0100
0010
1000
0100
0010
0001
,
0100
0001
1000
0100
2000
3010
0200
0301
,
0020
0130
1000
0001
0100
0010
0100
0001
,
0010
0001
1000
0100
0010
0100
1000
0010
,
0100
0010
1000
0100
0010
0001
1000
0010
,
1000
0100
1000
0001
0020
0031
0200
0310
,
2000
3100
0010
0001
0100
0010
0100
0001
,
0010
0100
1000
0001
0100
0010
0100
0001
,
1000
0001
0010
0100
1000
0010
0100
0010
,
1000
0100
0010
0100
2000
3010
0200
0301
,
0020
0130
1000
0001
1000
0010
0100
0010
,
1000
0001
0010
0100
1000
0001
0100
0001
,
1000
0010
0100
0010
1000
0001
0010
0100
,
1000
0001
1000
0001
1000
0001
1000
0001
,
1000
0010
0100
0001
1000
0001
0010
0100
0010
0001
1000
0001
0100
0010
1000
0001
,
1000
0010
0100
0001
0100
0010
1000
0001
1000
0100
0010
0100
1000
0001
1000
0001
,
0100
0010
1000
0010
0100
0001
1000
0001
0010
0100
0010
0001
1000
0001
0100
0010
,
1000
0010
0100
0001
1000
0001
0010
0100
0010
0001
1000
0010
0100
0001
0100
0010
,
1000
0001
0010
0100
0010
0001
1000
0001
0100
0010
1000
0010
0100
0001
1000
0001
,
0010
0100
1000
0001
1000
0010
0100
0001
0100
0010
1000
0001
1000
0100
0010
0100
,
1000
0001
1000
0010
0100
0001
0100
0010
1000
0001
1000
0100
0010
0001
1000
0001
,
0100
0010
1000
0010
0100
0001
1000
0100
0010
0100
1000
0001
1000
0010
0100
0001
,
1000
0100
1000
0010
0100
0010
1000
0001
,
0010
0001
1000
0010
1000
0100
0010
0001
,
1000
0001
0100
0010
0100
0001
1000
0100
,
0010
0100
0010
0001
2000
3010
0200
0301
,
0020
0130
1000
0010
0100
0010
1000
0100
,
0010
0001
1000
0010
0100
0010
1000
0100
,
1000
0001
1000
0010
0100
0001
1000
0001
,
0010
0100
1000
0001
0020
0031
0200
0310
,
2000
3100
1000
0001
0100
0010
0100
0001
,
1000
0100
0010
0100
1000
0001
0100
0001
,
1000
0100
1000
0010
1000
0001
0010
0100
,
1000
0010
1000
0001
0020
0031
0200
0310
,
2000
3100
0010
0100
1000
0010
0100
0010
,
2000
3100
0010
0001
0100
0001
1000
0010
,
0100
0010
1000
0001
0010
0100
1000
0010
,
1000
0001
1000
0001
1000
0001
1000
0001
,
2000
3200
0310
0001
0100
0001
1000
0100
,
2000
3020
0130
0001
0010
0100
1000
0001
,
0200
0320
1030
0100
0010
0001
0100
0010
,
1000
0001
0010
0100
0010
0001
1000
0001
0100
0010
1000
0010
0100
0001
1000
0010
,
2000
3200
1300
0010
0100
0001
0010
0100
,
2000
3020
0130
0010
1000
0100
0010
0001
,
0200
0302
1003
0100
1000
0010
0100
0001
,
0100
0010
1000
0100
0010
0001
0100
0010
,
1000
0001
0010
0100
1000
0001
1000
0010
0100
0010
1000
0001
1000
0100
0010
0001
,
2000
3200
1300
0010
0100
0001
0010
0100
,
1000
0001
0010
0100
1000
0001
1000
0010
0100
0001
0100
0010
1000
0001
0010
0100
,
1000
0001
1000
0010
0100
0001
0100
0010
1000
0001
1000
0100
0010
0001
1000
0001
,
0100
0010
1000
0001
0010
0100
0010
0001
1000
0001
0100
0010
1000
0010
0100
0001
,
2000
3200
0310
0001
0100
0001
1000
0010
,
1000
0001
1000
0100
0010
0100
1000
0001
1000
0010
0100
0001
0100
0001
1000
0010
,
0100
0001
0010
0100
1000
0010
0100
0001
,
1000
0001
0010
0100
,
1000
0010
0100
0001
,
1000
0100
1000
0010
,
1000
0100
0010
0001
,
0100
0001
0010
0100
,
1000
0010
0100
0001
,
0010
0001
0100
0001
,
0010
0100
1000
0010
,
1000
0001
0100
0010
,
0100
0001
1000
0001
,
0010
0100
1000
0010
,
0100
0001
1000
0001
,
0200
0000
0000
0000
,
0000
0000
0000
0000
,
0300
0000
0000
0000
,
0000
0000
0000
0000
,
0001
1000
0001
0100
0010
1000
0001
1000
0010
0100
0001
0100
0010
1000
0001
1000
,
0100
0010
0001
0100
0001
1000
0010
0100
0010
1000
0001
1000
0100
0010
0100
1000
,
0001
1000
0010
0100
0001
0100
0010
1000
0001
0100
0001
1000
0010
0100
0010
1000
,
0001
1000
0010
0100
0001
0100
0001
1000
0100
0010
0100
1000
0001
1000
0010
0100
,
0001
1000
0001
1000
0010
0100
0001
0100
0010
1000
0001
1000
0100
0010
0100
1000
,
0001
1000
0010
0100
0001
0100
0010
1000
0001
0100
0010
0100
0001
1000
0100
0010
,
0100
1000
0001
1000
0010
0100
0001
1000
0001
0010
0100
0010
0001
1000
0001
0100
,
0010
1000
0010
0100
0001
1000
0010
0100
0010
1000
0001
1000
0100
0010
0001
1000
,
0001
0100
0010
1000
0010
0100
0001
1000
0001
0100
0010
0100
0001
1000
0001
0010
,
0100
1000
0001
1000
0010
0100
0001
0100
0010
1000
0001
1000
0100
0010
0001
1000
,
0001
0100
0010
0100
0001
1000
0100
0010
0100
1000
0001
1000
0010
0100
0001
0100
,
0010
1000
0001
0100
0001
0100
0010
1000
0001
1000
0100
0010
0100
1000
0001
1000
,
0010
0100
0001
0100
0010
1000
0001
1000
0010
0100
0001
0100
0001
1000
0100
0010
,
0001
0100
0001
1000
0010
0100
0001
1000
0100
0010
0100
1000
0010
0100
0001
0100
,
0010
1000
0001
1000
0100
0010
0001
1000
0001
0100
0010
0100
0001
1000
0001
0010
,
0100
1000
0001
0000
1001
0000
1000
0000
,
0010
0010
0001
0000
0100
0100
1000
0000
,
0100
0100
0001
0000
0010
0010
1000
0001
,
0100
0100
1000
0000
0100
0100
0001
0000
,
0010
0010
1000
0100
0100
0001
0010
0001
,
0100
0100
1000
0000
0100
0100
0001
0000
,
0010
0010
1000
0000
0100
0100
0001
0000
,
0010
0010
1000
0000
0100
0100
0001
0000
,
0010
0010
1000
0100
0100
0001
0010
0010
,
0100
0100
1000
0001
0100
0100
1000
0001
,
0100
0100
0100
0100
0100
0100
1000
0001
,
0010
0010
1000
0001
0010
0010
1000
0001
,
0100
0100
0100
0100
0100
0100
1000
0001
,
0100
0100
1000
0010
0100
0100
1000
0001
,
0010
0010
1000
0001
0100
0100
1000
0001
,
0010
0010
1000
0001
0100
0100
1000
0001
,
0100
0100
0100
0100
0100
0100
1000
0001
,
0010
0010
1000
0001
0100
0100
1000
0001
,
0100
0100
1000
0001
0010
0010
1000
0001
,
0100
0100
1000
0001
0010
0010
1000
0001
,
0100
0100
0100
0100
0100
0100
1000
0001
,
0010
0010
1000
0001
0100
0100
1000
0001
,
0010
0010
1000
0001
0100
0100
1000
0001
,
0100
0100
1000
0001
0010
0010
1000
0001
,
0100
0100
0100
0100
0100
0100
1000
0001
,
1000
0100
1000
0010
0100
0010
1000
0100
,
0010
0001
1000
0001
0100
0001
0010
0100
,
1000
0010
0100
0010
1000
0100
0010
0001
,
0100
0001
1000
0100
1000
0010
0100
0001
,
0010
0100
1000
0001
0100
0010
0100
0001
,
0010
0001
1000
0100
0010
0100
1000
0010
,
0100
0010
1000
0100
0010
0001
1000
0010
,
1000
0100
1000
0001
0010
0001
0100
0010
,
1000
0100
0010
0001
0100
0010
0100
0001
,
0010
0100
1000
0001
0100
0010
0100
0001
,
1000
0001
0010
0100
1000
0010
0100
0010
,
1000
0100
0010
0100
1000
0010
0100
0001
,
0010
0100
1000
0001
1000
0010
0100
0010
,
1000
0001
0010
0100
1000
0001
0100
0001
,
1000
0010
0100
0010
1000
0001
0010
0100
,
1000
0001
1000
0001
1000
0001
1000
0001
,
2000
3000
0000
0000
,
0000
0000
0000
0000
,
0000
0000
0000
0000
,
0000
0000
0000
0000
,
0000
0000
0000
0000
,
0000
0000
0000
0000
,
0000
0000
0000
0000
,
0002
0003
0000
0000
0000
0000
0000
0000
0002
0003
0000
0000
0000
0000
0000
0000
,
1000
0001
1000
0010
0100
0001
1000
0001
0010
0100
1000
0010
1000
0001
0100
0010
,
0100
0001
1000
0100
0010
0100
1000
0010
0100
0001
0100
0010
1000
0001
0010
0100
,
0010
0001
0100
0010
1000
0010
0100
0001
1000
0001
0010
0100
1000
0010
1000
0001
,
0100
0001
1000
0100
0010
0001
0100
0001
1000
0010
0100
0010
1000
0001
1000
0100
,
0010
0100
1000
0010
0100
0001
0100
0010
1000
0001
1000
0100
0010
0001
0100
0010
,
1000
0010
0100
0001
1000
0100
0010
0001
0100
0001
1000
0010
0100
0001
0100
0010
,
1000
0100
0010
0100
1000
0001
0100
0010
0100
0001
0010
0100
1000
0001
0100
0010
,
1000
0100
1000
0001
0100
0001
0010
0100
1000
0001
0100
0010
0100
0001
1000
0010
,
1000
0100
0010
0001
1000
0010
0100
0001
0010
0100
0010
0001
1000
0010
0100
0001
,
1000
0001
0010
0100
1000
0001
1000
0010
0100
0001
0100
0010
1000
0100
0010
0001
,
1000
0001
0100
0010
1000
0010
0100
0001
1000
0100
0010
0100
1000
0010
0100
0001
,
1000
0001
0010
0100
1000
0010
0100
0001
0100
0010
1000
0001
0100
0010
0100
0001
,
1000
0100
0010
0100
1000
0010
0100
0001
0100
0010
1000
0001
1000
0100
0010
0001
,
0100
0001
1000
0010
0100
0010
1000
0001
1000
0010
0100
0001
0010
0100
1000
0010
,
1000
0001
0100
0001
0100
0010
1000
0001
1000
0100
0010
0001
0100
0001
1000
0010
,
0100
0010
1000
0001
0010
0100
0010
0001
0100
0010
1000
0010
0100
0001
1000
0010
,
1000
0001
0100
0010
1000
0001
1000
0100
0010
0001
0100
0001
1000
0010
0100
0010
,
1000
0001
0010
0100
0010
0001
0100
0010
1000
0010
0100
0001
1000
0100
0010
0100
,
1000
0010
0100
0001
0100
0010
1000
0001
1000
0100
0010
0001
0100
0001
1000
0010
,
1000
0001
0010
0100
1000
0010
1000
0001
0100
0010
0100
0001
1000
0001
0010
0100
,
0010
0001
0100
0010
1000
0010
0100
0001
1000
0001
0010
0100
1000
0010
0100
0001
,
0100
0010
1000
0001
0010
0100
1000
0010
1000
0001
0100
0010
1000
0010
0100
0001
,
1000
0000
1001
0000
0000
0101
0000
0000
,
0110
0000
0010
1000
0100
0010
0001
0000
,
1000
0100
1000
0001
0100
0010
1000
0100
0010
0100
1000
0001
0100
0010
1000
0001
,
1000
0100
0010
0001
1000
0001
0100
0010
1000
0010
0100
0001
0010
0100
1000
0001
,
1000
0010
0100
0001
0100
0010
1000
0001
0010
0100
0010
0001
0100
0010
1000
0001
,
1000
0100
0010
0001
0100
0010
1000
0010
0100
0001
1000
0010
0100
0010
1000
0001
,
0010
0100
0010
0001
0100
0010
1000
0010
0100
0001
1000
0001
0010
0100
1000
0010
,
1000
0001
0100
0010
0100
0001
1000
0001
0100
0010
1000
0100
0010
0001
0100
0001
,
1000
0010
1000
0010
0100
0001
1000
0001
0010
0100
1000
0010
1000
0001
0100
0010
,
0100
0001
1000
0100
0010
0100
1000
0010
0100
0001
0100
0010
1000
0001
0100
0001
,
1000
0000
0000
0000
,
1001
0000
0000
0000
,
0101
0000
0011
0000
,
0110
0000
1100
0000
,
2002
0000
0000
0000
,
0000
0000
0000
0000
,
0000
0000
0000
0000
,
0000
0000
0000
0000
,
0000
0000
0000
0000
,
0000
0000
0000
0000
,
0000
0000
0000
0000
,
0000
0000
0000
0000
,
3003
0000
0000
0000
;

//---------------dance-single - J. Nero----------------
#NOTES:
     dance-single:
     J. Nero:
     Easy:
     21:
     1.000,1.000,0.062,0.256,0.761,1603.000,10.000,41.000,0.000,0.000:
0000
0000
0000
0000
,
0000
0000
0000
0000
,
1000
0001
0010
0100
,
1000
0010
0100
0001
,
1000
0100
1000
0010
0100
0001
0010
0100
,
1000
0001
0100
0001
0010
0100
1000
0010
,
1000
0100
0010
0001
1000
0010
0100
0010
,
1000
0001
1000
0100
0010
0001
1000
0010
,
1000
0001
1000
0100
0010
0000
0001
0000
0100
0000
0010
0000
1000
0000
0001
0000
,
1000
0001
1000
0100
0010
0000
0001
0000
0100
0000
0001
0000
0010
0000
0100
0000
,
1000
0010
1000
0100
0010
0000
0001
0000
0100
0000
0001
0000
1000
0000
0100
0000
,
1000
0000
0010
0000
0100
0000
0001
0000
0010
0100
1000
0001
1000
0010
0100
0001
,
1000
0010
1000
0100
0010
0000
0001
0000
0100
0000
0010
0000
1000
0000
0010
0000
,
0100
0001
1000
0001
0010
0000
0100
0000
1000
0000
0001
0000
0100
0000
0001
0000
,
0010
0100
1000
0001
1000
0000
0010
0000
0100
0000
0010
0000
1000
0000
0100
0000
,
1000
0000
0001
0000
0100
0000
0001
0000
0010
0100
1000
0001
1000
0010
0100
0001
,
1000
0100
0010
0001
1000
0000
0100
0000
1000
0000
0001
0000
0100
0000
0010
0000
,
1000
0001
1000
0100
0010
0000
0001
0000
0100
0000
0001
0000
1000
0000
0100
0000
,
1000
0010
0100
0010
1000
0000
0001
0000
0010
0000
0100
0000
1000
0000
0001
0000
,
0100
0000
0010
0000
1000
0000
0100
0000
0010
0001
1000
0001
0100
0010
1000
0100
,
0010
0001
1000
0001
0100
0000
0010
0000
1000
0000
0001
0000
0100
0000
0001
0000
,
0010
0100
1000
0010
0100
0000
0001
0000
1000
0000
0100
0000
1000
0000
0010
0000
,
0100
0001
1000
0100
0010
0000
0001
0000
0100
0000
0001
0000
1000
0000
0100
0000
,
1000
0000
0010
0000
0100
0000
0001
0000
0010
0100
1000
0001
0100
0010
0100
0001
,
1000
0100
1000
0010
0100
0010
1000
0100
,
0010
0001
1000
0001
0100
0001
0010
0100
,
1000
0010
0100
0010
1000
0100
0010
0001
,
0100
0001
1000
0100
2000
3010
0200
0301
,
0020
0130
1000
0001
0100
0010
0100
0001
,
0010
0001
1000
0100
0010
0100
1000
0010
,
0100
0010
1000
0100
0010
0001
1000
0010
,
1000
0100
1000
0001
0020
0031
0200
0310
,
2000
3100
0010
0001
0100
0010
0100
0001
,
0010
0100
1000
0001
0100
0010
0100
0001
,
1000
0001
0010
0100
1000
0010
0100
0010
,
1000
0100
0010
0100
2000
3010
0200
0301
,
0020
0130
1000
0001
1000
0010
0100
0010
,
1000
0001
0010
0100
1000
0001
0100
0001
,
1000
0010
0100
0010
1000
0001
0010
0100
,
1000
0001
1000
0001
1000
0001
1000
0001
,
1000
0100
1000
0001
0010
0000
0100
0000
1000
0000
0010
0000
0100
0000
0001
0000
,
1000
0100
0010
0001
0100
0000
0001
0000
1000
0000
0001
0000
0010
0000
0100
0000
,
1000
0010
0100
0001
1000
0000
0001
0000
0010
0000
0100
0000
1000
0000
0010
0000
,
1000
0010
0100
0001
1000
0001
0010
0100
0010
0001
1000
0010
0100
0001
0100
0010
,
1000
0001
0010
0100
1000
0000
0001
0000
1000
0000
0010
0000
0100
0000
0001
0000
,
0010
0100
1000
0001
1000
0000
0010
0000
0100
0000
0010
0000
1000
0000
0100
0000
,
1000
0001
1000
0010
0100
0000
0001
0000
1000
0000
0100
0000
1000
0000
0010
0000
,
0100
0000
0001
0000
0010
0000
0100
0000
1000
0100
1000
0001
0100
0010
1000
0001
,
1000
0100
1000
0010
0100
0010
1000
0001
,
0010
0001
1000
0010
1000
0100
0010
0001
,
1000
0001
0100
0010
0100
0001
1000
0100
,
0010
0100
0010
0001
2000
3010
0200
0301
,
0020
0130
1000
0010
0100
0010
1000
0100
,
0010
0001
1000
0010
0100
0010
1000
0100
,
1000
0001
1000
0010
0100
0001
1000
0001
,
0010
0100
1000
0001
0020
0031
0200
0310
,
2000
3100
1000
0001
0100
0010
0100
0001
,
1000
0100
0010
0100
1000
0001
0100
0001
,
1000
0100
1000
0010
1000
0001
0010
0100
,
1000
0010
1000
0001
0020
0031
0200
0310
,
2000
3100
0010
0100
1000
0010
0100
0010
,
2000
3100
0010
0001
0100
0001
1000
0010
,
0100
0010
1000
0001
0010
0100
1000
0010
,
1000
0001
1000
0001
1000
0001
1000
0001
,
2000
3200
0310
0001
0100
0001
1000
0100
,
2000
3020
0130
0001
0010
0100
1000
0001
,
0200
0320
1030
0100
0010
0001
0100
0010
,
1000
0001
0010
0100
0010
0001
1000
0001
0100
0010
1000
0010
0100
0001
1000
0010
,
2000
3200
1300
0010
0100
0001
0010
0100
,
2000
3020
0130
0010
1000
0100
0010
0001
,
0200
0302
1003
0100
1000
0010
0100
0001
,
0100
0010
1000
0100
0010
0001
0100
0010
,
1000
0001
0010
0100
1000
0001
1000
0010
0100
0010
1000
0001
1000
0100
0010
0001
,
2000
3200
1300
0010
0100
0001
0010
0100
,
1000
0001
0010
0100
1000
0001
1000
0010
0100
0001
0100
0010
1000
0001
0010
0100
,
1000
0001
1000
0010
0100
0001
0100
0010
1000
0001
1000
0100
0010
0001
1000
0001
,
0100
0010
1000
0001
0010
0100
0010
0001
1000
0001
0100
0010
1000
0010
0100
0001
,
2000
3200
0310
0001
0100
0001
1000
0010
,
1000
0001
1000
0100
0010
0100
1000
0001
1000
0010
0100
0001
0100
0001
1000
0010
,
0100
0001
0010
0100
1000
0010
0100
0001
,
1000
0001
0010
0100
,
1000
0010
0100
0001
,
1000
0100
1000
0010
,
1000
0100
0010
0001
,
0100
0001
0010
0100
,
1000
0010
0100
0001
,
0010
0001
0100
0001
,
0010
0100
1000
0010
,
1000
0001
0100
0010
,
0100
0001
1000
0001
,
0010
0100
1000
0010
,
0100
0001
1000
0001
,
0200
0000
0000
0000
,
0000
0000
0000
0000
,
0300
0000
0000
0000
,
0000
0000
0000
0000
,
0001
0100
0001
1000
0100
0010
0001
0100
,
0001
0000
1000
0000
0100
0000
0010
0000
0100
0000
1000
0000
0001
1000
0001
0100
,
0001
1000
0010
0100
0001
0100
0010
1000
0001
0100
0001
1000
0010
0100
0010
1000
,
0001
0100
0010
1000
0100
0010
0001
0100
,
0001
1000
0100
1000
0010
0100
0001
1000
,
0100
0000
0010
0000
0001
0000
0100
0000
0001
0000
1000
0000
0010
1000
0100
0010
,
0100
1000
0001
1000
0010
0100
0001
1000
0001
0100
0010
0100
0001
0000
1000
0000
,
0100
1000
0010
0100
0001
0010
0100
0010
,
0001
1000
0100
1000
0010
0100
0001
1000
,
0001
0000
0010
0000
0100
0000
1000
0000
0001
0000
0100
0000
0001
1000
0100
1000
,
0001
0100
0010
0100
0001
1000
0100
0010
0100
1000
0001
1000
0010
0100
0001
0100
,
0010
1000
0100
1000
0010
0100
0001
1000
,
0010
0100
0001
0100
0010
1000
0001
1000
0010
0100
0001
0100
0001
1000
0100
0010
,
0001
0100
0001
1000
0010
0100
0001
1000
0100
0010
0100
1000
0010
0100
0001
0100
,
0010
1000
0100
1000
0010
0100
0001
0010
,
0100
1000
0001
0000
1001
0000
1000
0000
,
0010
0010
0001
0000
0100
0100
1000
0000
,
0100
0100
0001
0000
0010
0010
1000
0001
,
0100
0100
1000
0000
0100
0100
0001
0000
,
0010
0010
1000
0100
0100
0001
0010
0001
,
0100
0100
1000
0000
0100
0100
0001
0000
,
0010
0010
1000
0000
0100
0100
0001
0000
,
0010
0010
1000
0000
0100
0100
0001
0000
,
0010
0010
1000
0100
0100
0001
0010
0010
,
0100
0100
1000
0001
0100
0100
1000
0001
,
0100
0100
0100
0100
0100
0100
1000
0001
,
0010
0010
1000
0001
0010
0010
1000
0001
,
0100
0100
0100
0100
0100
0100
1000
0001
,
0100
0100
1000
0010
0100
0100
1000
0001
,
0010
0010
1000
0001
0100
0100
1000
0001
,
0010
0010
1000
0001
0100
0100
1000
0001
,
0100
0100
0100
0100
0100
0100
1000
0001
,
0010
0010
1000
0001
0100
0100
1000
0001
,
0100
0100
1000
0001
0010
0010
1000
0001
,
0100
0100
1000
0001
0010
0010
1000
0001
,
0100
0100
0100
0100
0100
0100
1000
0001
,
0010
0010
1000
0001
0100
0100
1000
0001
,
0010
0010
1000
0001
0100
0100
1000
0001
,
0100
0100
1000
0001
0010
0010
1000
0001
,
0100
0100
0100
0100
0100
0100
1000
0001
,
1000
0100
1000
0010
0100
0010
1000
0100
,
0010
0001
1000
0001
0100
0001
0010
0100
,
1000
0010
0100
0010
1000
0100
0010
0001
,
0100
0001
1000
0100
1000
0010
0100
0001
,
0010
0100
1000
0001
0100
0010
0100
0001
,
0010
0001
1000
0100
0010
0100
1000
0010
,
0100
0010
1000
0100
0010
0001
1000
0010
,
1000
0100
1000
0001
0010
0001
0100
0010
,
1000
0100
0010
0001
0100
0010
0100
0001
,
0010
0100
1000
0001
0100
0010
0100
0001
,
1000
0001
0010
0100
1000
0010
0100
0010
,
1000
0100
0010
0100
1000
0010
0100
0001
,
0010
0100
1000
0001
1000
0010
0100
0010
,
1000
0001
0010
0100
1000
0001
0100
0001
,
1000
0010
0100
0010
1000
0001
0010
0100
,
1000
0001
1000
0001
1000
0001
1000
0001
,
2000
3000
0000
0000
,
0000
0000
0000
0000
,
0000
0000
0000
0000
,
0000
0000
0000
0000
,
0000
0000
0000
0000
,
0000
0000
0000
0000
,
0000
0000
0000
0000
,
0002
0003
0000
0000
0000
0000
0000
0000
0002
0003
0000
0000
0000
0000
0000
0000
,
1000
0010
1000
0001
0010
0100
1000
0010
,
1000
0000
0001
0000
0010
0000
0100
0000
0010
0000
0001
0000
1000
0001
1000
0010
,
1000
0001
0100
0010
1000
0010
0100
0001
1000
0010
1000
0001
0100
0010
0100
0001
,
1000
0010
0100
0001
0010
0100
1000
0010
,
1000
0001
0010
0001
0100
0010
1000
0001
,
0010
0000
0100
0000
1000
0000
0010
0000
1000
0000
0001
0000
0100
0001
1000
0100
,
0010
0001
1000
0001
0100
0010
1000
0001
1000
0010
0100
0010
1000
0000
0001
0000
,
0010
0001
0100
0010
1000
0100
0010
0100
,
1000
0001
0010
0001
0100
0010
1000
0001
,
1000
0000
0100
0000
0010
0000
0001
0000
1000
0000
0010
0000
1000
0001
0010
0001
,
1000
0010
0100
0010
1000
0001
0010
0100
0010
0001
1000
0001
0100
0010
1000
0010
,
0100
0001
0010
0001
0100
0010
1000
0001
,
0100
0010
1000
0010
0100
0001
1000
0001
0100
0010
1000
0010
1000
0001
0010
0100
,
1000
0010
1000
0001
0100
0010
1000
0001
0010
0100
0010
0001
0100
0010
1000
0010
,
0100
0001
0010
0001
0100
0010
1000
0100
,
0010
0001
1000
0000
1001
0000
0001
0000
,
1000
0010
1000
0001
0010
0100
1000
0010
,
1000
0000
0001
0000
0010
0000
0100
0000
0010
0000
0001
0000
1000
0100
1000
0001
,
0100
0001
1000
0010
0100
0001
1000
0100
0010
0001
1000
0001
0100
0010
0100
0001
,
1000
0010
0100
0001
0010
0100
1000
0010
,
1000
0001
0010
0001
0100
0010
1000
0001
,
0010
0000
0100
0000
1000
0000
0010
0000
1000
0000
0001
0000
0100
0001
0010
0100
,
0010
0001
1000
0001
0100
0010
1000
0001
1000
0010
0100
0010
1000
0000
0001
0000
,
0010
0001
0100
0010
1000
0100
0010
0100
,
1000
0001
0010
0001
0100
0010
1000
0001
,
1000
0000
0100
0000
0010
0000
0001
0000
1000
0000
0010
0000
1000
0001
0010
0001
,
1000
0010
0100
0010
1000
0001
0010
0100
0010
0001
1000
0001
0100
0010
1000
0010
,
0100
0001
0010
0001
0100
0010
1000
0001
,
0100
0010
1000
0010
0100
0001
1000
0001
0100
0010
1000
0010
1000
0001
0010
0100
,
1000
0010
1000
0001
0100
0010
1000
0001
0010
0100
0010
0001
0100
0010
1000
0010
,
0100
0001
0010
0001
0100
0010
1000
0100
,
0010
0001
1000
0000
1100
0000
0001
0000
,
0101
0000
0000
0000
,
0110
0000
0000
0000
,
1010
0000
1100
0000
,
0110
0000
0011
0000
,
2002
0000
0000
0000
,
0000
0000
0000
0000
,
0000
0000
0000
0000
,
0000
0000
0000
0000
,
0000
0000
0000
0000
,
0000
0000
0000
0000
,
0000
0000
0000
0000
,
0000
0000
0000
0000
,
3003
0000
0000
0000
;

//---------------dance-single - J. Nero----------------
#NOTES:
     dance-single:
     J. Nero:
     Beginner:
     19:
     1.000,1.000,0.037,0.156,1.000,1720.000,6.000,25.000,0.000,0.000:
0000
0000
0000
0000
,
0000
0000
0000
0000
,
1000
0001
0010
0100
,
1000
0010
0100
0001
,
1000
0100
1000
0010
0100
0001
0010
0100
,
1000
0001
0100
0001
0010
0100
1000
0010
,
1000
0100
0010
0001
1000
0010
0100
0010
,
1000
0001
1000
0100
0010
0001
1000
0010
,
1000
0100
1000
0010
0100
0001
1000
0100
0010
0001
0100
0001
,
1000
0100
1000
0010
0100
0001
0010
0100
1000
0010
0100
0001
,
1000
0100
0010
0001
0100
0001
1000
0100
1000
0010
0100
0001
,
0010
0100
1000
0001
0100
0010
0100
0001
1000
0100
0010
0001
,
0100
0001
1000
0100
1000
0010
0100
0001
1000
0100
0010
0001
,
0100
0001
1000
0100
1000
0010
0100
0001
1000
0001
0010
0100
,
1000
0010
0100
0010
1000
0001
1000
0100
0010
0001
0100
0001
,
1000
0100
0010
0100
1000
0010
0100
0001
1000
0001
0010
0100
,
1000
0010
0100
0001
1000
0001
0010
0100
0010
0001
0100
0010
,
1000
0010
0100
0001
1000
0100
0010
0001
0100
0001
1000
0100
,
1000
0010
0100
0001
0100
0010
1000
0001
1000
0100
0010
0001
,
0100
0001
1000
0100
1000
0010
0100
0001
1000
0001
0010
0100
,
1000
0001
0100
0010
1000
0010
0100
0001
1000
0100
0010
0001
,
0100
0001
1000
0100
0010
0100
1000
0010
0100
0001
0100
0010
,
1000
0001
0100
0010
1000
0010
0100
0001
0010
0100
1000
0001
,
0100
0010
1000
0100
0010
0001
0100
0001
1000
0100
1000
0010
,
1000
0100
1000
0010
0100
0010
1000
0100
,
0010
0001
1000
0001
0100
0001
0010
0100
,
1000
0010
0100
0010
1000
0100
0010
0001
,
0100
0001
1000
0100
2000
3010
0200
0301
,
0020
0130
1000
0001
0100
0010
0100
0001
,
0010
0001
1000
0100
0010
0100
1000
0010
,
0100
0010
1000
0100
0010
0001
1000
0010
,
1000
0100
1000
0001
0020
0031
0200
0310
,
2000
3100
0010
0001
0100
0010
0100
0001
,
0010
0100
1000
0001
0100
0010
0100
0001
,
1000
0001
0010
0100
1000
0010
0100
0010
,
1000
0100
0010
0100
2000
3010
0200
0301
,
0020
0130
1000
0001
1000
0010
0100
0010
,
1000
0001
0010
0100
1000
0001
0100
0001
,
1000
0010
0100
0010
1000
0001
0010
0100
,
1000
0001
1000
0001
1000
0001
1000
0001
,
1000
0100
1000
0010
0100
0001
0010
0100
1000
0010
0100
0001
,
0010
0001
0100
0010
1000
0010
0100
0001
1000
0100
0010
0001
,
0100
0001
1000
0100
0010
0100
1000
0010
0100
0001
1000
0001
,
0010
0100
1000
0010
0100
0001
1000
0100
1000
0010
0100
0001
,
1000
0100
0010
0100
1000
0001
0100
0010
1000
0010
0100
0001
,
1000
0100
0010
0001
0100
0001
1000
0100
1000
0010
0100
0001
,
1000
0001
0010
0100
1000
0010
0100
0001
0010
0001
1000
0100
,
1000
0010
0100
0001
0010
0100
1000
0001
0100
0010
0100
0001
,
1000
0100
1000
0010
0100
0010
1000
0001
,
0010
0001
1000
0010
1000
0100
0010
0001
,
1000
0001
0100
0010
0100
0001
1000
0100
,
0010
0100
0010
0001
2000
3010
0200
0301
,
0020
0130
1000
0010
0100
0010
1000
0100
,
0010
0001
1000
0010
0100
0010
1000
0100
,
1000
0001
1000
0010
0100
0001
1000
0001
,
0010
0100
1000
0001
0020
0031
0200
0310
,
2000
3100
1000
0001
0100
0010
0100
0001
,
1000
0100
0010
0100
1000
0001
0100
0001
,
1000
0100
1000
0010
1000
0001
0010
0100
,
1000
0010
1000
0001
0020
0031
0200
0310
,
2000
3100
0010
0100
1000
0010
0100
0010
,
2000
3100
0010
0001
0100
0001
1000
0010
,
0100
0010
1000
0001
0010
0100
1000
0010
,
1000
0001
1000
0001
1000
0001
1000
0001
,
1000
0010
0100
0010
1000
0100
0010
0001
0100
0001
1000
0100
,
0010
0100
1000
0010
0100
0001
1000
0100
0010
0001
0100
0001
,
1000
0100
1000
0010
0100
0001
1000
0001
0010
0100
1000
0010
,
0100
0001
0010
0001
1000
0010
0100
0010
1000
0001
0010
0001
,
0100
0010
1000
0010
0100
0001
1000
0100
0010
0001
0100
0001
,
1000
0100
1000
0010
0100
0001
1000
0001
0010
0100
0010
0001
,
0100
0010
1000
0010
0100
0001
1000
0100
0010
0001
0100
0001
,
1000
0100
1000
0010
0100
0001
1000
0001
0010
0100
1000
0001
,
0100
0010
1000
0001
1000
0100
0010
0001
0100
0001
1000
0100
,
1000
0010
0100
0001
0010
0001
1000
0100
1000
0010
0100
0001
,
0100
0010
1000
0100
0010
0001
0100
0001
1000
0100
0010
0100
,
1000
0010
0100
0010
1000
0001
1000
0100
0010
0001
0100
0001
,
1000
0100
1000
0010
0100
0001
1000
0001
0010
0100
1000
0010
,
0100
0001
1000
0100
1000
0010
0100
0001
0010
0001
1000
0010
,
0100
0001
1000
0100
0010
0001
0100
0001
1000
0100
1000
0010
,
0100
0001
0010
0100
1000
0010
0100
0001
1000
0100
0010
0001
,
1000
0001
0010
0100
,
1000
0010
0100
0001
,
1000
0100
1000
0010
,
1000
0100
0010
0001
,
0100
0001
0010
0100
,
1000
0010
0100
0001
,
0010
0001
0100
0001
,
0010
0100
1000
0010
,
1000
0001
0100
0010
,
0100
0001
1000
0001
,
0010
0100
1000
0010
,
0100
0001
1000
0001
,
0200
0000
0000
0000
,
0000
0000
0000
0000
,
0300
0000
0000
0000
,
0000
0000
0000
0000
,
0001
0010
0001
0100
0010
1000
0001
0010
0100
1000
0010
1000
,
0001
0010
0001
0100
0010
1000
0100
0010
0001
0100
0010
1000
,
0001
0010
0100
1000
0010
1000
0001
0010
0001
0100
0010
1000
,
0100
0010
0001
1000
0010
0100
0010
1000
0001
0010
0100
1000
,
0010
1000
0001
0010
0001
0100
0010
1000
0001
0010
0100
1000
,
0010
1000
0001
0010
0001
0100
0010
1000
0001
1000
0100
0010
,
0001
0100
0010
0100
0001
1000
0001
0010
0100
1000
0010
1000
,
0001
0010
0100
0010
0001
0100
0010
1000
0001
1000
0100
0010
,
0001
0100
0010
1000
0001
1000
0100
0010
0100
1000
0010
0100
,
0001
0100
0010
1000
0001
0010
0100
1000
0010
1000
0001
0010
,
0001
0100
0010
1000
0010
0100
0001
1000
0001
0010
0100
1000
,
0010
1000
0001
0010
0001
0100
0010
1000
0001
1000
0100
0010
,
0001
1000
0010
0100
0001
0100
0010
1000
0001
0010
0100
1000
,
0010
1000
0001
0010
0100
0010
0001
0100
0010
1000
0010
0100
,
0001
1000
0010
0100
0001
0100
0010
1000
0100
0010
0001
1000
,
0010
0100
0001
0010
0100
1000
0010
1000
0001
0010
0001
0100
,
0001
1000
0001
0000
0100
0100
1000
0000
,
0100
0100
0001
0000
0010
0010
1000
0001
,
0100
0100
1000
0000
0100
0100
0001
0000
,
0010
0010
1000
0100
0100
0001
0010
0001
,
0100
0100
1000
0000
0100
0100
0001
0000
,
0010
0010
1000
0000
0100
0100
0001
0000
,
0010
0010
1000
0000
0100
0100
0001
0000
,
0010
0010
1000
0100
0100
0001
0010
0010
,
0100
0100
1000
0001
0100
0100
1000
0001
,
0100
0100
0100
0100
0100
0100
1000
0001
,
0010
0010
1000
0001
0010
0010
1000
0001
,
0100
0100
0100
0100
0100
0100
1000
0001
,
0100
0100
1000
0010
0100
0100
1000
0001
,
0010
0010
1000
0001
0100
0100
1000
0001
,
0010
0010
1000
0001
0100
0100
1000
0001
,
0100
0100
0100
0100
0100
0100
1000
0001
,
0010
0010
1000
0001
0100
0100
1000
0001
,
0100
0100
1000
0001
0010
0010
1000
0001
,
0100
0100
1000
0001
0010
0010
1000
0001
,
0100
0100
0100
0100
0100
0100
1000
0001
,
0010
0010
1000
0001
0100
0100
1000
0001
,
0010
0010
1000
0001
0100
0100
1000
0001
,
0100
0100
1000
0001
0010
0010
1000
0001
,
0100
0100
0100
0100
0100
0100
1000
0001
,
1000
0100
1000
0010
0100
0010
1000
0100
,
0010
0001
1000
0001
0100
0001
0010
0100
,
1000
0010
0100
0010
1000
0100
0010
0001
,
0100
0001
1000
0100
1000
0010
0100
0001
,
0010
0100
1000
0001
0100
0010
0100
0001
,
0010
0001
1000
0100
0010
0100
1000
0010
,
0100
0010
1000
0100
0010
0001
1000
0010
,
1000
0100
1000
0001
0010
0001
0100
0010
,
1000
0100
0010
0001
0100
0010
0100
0001
,
0010
0100
1000
0001
0100
0010
0100
0001
,
1000
0001
0010
0100
1000
0010
0100
0010
,
1000
0100
0010
0100
1000
0010
0100
0001
,
0010
0100
1000
0001
1000
0010
0100
0010
,
1000
0001
0010
0100
1000
0001
0100
0001
,
1000
0010
0100
0010
1000
0001
0010
0100
,
1000
0001
1000
0001
1000
0001
1000
0001
,
2000
3000
0000
0000
,
0000
0000
0000
0000
,
0000
0000
0000
0000
,
0000
0000
0000
0000
,
0000
0000
0000
0000
,
0000
0000
0000
0000
,
0000
0000
0000
0000
,
0002
0003
0000
0000
0000
0000
0000
0000
0002
0003
0000
0000
0000
0000
0000
0000
,
1000
0100
1000
0010
0100
0001
0010
0100
1000
0001
0100
0010
,
0100
0001
1000
0100
1000
0010
0100
0001
1000
0100
0010
0100
,
1000
0010
0100
0010
1000
0001
1000
0100
0010
0001
0100
0001
,
1000
0100
0010
0100
1000
0010
0100
0001
1000
0001
0010
0100
,
1000
0010
0100
0001
1000
0100
0010
0100
1000
0010
0100
0010
,
1000
0001
1000
0100
0010
0001
0100
0001
1000
0100
0010
0100
,
1000
0010
0100
0001
1000
0001
0010
0100
1000
0010
0100
0001
,
1000
0100
0010
0100
1000
0010
0100
0001
1000
0100
0010
0001
,
0100
0001
1000
0100
1000
0010
0100
0001
0010
0001
1000
0100
,
0010
0100
1000
0010
0100
0001
1000
0001
0010
0100
1000
0010
,
0100
0001
1000
0100
1000
0010
0100
0001
0010
0100
0010
0001
,
0100
0010
1000
0010
0100
0001
1000
0100
0010
0001
0100
0001
,
1000
0100
1000
0010
0100
0010
1000
0100
0010
0001
0100
0001
,
0010
0100
1000
0010
0100
0010
1000
0001
1000
0100
0010
0001
,
0100
0001
1000
0100
0010
0100
1000
0010
0100
0001
0010
0001
,
1000
0100
1000
0010
0100
0001
0010
0100
1000
0010
0100
0001
,
1000
0100
1000
0010
0100
0001
0010
0100
1000
0001
0100
0010
,
0100
0001
1000
0100
1000
0010
0100
0001
1000
0100
0010
0100
,
1000
0010
0100
0010
1000
0001
1000
0100
0010
0001
0100
0001
,
1000
0100
0010
0100
1000
0010
0100
0001
1000
0001
0010
0100
,
1000
0010
0100
0001
1000
0100
0010
0100
1000
0010
0100
0010
,
1000
0001
1000
0100
0010
0001
0100
0001
1000
0100
0010
0100
,
1000
0010
0100
0001
1000
0001
0010
0100
1000
0010
0100
0001
,
1000
0100
0010
0100
1000
0010
0100
0001
1000
0100
0010
0001
,
0100
0001
1000
0100
1000
0010
0100
0001
0010
0001
1000
0100
,
0010
0100
1000
0010
0100
0001
1000
0001
0010
0100
1000
0010
,
0100
0001
1000
0100
1000
0010
0100
0001
0010
0100
0010
0001
,
0100
0010
1000
0010
0100
0001
1000
0100
0010
0001
0100
0001
,
1000
0100
1000
0010
0100
0010
1000
0100
0010
0001
0100
0001
,
0010
0100
1000
0010
0100
0010
1000
0001
1000
0100
0010
0001
,
0100
0001
1000
0100
0010
0100
1000
0010
0100
0001
0010
0001
,
1000
0100
1000
0010
0100
0001
0010
0100
1000
0010
0100
0001
,
1000
0000
0000
0000
,
1001
0000
0000
0000
,
0101
0000
0011
0000
,
0110
0000
1100
0000
,
2002
0000
0000
0000
,
0000
0000
0000
0000
,
0000
0000
0000
0000
,
0000
0000
0000
0000
,
0000
0000
0000
0000
,
0000
0000
0000
0000
,
0000
0000
0000
0000
,
0000
0000
0000
0000
,
3003
0000
0000
0000
;
