#TITLE:Real Emotion;
#SUBTITLE:;
#ARTIST:Yuna;
#TITLETRANSLIT:;
#SUBTITLETRANSLIT:;
#ARTISTTRANSLIT:;
#CREDIT:;
#BANNER:banner.jpg;
#BACKGROUND:background.jpg;
#LYRICSPATH:;
#CDTITLE:;
#MUSIC:Real Emotion.mp3;
#OFFSET:2.600;
#SAMPLESTART:56.500;
#SAMPLELENGTH:12.000;
#SELECTABLE:YES;
#BPMS:0.000=150.000;
#STOPS:;
#BGCHANGES:3.250=Real Emotion X.avi=1.000=1=0=0,
99999=-nosongbg-=1.000=0=0=0 // don't automatically add -songbackground-
;
// cache tags:
#FIRSTBEAT:8.000;
#LASTBEAT:381.500;
#SONGFILENAME:Songs/keyboard/Real Emotion [English]/Real Emotion.sm;
#HASMUSIC:1;
#HASBANNER:1;
#MUSICLENGTH:152.293;
// end cache tags

//---------------dance-single - ----------------
#NOTES:
     dance-single:
     :
     Hard:
     8:
     0.642,0.783,0.775,0.867,0.243,434.000,118.000,132.000,0.000,3.000:
0000
0000
0000
0000
,
0000
0000
0000
0000
,
1000
0000
0000
0000
0000
0100
0000
0000
,
0000
0000
0010
0000
0000
0000
0000
0001
,
0000
0000
1001
0000
,
1000
0100
0010
0001
0000
0000
0000
0000
,
0000
0220
0000
0000
0000
0000
0000
0000
,
0330
0000
0010
0001
0010
0001
0100
0001
0100
0001
1000
0001
,
1000
0100
1000
0100
0010
0100
0010
0001
0100
0001
0100
0001
,
1000
0000
0001
0000
1000
0000
0001
0000
1000
0000
0000
0000
0000
0000
0000
1100
0000
0000
0000
0000
0000
0110
0000
0000
,
0000
0011
0000
0000
1001
0000
0000
1100
,
0110
0011
1001
0000
0000
0000
0000
0000
,
0000
0011
0101
0011
1100
0000
0000
0000
,
0000
0000
1100
1001
0011
0011
0000
0000
,
0000
0000
0000
0022
0033
2200
3300
0000
,
2002
3003
0220
0330
0000
1100
0011
0110
,
0011
0000
0000
0000
0000
0000
0101
1001
,
0101
0110
0000
0000
0000
0000
0000
0000
,
0110
0101
0110
1100
0000
0000
0000
0000
,
1000
0100
1000
0100
0001
0100
0001
0010
0001
0020
0000
0000
,
0000
0000
0030
1001
0000
0000
1000
0000
1000
0100
0000
0100
,
0010
0000
0010
0001
0000
0001
0010
0000
0010
1000
0000
1000
,
0100
0000
0100
0001
0000
0001
0010
0000
0010
0100
0000
0100
,
1000
0000
0000
0000
1000
0000
0100
0000
0000
0000
0100
0000
0010
0000
0000
0000
0000
0000
2000
0000
0000
3000
0000
0000
,
0200
0000
0000
0300
0000
0000
0020
0000
0000
0030
0000
0000
0002
0000
0000
0003
0000
0000
1001
0000
0000
0000
1000
0000
,
0100
0000
0100
0010
0000
0010
0001
0000
0001
0010
0000
0010
,
1000
0000
1000
0001
0000
0001
0010
0000
0010
1000
0000
1000
,
0100
0000
0100
0010
0000
0010
0001
0000
0001
1000
0000
1000
,
0001
0000
0000
0000
0001
0000
1000
0000
0000
0000
0000
0000
2200
0000
0000
3300
0000
0000
0022
0000
0000
0033
0000
0000
,
0202
0303
2200
3300
2002
3003
0000
0000
,
2000
3000
0200
0300
0020
0000
0000
0030
,
0000
0000
2000
3000
0002
0003
2000
0000
,
0000
3000
0000
0000
0001
1000
0000
0100
,
0010
0000
0202
0303
2200
3300
2002
0000
,
0000
0000
3003
0000
0000
0000
2000
3000
,
0200
0300
0020
0030
0002
0003
0000
0000
,
2000
3000
0002
0003
2000
3000
2002
0000
,
0000
0000
0000
0000
,
0000
0000
3003
0000
,
0010
1000
0000
0000
0100
0001
0000
1000
,
0100
0001
0100
0010
0100
1000
0100
0001
,
0100
0100
0010
0000
2002
0000
0000
0000
,
3223
0000
0000
0330
2000
3000
0200
0300
,
0200
0300
2002
3003
0220
0330
0022
0033
,
2200
3300
0000
1000
0200
0000
0300
0001
,
0100
0001
0100
1000
2200
3300
0220
0330
,
0202
0303
2002
0000
0000
3003
0220
0000
,
0330
0000
2020
3030
0220
0330
0202
0303
,
0200
0000
0000
0300
0002
0000
0000
0000
,
0003
0020
0000
0000
0030
0000
1200
1000
,
0312
0010
1203
1000
0300
0000
2100
0100
,
3000
0100
0001
0001
1002
0000
1000
0000
,
1000
0000
0000
0000
2003
0000
0000
0000
0001
0000
0000
0000
0001
0000
3000
0001
,
1000
0002
0000
0003
0000
0000
0000
0000
0110
0000
0101
0000
1100
0000
0110
0000
,
0000
0000
1000
0010
0001
0000
0000
0002
,
0000
0000
0000
0000
0003
1000
0000
1100
,
1010
0000
0110
0000
0011
0000
0000
0000
1000
0010
1000
0010
1000
0010
0000
0000
,
0000
0000
1000
0100
1000
0100
1000
0100
1000
0000
2000
0000
0000
0000
0000
0000
,
0000
0001
0001
3001
1000
0000
0000
0000
,
0100
0001
0010
0001
0100
0100
0010
0001
,
0010
0200
0000
0300
2020
3030
0220
0330
,
0022
0000
0000
0033
0000
0000
2020
0000
0000
3030
0000
0000
0000
0000
0000
0000
0000
0000
0000
0000
1000
0000
0001
0000
,
1000
0000
0001
0000
1000
0000
0001
0000
1000
0000
0002
0000
0003
0000
0000
0000
1100
0000
0000
0000
0000
1100
0000
0000
,
0000
0011
0000
0000
0022
0000
0033
0000
0000
0000
0000
0000
,
1000
0100
0100
1000
0010
0010
0001
0001
,
2020
0000
0000
0000
0000
3030
2200
3300
,
0000
1000
0001
0100
0010
0000
0101
1100
,
0010
0001
1000
1100
0010
0001
1100
0000
,
0101
1000
0001
0000
0000
1000
0001
1000
,
0100
0010
0001
0100
1000
0010
0001
1000
,
0010
0100
0010
0001
0100
0100
1000
0001
,
0001
0000
0000
1000
0000
0000
0000
0000
0000
0000
0100
0000
1000
0000
0000
0000
0000
0000
1000
0000
0000
0001
0000
0000
,
0000
0000
0100
0000
0010
0000
0000
0000
0001
0000
0000
0200
0000
0000
0000
0000
,
0000
0000
0000
0010
0000
0020
0030
0000
,
0310
0000
2020
3030
1000
0001
0000
0000
,
0001
0100
0000
0000
0000
0000
1000
0001
,
1000
1000
0010
1000
0001
0000
2002
0000
,
0000
0000
0000
0000
3003
0202
0303
0000
,
0000
0100
0010
0100
0001
0100
0010
0100
,
1000
0100
0010
2020
3030
0000
1001
1100
,
0000
0000
0000
1000
0000
1000
0100
0000
0100
0001
0000
0001
,
0100
0000
0100
1000
0000
1000
0010
0000
0000
2000
0000
0000
,
0000
3100
0002
0003
0000
0000
2000
0000
,
3200
0000
0320
0000
0032
0000
1003
0100
,
0001
0100
0010
0010
0000
1001
1000
0010
,
0001
0010
2002
3003
0220
0330
0022
0033
,
2200
0000
3300
0010
1001
1100
1001
0101
,
0000
0000
0000
0000
0000
0011
0110
1100
,
0110
0101
0000
0000
0000
0000
1001
1010
,
1100
0101
0011
0000
0000
0000
0000
0000
,
0010
0000
0100
0000
0001
0000
0000
1000
,
0000
0100
0110
0010
0011
0001
0101
1010
,
1001
0000
1000
0000
0000
0100
0000
0000
,
0001
1000
2002
0000
,
0000
0000
0000
0000
,
0000
0000
0000
3003
0000
0000
0000
0000
;
