#TITLE:Azul;
#SUBTITLE:(Remix);
#ARTIST:mezCIA;
#TITLETRANSLIT:;
#SUBTITLETRANSLIT:;
#ARTISTTRANSLIT:;
#CREDIT:;
#BANNER:../banner.png;
#BACKGROUND:../bg.png;
#LYRICSPATH:;
#CDTITLE:;
#MUSIC:Azul Remix.ogg;
#OFFSET:0.896;
#SAMPLESTART:27.860;
#SAMPLELENGTH:19.900;
#SELECTABLE:YES;
#BPMS:0.000=195.000;
#STOPS:;
#BGCHANGES:;
// cache tags:
#FIRSTBEAT:4.000;
#LASTBEAT:416.000;
#SONGFILENAME:Songs/Cirque du Lykan/Azul Remix - [Zaia]/Azul Remix.sm;
#HASMUSIC:1;
#HASBANNER:1;
#MUSICLENGTH:129.854;
// end cache tags

//---------------dance-single - Zaia - 14(high)----------------
#NOTES:
     dance-single:
     Zaia - 14(high):
     Challenge:
     14:
     1.000,1.000,0.108,0.570,1.000,1075.000,14.000,74.000,1.000,1.000:
0000
0000
0000
0000
,
1000
0000
0000
0000
1000
0000
0000
0000
0001
0000
0000
0000
0100
0000
0000
0000
0010
0000
0000
0000
0000
0000
0000
0000
0000
0000
0000
0000
2000
3000
0000
0000
,
0002
0003
0000
0000
0000
0000
0000
0000
0000
0000
0000
0000
2000
3000
0000
0000
0200
0300
0000
0000
0000
0000
0000
0000
0000
0000
0000
0000
0020
0030
0000
0000
,
0200
0300
0000
0000
0000
0000
0000
0000
1000
0000
0000
0000
0001
0000
0100
0000
0010
0000
0000
0000
1000
0000
0000
0000
0010
0000
0000
0000
0100
0000
0000
0000
,
0001
0000
1000
0000
0001
1000
0010
1000
,
1001
0001
0000
0000
0000
0000
0000
0000
,
0000
0000
0000
0000
,
0011
0000
0000
0000
,
1100
0000
0000
0000
0001
0000
1000
0010
,
1000
0000
0100
0000
0010
0000
0000
0000
0001
0000
0000
0000
0100
0000
0000
0000
0010
0000
0000
0000
0000
0000
0000
0000
0000
0000
0000
0000
2000
3000
0000
0000
,
0002
0003
0000
0000
0000
0000
0000
0000
0000
0000
0000
0000
0020
0030
0000
0000
0200
0300
0000
0000
0000
0000
0000
0000
0000
0000
0000
0000
2000
3000
0000
0000
,
0200
0300
0000
0000
0000
0000
0000
0000
1000
0000
0000
0000
0001
0000
0100
0000
0010
0000
0000
0000
1000
0000
0000
0000
0100
0000
0000
0000
0010
0000
0000
0000
,
0001
0000
0100
0000
0001
0100
0001
1000
,
1010
0010
0000
0000
0000
0000
0000
0000
,
0110
0000
0000
0000
,
0101
0000
0000
0010
0100
0000
0000
0000
,
1010
0000
0000
0000
1000
0000
0000
0000
0001
1000
0010
0100
0001
1000
0010
1000
,
0002
0000
0000
0000
0000
0000
0000
0000
0000
0000
0000
0000
0000
0000
0000
M000
0000
0000
0000
0000
0000
0000
0000
0000
0000
0000
0000
0000
0000
0000
0000
0000
,
0000
0000
0000
0000
0000
0003
0000
1000
,
0001
0100
0010
1000
0001
0100
0001
1000
0100
0010
0100
1000
0001
1000
0010
0100
,
0001
1000
0100
1000
0001
1000
0010
0100
0001
0010
0100
1000
0001
1000
0100
0010
,
0001
1000
0001
0100
0010
1000
0001
0010
0100
1000
0001
0100
0010
1000
0001
1000
,
0001
0010
0001
1000
0100
0010
0100
1000
0001
1000
0010
0100
0001
1000
0010
1000
,
0100
0010
0001
1000
0100
1000
0001
0010
0001
0010
0100
1000
0001
0100
0010
1000
,
0001
1000
0100
0010
0100
1000
0001
1000
0010
0100
0001
1000
0001
1000
0100
0010
,
0001
0100
0010
1000
0001
1000
0010
0100
0010
1000
0001
0100
0001
0010
0100
1000
,
0001
0100
0010
1000
0001
1000
0100
0010
0100
1000
0001
0010
0100
1000
0001
0100
,
0010
1000
0010
0100
0001
0010
0100
0010
0001
0100
0001
1000
0100
0010
0100
1000
,
0010
0100
0001
1000
0001
0010
0001
1000
0010
0100
0001
1000
0010
1000
0001
0100
,
0010
1000
0001
1000
0100
1000
0001
0010
0001
0010
0100
0010
0001
1000
0001
0100
,
0010
1000
0001
1000
0010
0100
0001
1000
0100
1000
0010
0100
0001
0010
0001
1000
,
0010
0100
0001
0010
0100
1000
0001
0100
0010
0100
0001
0010
0100
1000
0001
0100
,
0010
0100
0001
0010
0100
1000
0010
0100
0001
1000
0100
1000
0001
0100
0001
1000
,
0001
0010
0100
1000
0100
0010
0001
1000
0001
0100
0001
1000
0010
1000
0001
0100
,
0010
1000
0001
0010
0001
1000
0001
1000
0010
0100
0001
1000
0001
0010
0001
1000
,
0100
0010
0010
0001
1000
1000
0001
1000
,
0010
0100
0100
0001
0010
0010
0001
0100
,
0010
1000
0100
0010
0001
0100
0010
0100
,
0001
0000
0010
0000
0100
0000
1000
0000
0010
0100
0001
0010
0001
1000
0100
1000
,
0001
0000
0100
0000
0010
0000
1000
0001
1000
0000
0100
0000
0010
0000
0001
1000
,
0001
0000
0100
0000
0010
0000
1000
0100
1000
0000
0001
0000
0010
0000
0001
0100
,
0001
0000
1000
0000
0001
0000
0100
0010
0100
0000
0001
0000
1000
0000
0100
0010
,
0100
1000
0001
1000
0010
1000
0001
0100
0001
1000
0001
0010
0001
1000
0100
1000
,
0001
0010
0100
0000
1000
0000
0000
0000
0001
0100
0001
0000
1000
0000
0000
0000
,
0100
0010
0100
0000
1000
0000
0000
0000
0001
0010
0001
0000
0100
0000
0000
0000
,
0010
1000
0010
0000
0100
0000
0000
0000
0001
0010
0001
0000
1000
0000
0000
0000
,
1010
0000
0010
0000
0100
0000
0101
0000
0000
0000
0001
0000
1000
0001
1000
0001
,
0010
0001
0100
0010
1000
0001
0010
0100
1000
0010
1000
0001
0010
0100
0010
0001
,
0100
0010
1000
0001
1000
0100
1000
0001
0100
0010
1000
0001
0100
0001
1000
0010
,
0100
0001
1000
0001
0010
0001
1000
0100
1000
0100
0010
0100
1000
0001
1000
0010
,
0100
0001
1000
0001
0100
0010
1000
0001
0010
0001
0100
0010
1000
0100
1000
0001
,
0100
0010
1000
0100
0010
0001
1000
0010
0100
0010
1000
0100
0010
0001
1000
0010
,
0100
0010
1000
0100
0010
0001
0100
0010
1000
0001
0010
0001
1000
0010
1000
0001
,
1000
0100
0010
0001
0001
0100
0010
1000
,
0001
0000
1000
0000
0010
0000
0100
0000
0001
0000
0010
0000
0001
1000
0001
1000
,
0001
0010
0100
1000
0001
0010
0100
1000
0001
0010
0100
1000
0001
0010
0100
1000
,
0001
0100
0010
1000
0001
0100
0010
1000
0001
0100
0010
1000
0001
0100
0010
1000
,
0001
0010
0001
0100
0010
1000
0100
0010
0001
0010
0100
1000
0001
1000
0010
0100
,
0001
0010
0100
1000
0001
0100
0001
1000
0100
1000
0010
0100
0001
1000
0001
1000
,
0100
0010
0001
1000
0010
0100
0001
1000
0100
0010
0100
1000
0001
1000
0010
0100
,
0001
0010
0100
0010
0001
1000
0010
0100
0001
1000
0001
0010
0100
1000
0001
0100
,
0010
0000
0000
0000
2000
3000
0000
0000
0002
0003
0000
0000
0000
0000
0000
0000
0000
0000
0000
0000
0020
0030
0000
0000
0002
0003
0000
0000
0000
0000
0000
0000
0000
0000
0000
0000
2000
3000
0000
0000
0020
0030
0000
0000
0000
0000
0000
0000
0000
0000
0000
0000
0200
0300
0000
0000
0020
0030
0000
0000
0000
0000
0000
0000
,
0000
0000
0000
0000
0200
0300
0000
0000
0002
0003
0000
0000
0000
0000
0000
0000
0000
0000
0000
0000
2000
3000
0000
0000
0200
0300
0000
0000
0000
0000
0000
0000
0000
0000
0000
0000
2000
3000
0000
0000
0002
0003
0000
0000
0000
0000
0000
0000
0000
0000
0000
0000
0020
0030
0000
0000
0200
0300
0000
0000
0000
0000
0000
0000
,
1000
0010
0100
0001
0010
0100
1000
0100
0010
0001
1000
0010
1000
0001
0100
0001
,
1000
0010
0100
0010
1000
0100
0010
0001
1000
0010
0100
0001
1000
0100
0010
0100
,
1000
0001
0100
0001
1000
0100
0010
0001
1000
0010
0100
0001
1000
0010
0100
0010
,
1000
0001
0010
0100
1000
0001
0010
0001
1000
0100
1000
0010
0100
0001
0010
0001
,
1000
0010
1000
0001
0010
0100
0010
0001
1000
0010
1000
0001
0100
0001
1000
0100
,
1000
0001
1000
0010
0100
0001
0100
0010
1000
0001
0010
0100
1000
0001
1000
0010
,
0200
0302
0000
2003
0000
3020
0000
0230
,
0310
1000
0001
0100
0010
1000
0010
0100
0001
1000
0001
0010
0001
0010
0100
1000
,
0001
2000
0000
3020
0000
0000
0230
0000
,
0302
0000
0023
0030
,
0120
0000
0000
0230
0000
0000
2300
0000
,
3002
0000
0000
0000
0000
0013
0001
1000
,
1100
0200
0000
0000
0000
0000
2300
0000
,
3200
0000
0000
0320
0000
0000
0032
0000
,
1023
0000
0000
0000
0000
0000
0130
0010
,
2000
0000
3002
0000
,
0013
0000
0010
0000
,
0010
0000
0010
0000
,
0011
0000
0001
0000
,
0001
0000
0000
0000
0001
1000
0100
0010
,
0001
0001
0000
0000
0100
0000
0000
0000
,
0100
0000
0100
0000
,
0100
0100
0100
0100
,
0100
0000
0001
0000
0100
0000
0001
0000
1000
0001
1000
0001
1000
0001
1000
0001
,
1000
0010
0100
0001
1000
0010
0100
0001
1000
0010
0100
0001
1000
0010
0100
0001
,
1000
0100
0010
0001
1000
0100
0010
0001
1000
0100
0010
0001
1000
0100
0010
0001
,
1000
0010
1000
0100
0010
0001
0100
0010
1000
0010
0100
0001
1000
0001
0010
0100
,
1000
0010
0100
0001
1000
0100
1000
0001
0100
0001
0010
0100
1000
0001
1000
0001
,
0100
0010
1000
0001
0010
0100
1000
0001
0100
0010
0100
0001
1000
0001
0010
0100
,
1000
0010
0100
0010
1000
0001
0010
0100
1000
0001
1000
0010
0100
0001
1000
0100
,
0010
0000
0000
0000
0002
0003
0000
0000
2000
3000
0000
0000
0000
0000
0000
0000
0000
0000
0000
0000
0020
0030
0000
0000
2000
3000
0000
0000
0000
0000
0000
0000
0000
0000
0000
0000
0002
0003
0000
0000
0020
0030
0000
0000
0000
0000
0000
0000
0000
0000
0000
0000
0200
0300
0000
0000
0020
0030
0000
0000
0000
0000
0000
0000
,
0000
0000
0000
0000
0200
0300
0000
0000
2000
3000
0000
0000
0000
0000
0000
0000
0000
0000
0000
0000
0002
0003
0000
0000
0200
0300
0000
0000
0000
0000
0000
0000
0000
0000
0000
0000
0002
0003
0000
0000
2000
3000
0000
0000
0000
0000
0000
0000
0000
0000
0000
0000
0020
0030
0000
0000
0200
0300
0000
0000
0000
0000
0000
0000
,
0001
0010
0100
1000
0010
0100
0001
0100
0010
1000
0001
0010
0001
1000
0100
1000
,
0001
0010
0100
0010
0001
0100
0010
1000
0001
0010
0100
1000
0001
0100
0010
0100
,
0001
1000
0100
1000
0001
0100
0010
1000
0001
0010
0100
1000
0001
0010
0100
0010
,
0001
1000
0010
0100
0001
1000
0010
1000
0001
0100
0001
0010
0100
1000
0010
1000
,
0001
0010
0001
1000
0010
0100
0010
1000
0001
0010
0001
1000
0100
1000
0001
0100
,
0001
1000
0001
0010
0100
1000
0100
0010
0001
1000
0010
0100
0001
1000
0001
0010
,
0200
2300
0000
3002
0000
0023
0000
0230
,
0310
0001
1000
0100
0010
0001
0010
0100
1000
0001
1000
0010
1000
0010
0100
0000
,
0000
2002
0000
0000
,
3003
0000
0000
0000
;

//---------------dance-single - Zaia - 13(low-mid)----------------
#NOTES:
     dance-single:
     Zaia - 13(low-mid):
     Hard:
     13:
     1.000,1.000,0.139,0.570,1.000,915.000,18.000,74.000,1.000,1.000:
0000
0000
0000
0000
,
1000
0000
0000
0000
1000
0000
0000
0000
0001
0000
0000
0000
0100
0000
0000
0000
0010
0000
0000
0000
0000
0000
0000
0000
0000
0000
0000
0000
2000
3000
0000
0000
,
0002
0003
0000
0000
0000
0000
0000
0000
0000
0000
0000
0000
2000
3000
0000
0000
0200
0300
0000
0000
0000
0000
0000
0000
0000
0000
0000
0000
0020
0030
0000
0000
,
0200
0300
0000
0000
0000
0000
0000
0000
1000
0000
0000
0000
0001
0000
0100
0000
0010
0000
0000
0000
1000
0000
0000
0000
0010
0000
0000
0000
0100
0000
0000
0000
,
0001
0000
1000
0000
0001
1000
0010
1000
,
1001
0001
0000
0000
0000
0000
0000
0000
,
0000
0000
0000
0000
,
0011
0000
0000
0000
,
1100
0000
0000
0000
0001
0000
1000
0010
,
1000
0000
0100
0000
0010
0000
0000
0000
0001
0000
0000
0000
0100
0000
0000
0000
0010
0000
0000
0000
0000
0000
0000
0000
0000
0000
0000
0000
2000
3000
0000
0000
,
0002
0003
0000
0000
0000
0000
0000
0000
0000
0000
0000
0000
0020
0030
0000
0000
0200
0300
0000
0000
0000
0000
0000
0000
0000
0000
0000
0000
2000
3000
0000
0000
,
0200
0300
0000
0000
0000
0000
0000
0000
1000
0000
0000
0000
0001
0000
0100
0000
0010
0000
0000
0000
1000
0000
0000
0000
0100
0000
0000
0000
0010
0000
0000
0000
,
0001
0000
0100
0000
0001
0100
0001
1000
,
1010
0010
0000
0000
0000
0000
0000
0000
,
0110
0000
0000
0000
,
0101
0000
0000
0010
0100
0000
0000
0000
,
1010
0000
0000
0000
1000
0000
0000
0000
0001
1000
0010
0100
0001
1000
0010
1000
,
0002
0000
0000
0000
0000
0000
0000
0000
0000
0000
0000
0000
0000
0000
0000
M000
0000
0000
0000
0000
0000
0000
0000
0000
0000
0000
0000
0000
0000
0000
0000
0000
,
0000
0000
0000
0000
0000
0003
0000
1000
,
0001
0100
0010
1000
0001
1000
0100
1000
,
0010
0100
0001
1000
0001
0100
0001
1000
,
0100
0010
0100
1000
0001
1000
0010
1000
,
0001
0100
0001
1000
0001
0010
0100
1000
,
1001
0001
0100
0010
0100
0001
1000
0100
,
1000
0001
1000
0010
0100
0001
0010
0100
,
1100
1000
0001
0010
0001
1000
0010
0100
,
0101
0001
1000
1100
0000
0100
1000
0001
,
0100
0001
0100
0010
1000
0100
0010
0100
1000
0010
1000
0001
0010
0100
0010
0001
,
0100
0010
1000
0001
1000
0100
1000
0001
0100
0010
1000
0001
0100
0001
1000
0010
,
0100
0001
1000
0010
0100
0001
1000
0100
,
0010
0000
0100
0000
1000
0000
0001
0000
0010
0001
0100
0010
1000
0100
1000
0001
,
0100
0010
1000
0100
0010
0001
1000
0010
0100
0010
1000
0100
0010
0001
1000
0010
,
0100
0010
1000
0100
0010
0001
0100
0010
1000
0001
0010
0001
1000
0010
1000
0001
,
1000
0100
0010
0001
0010
0100
1000
0001
1000
0010
1000
0001
0100
0001
1000
0010
,
0100
0001
1000
0100
1000
0001
1000
0001
0100
0010
1000
0001
1000
0100
1000
0001
,
0010
0100
0100
1000
0001
0001
1000
0001
,
0100
0010
0010
1000
0100
0100
1000
0010
,
0100
0001
0010
0100
1000
0010
0100
0010
,
1000
0000
0100
0000
0010
0000
0001
0000
0100
0010
1000
0100
1000
0001
0010
0001
,
1000
0000
0010
0000
0100
0000
0001
1000
0001
0000
0010
0000
0100
0000
1000
0001
,
1000
0000
0010
0000
0100
0000
0001
0010
0001
0000
1000
0000
0100
0000
1000
0010
,
1000
0000
0001
0000
1000
0000
0010
0100
0010
0000
1000
0000
0001
0000
0010
0100
,
0010
0001
1000
0001
0100
0001
1000
0010
1000
0001
1000
0100
1000
0001
0010
0001
,
1000
0100
0010
0000
0001
0000
0000
0000
1000
0010
1000
0000
0001
0000
0000
0000
,
0010
0100
0010
0000
0001
0000
0000
0000
1000
0100
1000
0000
0010
0000
0000
0000
,
0100
0001
0100
0000
0010
0000
0000
0000
1000
0100
1000
0000
0001
0000
0000
0000
,
0101
0000
0100
0000
0010
0000
1010
0000
0000
0000
1000
0000
0001
1000
0001
1000
,
0100
1000
0010
0100
0001
1000
0100
0010
0001
0100
0001
1000
0100
0010
0100
1000
,
0010
0100
0001
1000
0001
0010
0001
1000
0010
0100
0001
1000
0010
1000
0001
0100
,
0010
0000
1000
0000
0001
0000
0010
0100
1000
0000
0001
0000
0100
0000
0010
1000
,
0001
0000
0010
0000
0100
0000
0010
0100
1000
0000
0010
0000
0100
0000
0001
0000
,
0100
0010
1000
0100
0010
0000
0001
0000
0100
0010
1000
0100
0010
0000
0001
0000
,
0100
0010
1000
0100
0010
0001
0100
0010
1000
0001
0010
0001
1000
0010
1000
0001
,
1000
0100
0010
0001
0001
0100
0010
1000
,
0001
0000
1000
0000
0010
0000
0100
0000
0001
0000
0010
0000
0001
1000
0001
1000
,
0001
0010
0001
0000
0010
0100
0010
0000
0100
1000
0100
0000
1000
0001
1000
0000
,
0010
1000
0010
0000
0100
0010
0100
0000
0001
0100
0001
0000
1000
0001
1000
0000
,
0001
0010
0100
1000
0100
0010
0001
0100
,
0010
1000
0001
0100
0010
0100
0001
1000
,
0001
0000
0010
0100
1000
0000
0001
0010
0100
0000
1000
0010
0100
0000
0010
0100
,
0001
0000
1000
0100
0010
0000
0001
0100
0010
0000
1000
0100
0010
0000
0001
0000
,
0100
0000
0000
0000
0002
0003
0000
0000
2000
3000
0000
0000
0000
0000
0000
0000
0000
0000
0000
0000
0200
0300
0000
0000
2000
3000
0000
0000
0000
0000
0000
0000
0000
0000
0000
0000
0002
0003
0000
0000
0200
0300
0000
0000
0000
0000
0000
0000
0000
0000
0000
0000
0020
0030
0000
0000
0200
0300
0000
0000
0000
0000
0000
0000
,
0000
0000
0000
0000
0020
0030
0000
0000
2000
3000
0000
0000
0000
0000
0000
0000
0000
0000
0000
0000
0002
0003
0000
0000
0020
0030
0000
0000
0000
0000
0000
0000
0000
0000
0000
0000
0002
0003
0000
0000
2000
3000
0000
0000
0000
0000
0000
0000
0000
0000
0000
0000
0200
0300
0000
0000
0020
0030
0000
0000
0000
0000
0000
0000
,
0001
0100
0010
1000
0100
0010
0001
0010
0100
1000
0001
0100
0001
1000
0010
1000
,
0001
0100
0010
0100
0001
0010
0100
1000
0001
0100
0010
1000
0001
0010
0100
0010
,
0001
1000
0010
1000
0001
0010
0100
1000
0001
0100
0010
1000
0001
0100
0010
0100
,
0001
1000
0100
0010
0001
1000
0100
1000
0001
0010
0001
0100
0010
1000
0100
1000
,
0001
0100
0001
1000
0100
0010
0100
1000
0001
0100
0001
1000
0010
1000
0001
0010
,
0001
1000
0001
0100
0010
1000
0010
0100
0001
1000
0100
0010
0001
1000
0001
0100
,
0020
2030
0000
3002
0000
0203
0000
0320
,
0130
0001
1000
0010
0100
0001
0100
0010
1000
0001
1000
0100
1000
0100
0010
0001
,
1000
0002
0000
0203
0000
0000
0320
0000
,
2030
0000
3200
0300
,
0210
0000
0000
0320
0000
0000
0032
0000
,
2003
0000
0000
0000
0000
3100
1000
0001
,
0011
0020
0000
0000
0000
0000
0032
0000
,
0023
0000
0000
0230
0000
0000
2300
0000
,
3201
0000
0000
0000
0000
0000
0310
0100
,
0002
0000
2003
0000
,
3100
0000
0100
0000
,
0100
0000
0100
0000
,
1100
0000
1000
0000
,
1000
0000
0000
0000
1000
0001
0010
0100
,
1000
1000
0000
0000
0010
0000
0000
0000
,
0010
0000
0010
0000
,
0010
0010
0010
0010
,
0010
0000
1000
0000
0010
0000
1000
0000
0001
1000
0001
1000
0001
1000
0001
1000
,
0001
0100
0001
0000
0100
0010
0100
0000
0010
1000
0010
0000
1000
0001
1000
0000
,
0100
1000
0100
0000
0010
0100
0010
0000
0001
0010
0001
0000
1000
0001
1000
0000
,
0001
1000
0010
0100
0001
0010
0100
1000
,
0001
0000
0010
0000
0100
0000
0010
0000
0001
0000
1000
0000
0001
0000
0100
0010
,
1000
0000
0001
0100
0010
0000
1000
0100
0010
0000
0100
0010
0001
0000
1000
0010
,
0100
0000
0001
0010
0100
0000
1000
0010
0100
0000
0001
0000
1000
0000
0001
0000
,
0010
0000
0000
0000
0002
0003
0000
0000
2000
3000
0000
0000
0000
0000
0000
0000
0000
0000
0000
0000
0020
0030
0000
0000
2000
3000
0000
0000
0000
0000
0000
0000
0000
0000
0000
0000
0002
0003
0000
0000
0020
0030
0000
0000
0000
0000
0000
0000
0000
0000
0000
0000
0200
0300
0000
0000
0020
0030
0000
0000
0000
0000
0000
0000
,
0000
0000
0000
0000
0200
0300
0000
0000
2000
3000
0000
0000
0000
0000
0000
0000
0000
0000
0000
0000
0002
0003
0000
0000
0200
0300
0000
0000
0000
0000
0000
0000
0000
0000
0000
0000
0002
0003
0000
0000
2000
3000
0000
0000
0000
0000
0000
0000
0000
0000
0000
0000
0020
0030
0000
0000
0200
0300
0000
0000
0000
0000
0000
0000
,
0001
0010
0100
1000
0010
0100
0001
0100
0010
1000
0001
0010
0001
1000
0100
1000
,
0001
0010
0100
0010
0001
0100
0010
1000
0001
0010
0100
1000
0001
0100
0010
0100
,
0001
1000
0100
1000
0001
0100
0010
1000
0001
0010
0100
1000
0001
0010
0100
0010
,
0001
1000
0010
0100
0001
1000
0010
1000
0001
0100
0001
0010
0100
1000
0010
1000
,
0001
0010
0001
1000
0010
0100
0010
1000
0001
0010
0001
1000
0100
1000
0001
0100
,
0001
1000
0001
0010
0100
1000
0100
0010
0001
1000
0010
0100
0001
1000
0001
0010
,
0200
2300
0000
3002
0000
0023
0000
0230
,
0310
0001
1000
0100
0010
0001
0010
0100
1000
0001
1000
0010
1000
0010
0100
0000
,
0000
2002
0000
0000
,
3003
0000
0000
0000
;

//---------------dance-single - Zaia - 10(low)----------------
#NOTES:
     dance-single:
     Zaia - 10(low):
     Medium:
     10:
     0.781,0.761,0.216,0.323,0.069,640.000,28.000,42.000,1.000,1.000:
0000
0000
0000
0000
,
1000
0000
0000
0000
1000
0000
0000
0000
0001
0000
0000
0000
0100
0000
0000
0000
0010
0000
0000
0000
0000
0000
0000
0000
0000
0000
0000
0000
2000
3000
0000
0000
,
0002
0003
0000
0000
0000
0000
0000
0000
0000
0000
0000
0000
2000
3000
0000
0000
0200
0300
0000
0000
0000
0000
0000
0000
0000
0000
0000
0000
0020
0030
0000
0000
,
0200
0300
0000
0000
0000
0000
0000
0000
1000
0000
0000
0000
0001
0000
0100
0000
0010
0000
0000
0000
1000
0000
0000
0000
0010
0000
0000
0000
0100
0000
0000
0000
,
0001
0000
1000
0000
0001
1000
0010
1000
,
1001
0001
0000
0000
0000
0000
0000
0000
,
0000
0000
0000
0000
,
0011
0000
0000
0000
,
1100
0000
0000
0000
0001
0000
1000
0010
,
1000
0000
0100
0000
0010
0000
0000
0000
0001
0000
0000
0000
0100
0000
0000
0000
0010
0000
0000
0000
0000
0000
0000
0000
0000
0000
0000
0000
2000
3000
0000
0000
,
0002
0003
0000
0000
0000
0000
0000
0000
0000
0000
0000
0000
0020
0030
0000
0000
0200
0300
0000
0000
0000
0000
0000
0000
0000
0000
0000
0000
2000
3000
0000
0000
,
0200
0300
0000
0000
0000
0000
0000
0000
1000
0000
0000
0000
0001
0000
0100
0000
0010
0000
0000
0000
1000
0000
0000
0000
0100
0000
0000
0000
0010
0000
0000
0000
,
0001
0000
0100
0000
0001
0100
0001
1000
,
1010
0010
0000
0000
0000
0000
0000
0000
,
0110
0000
0000
0000
,
0101
0000
0000
0010
0100
0000
0000
0000
,
1010
0000
1000
0000
0001
1000
0010
0100
,
0002
0000
0000
0000
0000
0000
0000
0000
0000
0000
0000
0000
0000
0000
0000
M000
0000
0000
0000
0000
0000
0000
0000
0000
0000
0000
0000
0000
0000
0000
0000
0000
,
0000
0000
0000
0000
0000
0003
0000
1000
,
0001
0100
0010
1000
0001
1000
0100
1000
,
0010
0100
0001
1000
0001
0100
0001
1000
,
0100
0010
0100
1000
0001
1000
0010
1000
,
0001
0100
0001
1000
0001
0010
0100
1000
,
1001
0001
0100
0010
0100
0001
1000
0100
,
1000
0001
1000
0010
0100
0001
0010
0100
,
1100
1000
0001
0010
0001
1000
0010
0100
,
0101
0001
1000
1100
0000
0100
1000
0001
,
0100
0010
1000
0100
1000
0010
0100
0001
,
0010
0100
1000
0010
0100
0001
1000
0100
,
0010
0001
1000
0010
0100
0001
1000
0100
,
0010
0100
1000
0001
0010
0100
1000
0001
,
0101
0100
0010
0000
1010
1000
0001
0000
,
0011
0010
0100
1000
0010
1000
0100
0010
,
0011
0000
0001
1000
1000
0000
0010
0100
,
0001
0010
0100
1000
0001
0100
0010
1000
,
0010
0100
0100
0001
1000
1000
0001
1000
,
0010
0100
0100
0001
0010
0010
0001
0100
,
0010
1000
0100
0010
0001
0100
0010
0100
,
0001
0010
0100
1000
0010
0100
0001
0010
,
0100
1000
0010
0100
0000
0001
0010
0100
,
0000
1000
0010
0100
0000
0001
0100
0010
,
0000
1000
0100
0010
0000
0001
0100
0010
,
1000
0001
1000
0100
1000
0010
0100
0001
,
0010
0010
0100
0000
1000
1000
0001
0000
,
0100
0100
0001
0000
1000
1000
0010
0000
,
0100
0100
0001
0000
1000
1000
0001
0000
,
1010
0010
0100
0101
0000
0001
1000
0001
,
0101
0100
0010
1000
0100
1000
0010
0100
,
0001
0010
0100
1000
0001
1000
0010
0100
,
0001
1000
0001
1000
0001
1000
0001
1000
,
0010
1000
0010
1000
0010
1000
0010
1000
,
1010
0010
0100
0000
0101
0100
0010
0000
,
1001
1000
0010
0100
0001
0010
0001
0100
,
0010
1000
0100
1000
1000
0010
0100
0001
,
1000
0001
0100
0010
1000
0100
1000
0001
,
1000
0100
0010
0001
1000
0100
0010
0001
,
1000
0010
0100
0001
1000
0010
0100
0001
,
0010
0100
0010
0001
0010
0100
1000
0010
,
0100
0001
1000
0010
0100
0010
1000
0001
,
1000
0100
1000
0010
0100
0001
0010
0001
,
0100
0001
1000
0100
1000
0010
1000
0001
,
1001
0000
0000
0000
0000
0001
1000
0000
0000
0001
0100
0000
0000
0001
1000
0000
,
0000
0010
1000
0000
0000
0001
0010
0000
0000
0001
1000
0000
0000
0010
0100
0000
,
0001
0100
0010
1000
0100
1000
0010
1000
,
0001
0100
0001
0010
0100
1000
0010
0100
,
0001
1000
0001
0010
0100
1000
0001
0100
,
0001
1000
0100
0010
0100
1000
0010
0100
,
0001
1000
0001
0100
0001
0010
0100
1000
,
0001
1000
0100
1000
0010
0100
0001
1000
,
0020
2030
0000
3002
0000
0203
0000
0320
,
0130
0001
1000
0010
1000
0001
0010
0100
,
1000
0002
0000
0203
0000
0000
0320
0000
,
2030
0000
3200
0300
,
0210
0000
0000
0320
0000
0000
0032
0000
,
2003
0000
0000
0000
0000
3100
1000
0001
,
0011
0020
0000
0000
0000
0000
0032
0000
,
0023
0000
0000
0230
0000
0000
2300
0000
,
3201
0000
0000
0000
0000
0000
0310
0100
,
0002
0000
2003
0000
,
3100
0000
0100
0000
,
0100
0000
0100
0000
,
1100
0000
1000
0000
,
1000
0000
0000
0000
1000
0001
0010
0100
,
1000
1000
0000
0000
0010
0000
0000
0000
,
0010
0000
0010
0000
,
0010
0010
0010
0010
,
0010
1000
0010
1000
0001
1000
0001
1000
,
0001
0010
0100
1000
0001
0010
0100
1000
,
0001
0100
0010
1000
0001
0100
0010
1000
,
0100
0010
0100
1000
0100
0010
0001
0100
,
0010
1000
0001
0100
0010
0100
0001
1000
,
0001
0010
0001
0100
0010
1000
0100
1000
,
0010
1000
0001
0010
0001
0100
0001
1000
,
1001
0000
0000
0000
0000
1000
0001
0000
0000
1000
0010
0000
0000
1000
0001
0000
,
0000
0100
0001
0000
0000
1000
0100
0000
0000
1000
0001
0000
0000
0100
0010
0000
,
1000
0010
0100
0001
0010
0001
0100
0001
,
1000
0010
1000
0100
0010
0001
0100
0010
,
1000
0001
1000
0100
0010
0001
1000
0010
,
1000
0001
0010
0100
0010
0001
0100
0010
,
1000
0001
1000
0010
1000
0100
0010
0001
,
1000
0001
0010
0001
0100
0010
1000
0001
,
0020
0032
0000
2003
0000
3200
0000
0320
,
0130
1000
0001
0100
0001
1000
0100
0010
,
0000
2002
0000
0000
,
3003
0000
0000
0000
;
