#TITLE:Diamond Dust Zone Act 1;
#SUBTITLE:(Remix);
#ARTIST:DJ Bass Fox 28;
#TITLETRANSLIT:;
#SUBTITLETRANSLIT:;
#ARTISTTRANSLIT:;
#CREDIT:owenviau1;
#BANNER:BN.png;
#BACKGROUND:BG.png;
#LYRICSPATH:;
#CDTITLE:../CDTitleOV1.png;
#MUSIC:Diamond Dust Zone Act 1 (Remix) - DJ Bass Fox 28.mp3;
#OFFSET:-0.373;
#SAMPLESTART:73.773;
#SAMPLELENGTH:29.999;
#SELECTABLE:YES;
#BPMS:0.000=150.000;
#STOPS:;
#BGCHANGES:;
// cache tags:
#FIRSTBEAT:0.000;
#LASTBEAT:353.000;
#SONGFILENAME:Songs/owenviau1 (2016) (Pad & Index)/Diamond Dust Zone Act 1 (Remix) - [owenviau1] v1.0.1/Diamond Dust Zone Act 1.sm;
#HASMUSIC:1;
#HASBANNER:1;
#MUSICLENGTH:146.280;
// end cache tags

//---------------dance-single - 19.47 (19+) (owenvia----------------
#NOTES:
     dance-single:
     19.47 (19+) (owenvia:
     Challenge:
     19:
     1.000,1.000,0.014,0.048,1.000,1905.000,2.000,7.000,10.000,0.000:
2001
0000
0000
0000
,
0010
0000
0000
0100
,
0100
0000
0000
0000
0000
0000
0000
0000
0010
0000
0000
0000
0000
0000
3001
0100
,
0010
0000
0000
0000
1000
0000
0000
0000
0010
0000
0100
0001
1000
0000
0100
0010
,
0001
0000
0100
0000
0010
0000
1000
0001
0100
0000
0010
0000
0100
1000
0001
0100
,
0010
0000
1000
0000
0010
0100
0001
0000
0100
0010
1000
0100
0010
0001
0100
0010
,
1000
0000
0000
0100
0000
0000
0010
0000
0000
0001
0000
0000
0100
0000
0000
0010
0000
0000
1000
0000
0000
0001
0000
0000
0100
0000
0000
0000
0010
0000
0000
0000
1000
0000
0000
0000
0100
0000
0000
0000
0010
0000
0000
0000
0001
0000
0000
0000
0100
0000
0000
0000
0001
0000
0000
0000
1000
0000
0000
0000
0010
0000
0000
0000
0100
0000
0000
0000
0001
0000
0000
0000
1000
0000
0000
0000
0100
0000
0000
0000
0010
0000
0000
0000
0001
0000
0000
0000
0100
0000
0000
0000
0010
0000
0000
0000
,
0100
0001
1000
0010
0100
0010
1000
0001
1000
0010
0100
0001
1000
0100
0010
0001
0010
0100
1000
0010
0100
0001
1000
0100
,
0010
0001
1000
0010
1000
0100
0010
0001
0100
0001
1000
0100
0010
0001
0100
0010
1000
0001
0010
0001
0100
0010
1000
0100
,
0010
0001
1000
0010
1000
0001
0100
0010
1000
0100
0010
0001
1000
0010
0100
0001
1000
0100
0010
0001
0100
0010
1000
0001
,
0010
0000
0000
0100
0000
0000
1000
0000
0000
0001
0000
0000
0100
0000
0000
0010
0000
0000
0100
0000
0000
0001
0000
0000
1000
0000
0000
0000
0100
0000
0000
0000
0010
0000
0000
0000
0001
0000
0000
0000
0100
0000
0000
0000
0010
0000
0000
0000
1000
0000
0000
0000
0001
0000
0000
0000
0100
0000
0000
0000
0001
0000
0000
0000
0010
0000
0000
0000
0100
0000
0000
0000
1000
0000
0000
0000
0010
0000
0000
0000
0100
0000
0000
0000
0010
0000
0000
0000
1000
0000
0000
0000
0100
0000
0000
0000
,
0010
0001
0100
0010
1000
0001
0010
0100
1000
0010
0100
0001
0100
0010
1000
0001
0100
0010
1000
0100
0010
0001
0010
0100
,
1000
0001
0010
0001
0100
0010
1000
0001
0010
0100
1000
0010
0100
0001
0100
0010
1000
0100
0010
0001
0100
0010
1000
0001
,
0100
0000
0001
0000
0010
0000
0100
0000
1000
0000
0010
0000
0100
0000
0001
0000
1000
0000
0100
0000
0010
0000
0001
0000
0100
0000
0010
0000
1000
0000
0001
0000
0100
0000
0001
0000
1000
0000
0000
0010
0000
0000
0100
0000
0000
0001
0000
0000
,
1000
0100
0010
0001
0100
0010
1000
0010
0100
0001
1000
0100
0010
0001
0100
0010
1000
0001
0010
0100
1000
0010
0100
0001
,
0100
0010
1000
0100
0010
0001
1000
0010
1000
0100
0010
0001
0100
0010
1000
0001
0010
0100
1000
0100
0010
0001
0100
0010
,
1000
0001
0100
0001
0010
0100
1000
0010
0100
0010
1000
0100
0010
0001
0100
0010
1000
0001
0010
0100
1000
0010
0100
0001
,
0100
0010
1000
0001
0100
0010
1000
0100
0010
0001
0010
0100
1000
0001
0010
0001
0100
0010
1000
0001
0010
0100
1000
0010
,
0100
0001
0100
0010
1000
0100
0010
0001
0100
0010
1000
0001
0100
0001
0010
0100
1000
0010
0100
0001
1000
0100
0010
0001
,
0100
0010
1000
0001
0100
0001
0010
0100
1000
0010
0100
0001
1000
0100
0010
0001
0100
0010
1000
0001
0100
0001
0010
0100
,
1000
0010
0100
0010
1000
0100
0010
0001
0100
0010
1000
0001
0010
0100
1000
0010
0100
0001
0100
0010
1000
0001
0100
0010
,
1000
0100
0010
0001
0010
0100
1000
0001
0010
0001
0100
0010
1000
0001
0010
0100
1000
0010
0100
0001
0100
0010
1000
0100
,
0010
0001
0100
0010
1000
0001
0100
0001
0010
0100
1000
0010
0100
0001
1000
0100
0010
0001
0100
0010
1000
0001
0100
0001
,
0010
0100
1000
0010
0100
0001
1000
0100
1000
0010
0100
0001
0100
0010
1000
0001
1000
0100
0010
0001
0100
0010
1000
0001
,
0010
0100
1000
0010
0100
0001
0100
0010
1000
0100
0010
0001
1000
0010
1000
0100
0010
0001
0100
0010
1000
0001
0010
0100
,
1000
0010
0100
0002
1000
0003
0100
0001
1000
0020
0000
0000
0000
0000
0130
0001
,
1000
0001
0100
0010
0100
0001
1000
0100
0010
0001
0100
0010
1000
0001
0100
0001
0010
0100
1000
0010
0100
0010
1000
0100
,
0010
0001
0100
0010
1000
0001
0010
0100
1000
0010
0100
0001
0100
0010
1000
0001
0100
0010
1000
0100
0010
0001
0010
0100
,
1000
0001
0010
0001
0100
0010
1000
0001
0010
0100
1000
0010
0100
0001
0100
0010
1000
0100
0010
0001
0100
0010
1000
0001
,
0100
0001
0010
0100
1000
0010
0100
0001
1000
0100
0010
0001
0100
0010
1000
0001
0100
0001
0010
0100
1000
0010
0100
0001
,
1000
0100
1000
0010
0100
0001
0100
0010
1000
0001
1000
0100
0010
0001
0100
0010
1000
0001
0010
0100
1000
0010
0100
0001
,
0100
0010
1000
0100
0010
0001
1000
0010
1000
0100
0010
0001
0100
0010
1000
0001
0010
0100
1000
0100
0010
0001
0100
0010
,
1000
0001
0100
0001
0010
0100
1000
0010
0100
0010
1000
0100
0010
0001
0100
0010
1000
0001
0010
0100
1000
0010
0100
0001
,
0100
0010
1000
0001
0100
0010
1000
0100
0010
0001
0010
0100
1000
0001
0010
0001
0100
0010
1000
0001
0010
0100
1000
0010
,
0100
0001
0100
0010
1000
0100
0010
0001
0100
0010
1000
0001
0100
0001
0010
0100
1000
0010
0100
0001
1000
0100
0010
0001
,
0100
0010
1000
0001
0100
0001
0010
0100
1000
0010
0100
0001
1000
0100
0010
0001
0100
0010
1000
0001
0100
0001
0010
0100
,
1000
0010
0100
0010
1000
0100
0010
0001
0100
0010
1000
0001
0010
0100
1000
0010
0100
0001
0100
0010
1000
0001
0100
0010
,
1000
0100
0010
0001
0100
0010
1000
0001
0100
0001
0010
0100
1000
0010
0100
0010
1000
0100
0010
0001
0100
0010
1000
0001
,
0010
0100
1000
0010
0100
0001
0100
0010
1000
0001
0100
0010
1000
0100
0010
0001
0010
0100
1000
0001
0010
0001
0100
0010
,
1000
0001
0010
0100
1000
0010
0100
0001
0100
0010
1000
0100
0010
0001
0100
0010
1000
0001
0100
0001
0010
0100
1000
0010
,
0100
0001
1000
0100
0010
0001
0100
0010
1000
0001
0100
0001
0010
0100
1000
0010
0100
0001
1000
0100
1000
0010
0100
0001
,
0100
0010
1000
0100
0010
0001
0100
0010
1000
0001
0010
0100
1000
0100
0010
0001
,
1000
0010
1000
0100
0010
0001
0100
0010
1000
0001
0010
0100
1000
0100
0010
0001
0100
0010
1000
0001
0100
0001
0010
0100
,
1000
0010
0100
0010
1000
0100
0010
0001
0100
0010
1000
0001
0010
0100
1000
0010
0100
0001
0100
0010
1000
0001
0100
0010
,
1000
0100
0010
0001
0010
0100
1000
0001
0010
0001
0100
0010
1000
0001
0010
0100
1000
0010
0100
0001
0100
0010
1000
0100
,
0010
0001
0100
0010
1000
0001
1000
0010
0100
0001
0010
0100
1000
0010
0100
0001
,
1000
0000
0000
0100
0000
0000
0010
0000
0000
0001
0000
0000
0100
0000
0000
0010
0000
0000
1000
0000
0000
0001
0000
0000
0100
0000
0000
0000
0010
0000
0000
0000
1000
0000
0000
0000
0100
0000
0000
0000
0010
0000
0000
0000
0001
0000
0000
0000
0100
0000
0000
0000
0001
0000
0000
0000
1000
0000
0000
0000
0010
0000
0000
0000
0100
0000
0000
0000
0001
0000
0000
0000
1000
0000
0000
0000
0100
0000
0000
0000
0010
0000
0000
0000
0001
0000
0000
0000
0100
0000
0000
0000
0010
0000
0000
0000
,
0100
0001
1000
0010
0100
0010
1000
0001
1000
0010
0100
0001
1000
0100
0010
0001
0010
0100
1000
0010
0100
0001
1000
0100
,
0010
0001
1000
0010
1000
0100
0010
0001
0100
0001
1000
0100
0010
0001
0100
0010
1000
0001
0010
0001
0100
0010
1000
0100
,
0010
0001
1000
0010
1000
0001
0100
0010
1000
0100
0010
0001
1000
0010
0100
0001
1000
0100
0010
0001
0100
0010
1000
0001
,
0010
0000
0000
0100
0000
0000
1000
0000
0000
0001
0000
0000
0100
0000
0000
0010
0000
0000
0100
0000
0000
0001
0000
0000
1000
0000
0000
0000
0100
0000
0000
0000
0010
0000
0000
0000
0001
0000
0000
0000
0100
0000
0000
0000
0010
0000
0000
0000
1000
0000
0000
0000
0001
0000
0000
0000
0100
0000
0000
0000
0001
0000
0000
0000
0010
0000
0000
0000
0100
0000
0000
0000
1000
0000
0000
0000
0010
0000
0000
0000
0100
0000
0000
0000
0010
0000
0000
0000
1000
0000
0000
0000
0100
0000
0000
0000
,
0010
0001
0100
0010
1000
0001
0010
0100
1000
0010
0100
0001
0100
0010
1000
0001
0100
0010
1000
0100
0010
0001
0010
0100
,
1000
0001
0010
0001
0100
0010
1000
0001
0010
0100
1000
0010
0100
0001
0100
0010
1000
0100
0010
0001
0100
0010
1000
0001
,
0100
0000
0001
0000
0010
0000
0100
0000
1000
0000
0010
0000
0100
0000
0001
0000
1000
0000
0100
0000
0010
0000
0001
0000
0100
0000
0010
0000
1000
0000
0001
0000
0100
0000
0001
0000
1000
0000
0000
0010
0000
0000
0100
0000
0000
0001
0000
0000
,
1000
0100
0010
0001
0100
0010
1000
0010
0100
0001
1000
0100
0010
0001
0100
0010
1000
0001
0010
0100
1000
0010
0100
0001
,
0100
0010
1000
0100
0010
0001
1000
0010
1000
0100
0010
0001
0100
0010
1000
0001
0010
0100
1000
0100
0010
0001
0100
0010
,
1000
0001
0100
0001
0010
0100
1000
0010
0100
0010
1000
0100
0010
0001
0100
0010
1000
0001
0010
0100
1000
0010
0100
0001
,
0100
0010
1000
0001
0100
0010
1000
0100
0010
0001
0010
0100
1000
0001
0010
0001
0100
0010
1000
0001
0010
0100
1000
0010
,
0100
0001
0100
0010
1000
0100
0010
0001
0100
0010
1000
0001
0100
0001
0010
0100
1000
0010
0100
0001
1000
0100
0010
0001
,
0100
0010
1000
0001
0100
0001
0010
0100
1000
0010
0100
0001
1000
0100
0010
0001
0100
0010
1000
0001
0100
0001
0010
0100
,
1000
0010
0100
0010
1000
0100
0010
0001
0100
0010
1000
0001
0010
0100
1000
0010
0100
0001
0100
0010
1000
0001
0100
0010
,
1000
0100
0010
0001
0010
0100
1000
0001
0010
0001
0100
0010
1000
0001
0010
0100
1000
0010
0100
0001
0100
0010
1000
0100
,
0010
0001
0100
0010
1000
0001
0100
0001
0010
0100
1000
0010
0100
0001
1000
0100
0010
0001
0100
0010
1000
0001
0100
0001
,
0010
0100
1000
0010
0100
0001
1000
0100
1000
0010
0100
0001
0100
0010
1000
0001
1000
0100
0010
0001
0100
0010
1000
0001
,
0010
0100
1000
0010
0100
0001
0100
0010
1000
0100
0010
0001
1000
0010
1000
0100
0010
0001
0100
0010
1000
0001
0010
0100
,
1000
0010
0100
0002
1000
0003
0100
0001
1000
0020
0000
0000
0000
0000
0130
0001
,
1000
0001
0100
0010
0100
0001
1000
0100
0010
0001
0100
0010
1000
0001
0100
0001
0010
0100
1000
0010
0100
0010
1000
0100
,
0010
0001
0100
0010
1000
0001
0010
0100
1000
0010
0100
0001
0100
0010
1000
0001
0100
0010
1000
0100
0010
0001
0010
0100
,
1000
0001
0010
0001
0100
0010
1000
0001
0010
0100
1000
0010
0100
0001
0100
0010
1000
0100
0010
0001
0100
0010
1000
0001
,
0100
0001
0010
0100
1000
0010
0100
0001
1000
0100
0010
0001
0100
0010
1000
0001
0100
0001
0010
0100
1000
0010
0100
0001
,
1000
0100
1000
0010
0100
0001
0100
0010
1000
0001
1000
0100
0010
0001
0100
0010
1000
0001
0010
0100
1000
0010
0100
0001
,
0100
0010
1000
0100
0010
0001
1000
0010
1000
0100
0010
0001
0100
0010
1000
0001
0010
0100
1000
0100
0010
0001
0100
0010
,
1000
0001
0100
0001
0010
0100
1000
0010
0100
0010
1000
0100
0010
0001
0100
0010
1000
0001
0010
0100
1000
0010
0100
0001
,
0100
0010
1000
0001
0100
0010
1000
0100
0010
0001
0010
0100
1000
0001
0010
0001
0100
0010
1000
0001
0010
0100
1000
0010
,
0100
0001
0100
0010
1000
0100
0010
0001
0100
0010
1000
0001
0100
0001
0010
0100
1000
0010
0100
0001
1000
0100
0010
0001
,
0100
0010
1000
0001
0100
0001
0010
0100
1000
0010
0100
0001
1000
0100
0010
0001
0100
0010
1000
0001
0100
0001
0010
0100
,
1000
0010
0100
0010
1000
0100
0010
0001
0100
0010
1000
0001
0010
0100
1000
0010
0100
0001
0100
0010
1000
0001
0100
0010
,
1000
0100
0010
0001
0100
0010
1000
0001
0100
0001
0010
0100
1000
0010
0100
0010
1000
0100
0010
0001
0100
0010
1000
0001
,
0010
0100
1000
0010
0100
0001
0100
0010
1000
0001
0100
0010
1000
0100
0010
0001
0010
0100
1000
0001
0010
0001
0100
0010
,
1000
0001
0010
0100
1000
0010
0100
0001
0100
0010
1000
0100
0010
0001
0100
0010
1000
0001
0100
0001
0010
0100
1000
0010
,
0100
0001
1000
0100
0010
0001
0100
0010
1000
0001
0100
0001
0010
0100
1000
0010
0100
0001
1000
0100
1000
0010
0100
0001
,
0100
0010
1000
0100
0010
0001
0100
0010
1000
0001
0010
0100
1000
0100
0010
0001
,
1000
0010
1000
0100
0010
0001
0100
0010
1000
0001
0010
0100
1000
0100
0010
0001
0100
0010
1000
0001
0100
0001
0010
0100
,
1000
0010
0100
0010
1000
0100
0010
0001
0100
0010
1000
0001
0010
0100
1000
0010
0100
0001
0100
0010
1000
0001
0100
0010
,
1000
0100
0010
0001
0010
0100
1000
0001
0010
0001
0100
0010
1000
0001
0010
0100
1000
0010
0100
0001
0100
0010
1000
0100
,
0010
0001
0100
0010
1000
0001
1000
0010
0100
0001
0010
0100
1000
0010
0100
0000
,
2002
0000
0000
0MM0
0000
0000
0MM0
0000
0000
0MM0
0000
0000
0MM0
0000
0000
0000
,
0MM0
0000
0000
0000
,
0000
3003
0000
0000
,
0000
0000
0000
0000
,
0000
0000
0000
0000
,
0000
0000
0000
0000
;
